osu file format v14

[General]
AudioFilename: audio.mp3
AudioLeadIn: 0
PreviewTime: 236123
Countdown: 0
SampleSet: Soft
StackLeniency: 0.7
Mode: 0
LetterboxInBreaks: 0
WidescreenStoryboard: 1

[Editor]
Bookmarks: 1811,12478,24435,25768,30957,51065,51713,67281,72470,72551,72632,72713,72795,93227,103605,124362,134740,134822,134903,134984,135065,145119,150308,170518,190729,190808,190886,190965,191044,191123,191202,210939,211018,211097,211176,211255,211334,231150,236202,256413,266013,275613,278013,280413,280488,280563,280638,280713,314013,316413,318813,318888,318963,319038,319113,357213,367113,370973,375111
DistanceSpacing: 0.1
BeatDivisor: 4
GridSize: 4
TimelineZoom: 6.499996

[Metadata]
Title:Luyten's Star
TitleUnicode:Luyten's Star
Artist:Doomsday
ArtistUnicode:Doomsday
Creator:Tycani
Version:Hope and Darkness
Source:Battle of the Box 2024: Da Frengeon
Tags:fuiba fuyu type vey3est botb quarterfinals qf semifinals sf week 2 w2 tiebreaker tb custom song hatsune miku 初音ミク electronic japanese uk hardcore
BeatmapID:4490753
BeatmapSetID:2134395

[Difficulty]
HPDrainRate:5
CircleSize:4
OverallDifficulty:9.9
ApproachRate:9.7
SliderMultiplier:1.7
SliderTickRate:1

[Events]
//Background and Video events
0,0,"typebg.jpg",0,0
//Break Periods
2,145319,148516
2,236123,250865
2,275513,277518
//Storyboard Layer 0 (Background)
//Storyboard Layer 1 (Fail)
//Storyboard Layer 2 (Pass)
//Storyboard Layer 3 (Foreground)
//Storyboard Layer 4 (Overlay)
//Storyboard Sound Samples

[TimingPoints]
478,333.333333333333,4,2,1,40,1,0
1811,-250,4,2,1,40,0,0
10977,-125,4,2,1,43,0,0
11311,-100,4,2,1,46,0,0
11644,-83.3333333333333,4,2,1,50,0,0
11977,-71.4285714285714,4,2,1,55,0,0
12477,-83.3333333333333,4,2,1,60,0,0
14644,-100,4,2,1,60,0,0
15144,-83.3333333333333,4,2,1,60,0,0
16977,-100,4,2,1,60,0,0
17811,-76.9230769230769,4,2,1,60,0,0
19144,-133.333333333333,4,2,1,60,0,0
19811,-100,4,2,1,60,0,0
20478,346.820809248555,4,2,1,60,1,0
20824,370.37037037037,4,2,1,60,1,0
21194,397.350993377483,4,2,1,60,1,0
21591,444.444444444444,4,2,1,60,1,0
22035,600,4,2,1,60,1,0
24435,333.333333333333,4,2,1,60,1,0
25768,324.324324324324,4,2,1,80,1,0
30957,-50,4,2,1,80,0,0
31281,-66.6666666666667,4,2,1,80,0,0
32416,-50,4,2,1,80,0,0
32903,-58.8235294117647,4,2,1,80,0,0
33227,-83.3333333333333,4,2,1,80,0,0
33389,-58.8235294117647,4,2,1,80,0,0
33551,-50,4,2,1,80,0,0
33876,-83.3333333333333,4,2,1,80,0,0
34038,-66.6666666666667,4,2,1,80,0,0
35011,-50,4,2,1,80,0,0
35254,-43.4782608695652,4,2,1,80,0,0
35497,-38.4615384615385,4,2,1,80,0,0
35659,-41.6666666666667,4,2,1,80,0,0
36146,-50,4,2,1,80,0,0
36470,-66.6666666666667,4,2,1,80,0,0
37605,-50,4,2,1,80,0,0
39065,-83.3333333333333,4,2,1,80,0,0
40200,-50,4,2,1,80,0,0
40443,-45.4545454545455,4,2,1,80,0,0
40686,-41.6666666666667,4,2,1,80,0,0
41335,-50,4,2,1,80,0,0
41659,-66.6666666666667,4,2,1,80,0,0
42795,-50,4,2,1,80,0,0
43605,-66.6666666666667,4,2,1,80,0,0
43930,-50,4,2,1,80,0,0
44254,-83.3333333333333,4,2,1,80,0,0
44416,-66.6666666666667,4,2,1,80,0,0
45389,-50,4,2,1,80,0,0
45632,-43.4782608695652,4,2,1,80,0,0
45876,-38.4615384615385,4,2,1,80,0,0
46038,-50,4,2,1,80,0,0
46362,-66.6666666666667,4,2,1,80,0,0
46524,-50,4,2,1,80,0,0
46849,-66.6666666666667,4,2,1,80,0,0
47984,-50,4,2,1,80,0,0
48795,-66.6666666666667,4,2,1,80,0,0
49119,-50,4,2,1,80,0,0
49443,-66.6666666666667,4,2,1,80,0,0
50578,-50,4,2,1,80,0,0
50822,-43.4782608695652,4,2,1,80,0,0
52038,-66.6666666666667,4,2,1,80,0,0
52362,-49.1064940094771,4,2,1,80,0,0
52686,-66.6666666666667,4,2,1,80,0,0
54957,-55.5555555555556,4,2,1,80,0,0
55767,-50,4,2,1,80,0,0
56011,-43.4782608695652,4,2,1,80,0,0
56903,-66.6666666666667,4,2,1,80,0,0
57551,-49.1064940094771,4,2,1,80,0,0
57876,-66.6666666666667,4,2,1,80,0,0
59497,-55.5555555555556,4,2,1,80,0,0
59822,-66.6666666666667,4,2,1,80,0,0
60957,-50,4,2,1,80,0,0
61200,-43.4782608695652,4,2,1,80,0,0
62092,-50,4,2,1,80,0,0
62416,-66.6666666666667,4,2,1,80,0,0
62740,-49.1064940094771,4,2,1,80,0,0
63065,-66.6666666666667,4,2,1,80,0,0
65335,-55.5555555555556,4,2,1,80,0,0
65659,-42.9648603850803,4,2,1,80,0,0
66146,-50,4,2,1,80,0,0
66389,-43.4782608695652,4,2,1,80,0,0
67281,-40,4,2,1,90,0,1
67767,-37.037037037037,4,2,1,90,0,1
68092,-37.037037037037,4,2,1,90,0,0
68578,-40,4,2,1,90,0,1
69065,-37.037037037037,4,2,1,90,0,1
69389,-50,4,2,1,90,0,0
69876,-40,4,2,1,90,0,1
71173,-100,4,2,1,75,0,0
72146,-100,4,2,1,80,0,0
72470,-43.4782608695652,4,2,1,90,0,1
72795,-55.5555555555556,4,2,1,90,0,1
74578,-47.6190476190476,4,2,1,90,0,1
75389,-58.8235294117647,4,2,1,90,0,1
77659,-45.4545454545455,4,2,1,90,0,1
77984,-55.5555555555556,4,2,1,90,0,1
78957,-58.8235294117647,4,2,1,90,0,1
80254,-52.6315789473684,4,2,1,90,0,1
80578,-58.8235294117647,4,2,1,90,0,1
81713,-55.5555555555556,4,2,1,90,0,1
82038,-52.6315789473684,4,2,1,90,0,1
82362,-50,4,2,1,90,0,1
82849,-45.4545454545455,4,2,1,90,0,1
83173,-55.5555555555556,4,2,1,90,0,1
84146,-58.8235294117647,4,2,1,90,0,1
84957,-55.5555555555556,4,2,1,90,0,1
85767,-58.8235294117647,4,2,1,90,0,1
89335,-47.6190476190476,4,2,1,90,0,1
89659,-58.8235294117647,4,2,1,90,0,1
89984,-47.6190476190476,4,2,1,90,0,1
90308,-55.5555555555556,4,2,1,90,0,1
91281,-58.8235294117647,4,2,1,90,0,1
93227,-45.4545454545455,4,2,1,85,0,0
93551,-100,4,2,1,85,0,0
93713,-66.6666666666667,4,2,1,85,0,0
94686,-50,4,2,1,85,0,0
95497,-83.3333333333333,4,2,1,85,0,0
95659,-66.6666666666667,4,2,1,85,0,0
95822,-50,4,2,1,85,0,0
96146,-83.3333333333333,4,2,1,85,0,0
96308,-66.6666666666667,4,2,1,85,0,0
97281,-50,4,2,1,85,0,0
97524,-43.4782608695652,4,2,1,85,0,0
98254,-76.9230769230769,4,2,1,85,0,0
98416,-45.4545454545455,4,2,1,85,0,0
98740,-100,4,2,1,85,0,0
98903,-66.6666666666667,4,2,1,85,0,0
99876,-50,4,2,1,85,0,0
100686,-66.6666666666667,4,2,1,85,0,0
101011,-43.4782608695652,4,2,1,85,0,0
101335,-100,4,2,1,85,0,0
101497,-66.6666666666667,4,2,1,85,0,0
102470,-50,4,2,1,85,0,0
103605,-41.6666666666667,4,2,1,90,0,1
103930,-55.5555555555556,4,2,1,90,0,1
106849,-58.8235294117647,4,2,1,90,0,1
108957,-52.6315789473684,4,2,1,90,0,1
110416,-58.8235294117647,4,2,1,90,0,1
111227,-50,4,2,1,90,0,1
111551,-52.6315789473684,4,2,1,90,0,1
113011,-62.5,4,2,1,90,0,1
113335,-55.5555555555556,4,2,1,90,0,1
113984,-41.6666666666667,4,2,1,90,0,1
114308,-55.5555555555556,4,2,1,90,0,1
115119,-62.5,4,2,1,90,0,1
115605,-58.8235294117647,4,2,1,90,0,1
119173,-47.6190476190476,4,2,1,90,0,1
119497,-55.5555555555556,4,2,1,90,0,1
119984,-62.5,4,2,1,90,0,1
121767,-45.4545454545455,4,2,1,90,0,1
122092,-55.5555555555556,4,2,1,90,0,1
122740,-58.8235294117647,4,2,1,90,0,1
123713,-45.4545454545455,4,2,1,90,0,1
124200,-38.4615384615385,4,2,1,90,0,1
124362,-38.4615384615385,4,2,1,80,0,0
124605,-43.4782608695652,4,2,1,80,0,0
124849,-40,4,2,1,80,0,0
125173,-52.6315789473684,4,2,1,80,0,0
125578,-50,4,2,1,80,0,0
125822,-45.4545454545455,4,2,1,80,0,0
126065,-52.6315789473684,4,2,1,80,0,0
126308,-41.6666666666667,4,2,1,80,0,0
127443,-38.4615384615385,4,2,1,80,0,0
128254,-43.4782608695652,4,2,1,80,0,0
128740,-50,4,2,1,80,0,0
129551,-41.6666666666667,4,2,1,80,0,0
129795,-40,4,2,1,80,0,0
130038,-52.6315789473684,4,2,1,80,0,0
130200,-40,4,2,1,80,0,0
131092,-38.4615384615385,4,2,1,80,0,0
131335,-50,4,2,1,80,0,0
131497,-41.6666666666667,4,2,1,80,0,0
131740,-40,4,2,1,80,0,0
131984,-50,4,2,1,80,0,0
132146,-41.6666666666667,4,2,1,80,0,0
132795,-40,4,2,1,80,0,0
133281,-45.4545454545455,4,2,1,80,0,0
134092,-43.4782608695652,4,2,1,80,0,0
134335,-40,4,2,1,80,0,0
134578,-37.037037037037,4,2,1,80,0,0
135065,-43.4782608695652,4,2,1,85,0,0
135551,-55.5555555555556,4,2,1,85,0,0
136362,-66.6666666666667,4,2,1,85,0,0
136686,-47.6190476190476,4,2,1,85,0,0
137659,-43.4782608695652,4,2,1,85,0,0
138146,-66.6666666666667,4,2,1,85,0,0
138632,-55.5555555555556,4,2,1,85,0,0
139281,-43.4782608695652,4,2,1,85,0,0
139930,-40,4,2,1,85,0,1
140011,-40,4,2,1,85,0,0
140578,-38.4615384615385,4,2,1,85,0,0
141227,-40,4,2,1,85,0,1
141308,-40,4,2,1,85,0,0
141713,-43.4782608695652,4,2,1,85,0,0
141876,-35.7142857142857,4,2,1,85,0,0
142524,-35.7142857142857,4,2,1,85,0,1
142605,-35.7142857142857,4,2,1,85,0,0
142686,-45.4545454545455,4,2,1,85,0,0
142849,-40,4,2,1,85,0,0
143011,-50,4,2,1,85,0,0
143173,-37.037037037037,4,2,1,85,0,1
143254,-40,4,2,1,85,0,0
143335,-50,4,2,1,85,0,0
143497,-40,4,2,1,85,0,0
143659,-50,4,2,1,85,0,0
143822,-37.5329787973727,4,2,1,85,0,1
143903,-37.5329787973727,4,2,1,85,0,0
144146,-37.5329787973727,4,2,1,85,0,1
144227,-37.5329787973727,4,2,1,85,0,0
144470,-37.037037037037,4,2,1,85,0,1
144551,-37.037037037037,4,2,1,85,0,0
144713,-35.7142857142857,4,2,1,85,0,1
144795,-35.7142857142857,4,2,1,85,0,0
144957,-34.4827586206897,4,2,1,85,0,1
145119,-34.4827586206897,4,2,1,85,0,0
149011,-34.4827586206897,4,2,1,55,0,0
149335,-100,4,2,1,55,0,0
149659,-63.1089576777828,4,2,1,55,0,0
150308,315.789473684211,4,2,1,70,1,0
150308,-333.333333333333,4,2,1,70,0,0
150623,-100,4,2,1,70,0,0
152202,-63.1089576777827,4,2,1,70,0,0
152834,-1000,4,2,1,70,0,0
154097,-250,4,2,1,70,0,0
154413,-166.666666666667,4,2,1,70,0,0
155360,-100,4,2,1,70,0,0
155992,-66.6666666666667,4,2,1,70,0,0
156623,-100,4,2,1,70,0,0
157255,-63.1089576777827,4,2,1,70,0,0
157886,-1000,4,2,1,70,0,0
159150,-250,4,2,1,70,0,0
159465,-166.666666666667,4,2,1,70,0,0
160413,-100,4,2,1,70,0,0
161044,-63.1089576777827,4,2,1,70,0,0
161676,-83.3333333333333,4,2,1,70,0,0
162939,-1000,4,2,1,70,0,0
164202,-250,4,2,1,70,0,0
164518,-166.666666666667,4,2,1,70,0,0
165465,-100,4,2,1,70,0,0
166729,-125,4,2,1,70,0,0
167992,-200,4,2,1,70,0,0
169255,-250,4,2,1,70,0,0
169571,-166.666666666667,4,2,1,70,0,0
169886,-125,4,2,1,70,0,0
170202,-100,4,2,1,70,0,0
171150,-63.1089576777827,4,2,1,75,0,0
171886,-100,4,2,1,75,0,0
172413,-63.1089576777827,4,2,1,75,0,0
173044,-100,4,2,1,75,0,0
176202,-63.1089576777827,4,2,1,75,0,0
176834,-100,4,2,1,75,0,0
177465,-63.1089576777827,4,2,1,75,0,0
178097,-100,4,2,1,75,0,0
179360,-166.666666666667,4,2,1,75,0,0
180623,-100,4,2,1,75,0,0
181255,-63.1089576777827,4,2,1,75,0,0
181886,-100,4,2,1,75,0,0
182518,-63.1089576777827,4,2,1,75,0,0
184413,-100,4,2,1,75,0,0
187571,-63.1089576777827,4,2,1,75,0,0
188202,-100,4,2,1,75,0,0
190729,-45.4545454545455,4,2,1,80,0,1
191360,-66.6666666666667,4,2,1,80,0,1
193255,-55.5555555555556,4,2,1,80,0,1
193886,-66.6666666666667,4,2,1,80,0,1
195150,-55.5555555555556,4,2,1,80,0,1
196097,-66.6666666666667,4,2,1,80,0,1
196413,-42.0726405619871,4,2,1,80,0,1
197044,-66.6666666666667,4,2,1,80,0,1
200834,-47.6190476190476,4,2,1,80,0,1
201150,-30.0518848237876,4,2,1,80,0,1
201781,-66.6666666666667,4,2,1,80,0,1
202729,-42.0726405619871,4,2,1,80,0,1
203360,-66.6666666666667,4,2,1,80,0,1
205255,-50,4,2,1,80,0,1
206202,-66.6666666666667,4,2,1,80,0,1
206518,-42.0726405619871,4,2,1,80,0,1
207255,-66.6666666666667,4,2,1,80,0,1
210308,-66.6666666666667,4,2,1,80,0,0
210939,-47.6190476190476,4,2,1,85,0,1
211360,-66.6666666666667,4,2,1,85,0,1
212202,-100,4,2,1,85,0,1
213465,-55.5555555555556,4,2,1,85,0,1
214097,-66.6666666666667,4,2,1,85,0,1
217255,-100,4,2,1,85,0,1
218518,-55.5555555555556,4,2,1,85,0,1
219150,-66.6666666666667,4,2,1,85,0,1
221044,-47.6190476190476,4,2,1,85,0,1
221465,-66.6666666666667,4,2,1,85,0,1
222308,-100,4,2,1,85,0,1
222623,-66.6666666666667,4,2,1,85,0,1
223571,-76.9230769230769,4,2,1,85,0,1
223992,-66.6666666666667,4,2,1,85,0,1
224834,-100,4,2,1,85,0,1
225465,-83.3333333333333,4,2,1,85,0,1
226097,-52.6315789473684,4,2,1,85,0,1
226413,-58.8235294117647,4,2,1,85,0,1
227360,-100,4,2,1,85,0,1
227781,-66.6666666666667,4,2,1,85,0,1
229886,-100,4,2,1,85,0,1
230308,-66.6666666666667,4,2,1,85,0,1
231097,-66.6666666666667,4,2,1,85,0,0
231150,-66.6666666666667,4,2,1,80,0,1
236202,-125,4,2,1,60,0,0
252623,-83.3333333333333,4,2,1,60,0,0
252939,-100,4,2,1,60,0,0
253886,-100,4,2,1,70,0,0
255150,-27.3937148325039,4,2,1,80,0,0
256413,300,4,2,1,75,1,0
256413,-500,4,2,1,75,0,0
256713,-50,4,2,1,85,0,1
257013,-50,4,2,1,85,0,0
257163,-50,4,2,1,85,0,1
257463,-50,4,2,1,85,0,0
257613,-50,4,2,1,85,0,1
257838,-50,4,2,1,85,0,0
257913,-50,4,2,1,85,0,1
258138,-50,4,2,1,85,0,0
258663,-40,4,2,1,85,0,1
258813,-40,4,2,1,75,0,0
259113,-50,4,2,1,85,0,1
259413,-50,4,2,1,85,0,0
259563,-50,4,2,1,85,0,1
259863,-50,4,2,1,85,0,0
260013,-50,4,2,1,85,0,1
260238,-50,4,2,1,85,0,0
260313,-50,4,2,1,85,0,1
260538,-50,4,2,1,85,0,0
261063,-40,4,2,1,85,0,1
261213,-40,4,2,1,75,0,0
261513,-50,4,2,1,85,0,1
261813,-50,4,2,1,85,0,0
261963,-50,4,2,1,85,0,1
262263,-50,4,2,1,85,0,0
262863,-40,4,2,1,85,0,0
263013,-40,4,2,1,85,0,1
263163,-40,4,2,1,85,0,0
263238,-40,4,2,1,85,0,1
263388,-40,4,2,1,85,0,0
263463,-40,4,2,1,85,0,1
263613,-40,4,2,1,75,0,0
263913,-50,4,2,1,85,0,1
264213,-50,4,2,1,85,0,0
264363,-50,4,2,1,85,0,1
264663,-50,4,2,1,85,0,0
264813,-50,4,2,1,85,0,1
265113,-50,4,2,1,85,0,0
265263,-50,4,2,1,85,0,1
265488,-50,4,2,1,85,0,0
265563,-50,4,2,1,85,0,1
265788,-50,4,2,1,85,0,0
265863,-50,4,2,1,85,0,1
265938,-50,4,2,1,85,0,0
266013,-55.5555555555556,4,2,1,80,0,0
266313,-66.6666666666667,4,2,1,80,0,0
266613,-76.9230769230769,4,2,1,80,0,0
270213,-50,4,2,1,80,0,0
270813,-100,4,2,1,85,0,0
273213,-43.4782608695652,4,2,1,85,0,0
278013,-76.9230769230769,4,2,1,60,0,0
278613,-76.9230769230769,4,2,1,65,0,0
279213,-76.9230769230769,4,2,1,70,0,0
279513,-76.9230769230769,4,2,1,75,0,0
279813,-76.9230769230769,4,2,1,80,0,0
280413,-41.6666666666667,4,2,1,90,0,1
280713,-55.5555555555556,4,2,1,90,0,1
281463,-66.6666666666667,4,2,1,90,0,1
281613,-50,4,2,1,90,0,1
282063,-45.4545454545455,4,2,1,90,0,1
282963,-58.8235294117647,4,2,1,90,0,1
283413,-83.3333333333333,4,2,1,90,0,1
284013,-50,4,2,1,90,0,1
284463,-66.6666666666667,4,2,1,90,0,1
285213,-45.4545454545455,4,2,1,90,0,1
285813,-66.6666666666667,4,2,1,90,0,1
286413,-50,4,2,1,90,0,1
288663,-55.5555555555556,4,2,1,90,0,1
288963,-50,4,2,1,90,0,1
289263,-45.4545454545455,4,2,1,90,0,1
289563,-41.6666666666667,4,2,1,90,0,1
290013,-38.4615384615385,4,2,1,90,0,1
290313,-50,4,2,1,90,0,1
290613,-66.6666666666667,4,2,1,90,0,1
291213,-50,4,2,1,90,0,1
292413,-41.6666666666667,4,2,1,90,0,1
292713,-55.5555555555556,4,2,1,90,0,1
293613,-55.5555555555556,4,2,1,90,0,1
294063,-62.5,4,2,1,90,0,1
294363,-52.6315789473684,4,2,1,90,0,1
294813,-43.4782608695652,4,2,1,90,0,1
295413,-55.5555555555556,4,2,1,90,0,1
297363,-66.6666666666667,4,2,1,90,0,1
298413,-55.5555555555556,4,2,1,90,0,1
298713,-58.8235294117647,4,2,1,90,0,1
298863,-50,4,2,1,90,0,1
299313,-34.475359877272,4,2,1,90,0,1
299613,-40,4,2,1,90,0,1
299913,-55.5555555555556,4,2,1,90,0,1
300813,-50,4,2,1,90,0,1
301113,-55.5555555555556,4,2,1,90,0,1
301263,-45.4545454545455,4,2,1,90,0,1
301563,-58.8235294117647,4,2,1,90,0,1
302013,-45.4545454545455,4,2,1,90,0,1
302313,-55.5555555555556,4,2,1,90,0,1
303213,-50,4,2,1,90,0,1
303513,-58.8235294117647,4,2,1,90,0,1
304563,-55.5555555555556,4,2,1,90,0,1
305913,-66.6666666666667,4,2,1,90,0,1
306963,-55.5555555555556,4,2,1,90,0,1
308313,-66.6666666666667,4,2,1,90,0,1
310413,-45.4545454545455,4,2,1,90,0,1
310863,-50,4,2,1,90,0,1
311613,-58.8235294117647,4,2,1,90,0,1
311913,-50,4,2,1,90,0,1
312213,-66.6666666666667,4,2,1,90,0,1
312813,-50,4,2,1,90,0,1
313113,-58.8235294117647,4,2,1,90,0,1
313263,-43.4782608695652,4,2,1,90,0,1
313863,-1000,4,2,1,90,0,0
314163,-1000,4,2,1,80,0,0
314313,-50,4,2,1,90,0,1
314613,-50,4,2,1,80,0,0
314913,-50,4,2,1,90,0,1
315213,-50,4,2,1,80,0,0
315513,-50,4,2,1,90,0,1
315813,-50,4,2,1,80,0,0
316113,-50,4,2,1,90,0,0
316413,-50,4,2,1,85,0,0
318213,-55.5555555555556,4,2,1,90,0,0
318813,-40,4,2,1,100,0,1
322413,-333.333333333333,4,2,1,100,0,1
323613,-40,4,2,1,100,0,1
327213,-333.333333333333,4,2,1,100,0,1
328413,-40,4,2,1,100,0,1
332013,-333.333333333333,4,2,1,100,0,1
333213,-40,4,2,1,100,0,1
336813,-333.333333333333,4,2,1,100,0,1
338013,-40,4,2,1,100,0,1
341613,-333.333333333333,4,2,1,100,0,1
342813,-40,4,2,1,100,0,1
346413,-333.333333333333,4,2,1,100,0,1
347613,-40,4,2,1,100,0,1
351213,-333.333333333333,4,2,1,100,0,1
352413,-40,4,2,1,100,0,1
356013,-333.333333333333,4,2,1,100,0,1
357213,-100,4,2,1,90,0,0
357513,-43.4782608695652,4,2,1,100,0,1
357963,-41.6666666666667,4,2,1,100,0,1
358563,-38.4615384615385,4,2,1,100,0,1
358863,-50,4,2,1,100,0,1
359613,-50,4,2,1,90,0,0
359913,-41.6666666666667,4,2,1,100,0,1
360363,-40,4,2,1,100,0,1
360813,-38.4615384615385,4,2,1,100,0,1
361263,-66.6666666666667,4,2,1,100,0,1
362013,-66.6666666666667,4,2,1,100,0,0
362313,-55.5555555555556,4,2,1,100,0,1
365613,-50,4,2,1,100,0,1
367113,300,4,2,1,80,1,0
367713,309.278350515464,4,2,1,70,1,0
368331,315.789473684211,4,2,1,60,1,0
368962,324.324324324324,4,2,1,50,1,0
369610,337.078651685393,4,2,1,40,1,0
370284,344.827586206897,4,2,1,30,1,0

[Colours]
Combo1 : 200,55,156
Combo2 : 64,149,149

[HitObjects]
32,102,1811,6,0,P|74:87|98:87,1,68
96,86,2311,1,0,0:0:0:0:
96,86,2477,1,0,0:0:0:0:
96,86,2644,1,0,0:0:0:0:
28,273,2811,6,0,P|26:246|25:235,1,34,2|0,0:0|0:0,0:0:0:0:
93,179,3144,2,0,P|95:206|96:217,1,34
171,259,3477,2,0,P|169:232|168:221,2,34
257,334,3977,5,0,0:0:0:0:
332,260,4144,1,0,0:0:0:0:
287,161,4311,1,0,0:0:0:0:
345,103,4477,6,0,P|355:71|342:28,1,68
347,37,4977,1,0,0:0:0:0:
210,227,5144,6,0,P|242:236|247:238,1,34,2|0,0:0|0:0,0:0:0:0:
353,245,5477,2,0,P|321:236|316:234,1,34
254,151,5811,2,0,P|286:160|291:162,1,34
397,169,6144,2,0,P|365:160|360:158,2,34
510,113,6644,5,0,0:0:0:0:
484,260,6811,1,0,0:0:0:0:
320,235,6977,1,0,0:0:0:0:
258,297,7144,6,0,P|226:310|181:306,1,68
192,309,7644,1,0,0:0:0:0:
192,309,7811,1,0,0:0:0:0:
192,309,7977,1,0,0:0:0:0:
135,256,8144,2,0,P|145:230|147:217,1,34
93,144,8477,2,0,P|83:170|81:183,1,34
4,251,8811,2,0,P|14:225|16:212,1,34
92,36,9144,6,0,P|122:43|138:46,2,34,2|0|0,0:0|0:0|0:0,0:0:0:0:
24,78,9644,1,0,0:0:0:0:
190,145,9811,6,0,P|226:144|259:129,1,68
255,131,10311,1,0,0:0:0:0:
393,49,10477,6,0,P|372:43|354:35,2,34,2|0|0,0:0|0:0|0:0,0:0:0:0:
348,257,10977,6,0,P|338:221|332:175,1,68,2|0,0:0|0:0,0:0:0:0:
477,295,11311,6,0,P|433:330|396:373,1,85,2|0,0:0|0:0,0:0:0:0:
203,175,11644,6,0,P|213:123|233:63,1,101.999996887207,2|0,0:0|0:0,0:0:0:0:
311,329,11977,6,0,P|237:305|172:290,1,118.999996368408,2|0,0:0|0:0,0:0:0:0:
17,206,12311,2,0,P|45:200|80:192,1,59.4999981842042,2|0,0:0|0:0,0:0:0:0:
352,97,12477,6,0,B|407:85|407:85|454:75|434:3|389:11|389:11|187:52|187:52|166:91|166:91|71:115|71:115|50:80|50:80|102:9|102:9|149:28|149:28|176:187|176:187|201:205|201:205|348:174,1,1019.99996887207,4|0,0:0|0:0,0:0:0:0:
327,179,14644,6,0,P|319:215|334:272,1,85,2|0,0:0|0:0,0:0:0:0:
425,226,14977,1,2,0:0:0:0:
425,226,15061,1,0,0:0:0:0:
425,226,15144,2,0,B|353:218|353:218|227:206|227:206|163:200|172:121|243:126|243:126|462:148|462:148|486:96|486:96|444:41|444:41|376:61|376:61|401:115,1,815.999975097657,4|0,0:0|0:0,0:0:0:0:
399,111,16977,6,0,P|421:143|412:211,1,85,2|0,0:0|0:0,0:0:0:0:
264,228,17311,2,0,P|242:260|251:328,1,85,2|0,0:0|0:0,0:0:0:0:
346,363,17644,1,2,0:0:0:0:
132,247,17811,6,0,B|85:163|132:81|295:148|195:-73|83:-69|18:30|42:180|202:70|229:238|229:238|233:168|262:145,1,662.99996965027,4|0,0:0|0:0,0:0:0:0:
256,149,19144,6,0,P|330:171|399:80,1,191.250007295609,2|0,0:0|0:0,0:0:0:0:
154,251,19811,6,0,B|59:122|122:-9|213:5|237:68|189:100,1,340,2|4,0:0|0:0,0:0:0:0:
256,192,20564,12,2,24435,0:3:0:0:
101,36,25768,6,0,P|105:79|109:130,1,85,12|0,1:2|0:0,0:0:0:0:
133,330,26092,1,0,1:0:0:0:
133,330,26416,1,0,1:0:0:0:
133,330,26740,2,0,P|86:316|42:307,1,85,0|0,1:0|0:0,0:0:0:0:
232,243,27065,6,0,P|298:231|298:132,1,170,0|0,1:0|1:0,0:0:0:0:
236,86,27551,1,0,0:0:0:0:
32,156,27713,1,0,1:0:0:0:
32,156,28038,2,0,P|89:165|132:172,1,85,0|0,1:0|0:0,0:0:0:0:
360,88,28362,5,0,1:0:0:0:
112,15,28524,1,0,1:0:0:0:
182,233,28686,1,0,1:0:0:0:
269,4,28849,1,0,1:0:0:0:
384,210,29011,1,0,1:0:0:0:
86,286,29173,1,0,1:0:0:0:
86,286,29254,1,0,1:0:0:0:
86,286,29335,2,0,P|112:289|149:299,1,42.5,0|0,1:0|0:0,0:0:0:0:
298,171,29497,2,0,P|272:168|235:158,1,42.5,0|0,1:0|0:0,0:0:0:0:
114,100,29659,5,0,1:0:0:0:
117,92,29740,1,0,1:0:0:0:
120,84,29822,1,0,1:0:0:0:
124,76,29903,1,0,1:0:0:0:
127,68,29984,1,0,1:0:0:0:
130,60,30065,1,0,1:0:0:0:
133,52,30146,1,0,1:0:0:0:
136,44,30227,1,0,1:0:0:0:
139,36,30308,5,8,0:0:0:0:
180,26,30389,1,8,0:0:0:0:
222,28,30470,1,8,0:0:0:0:
260,46,30551,1,8,0:0:0:0:
294,72,30632,1,8,0:0:0:0:
329,95,30713,1,8,0:0:0:0:
370,108,30795,1,8,0:0:0:0:
412,107,30876,1,8,0:0:0:0:
454,96,30957,6,0,B|447:134|447:134|228:101,1,255,6|2,1:2|0:0,0:0:0:0:
117,16,31281,2,0,L|181:26,1,63.7500024318696,0|0,1:2|0:0,0:0:0:0:
321,0,31443,1,2,0:0:0:0:
296,199,31605,1,2,1:2:0:0:
294,211,31686,1,2,0:0:0:0:
293,223,31767,1,2,0:0:0:0:
291,235,31849,1,2,0:0:0:0:
290,247,31930,1,2,1:2:0:0:
245,244,32011,1,2,0:0:0:0:
200,241,32092,1,2,0:0:0:0:
155,238,32173,1,2,0:0:0:0:
110,235,32254,1,0,1:0:0:0:
267,370,32416,6,0,B|321:361|321:361|346:317|346:317|410:306,1,170,2|0,0:0|1:2,0:0:0:0:
496,312,32659,2,0,B|452:340|452:340|411:279|452:228|452:228|465:175|426:151,1,255,2|2,0:0|1:2,0:0:0:0:
237,14,33146,1,2,0:0:0:0:
251,37,33227,2,0,L|329:49,1,50.9999984436036,0|0,1:0|0:0,0:0:0:0:
431,154,33389,2,0,B|428:176|428:176|354:166,1,72.2500013780594,2|0,0:0|0:0,0:0:0:0:
79,86,33551,6,0,B|35:112|35:112|64:173|64:173|148:130|148:130|160:83,1,255,2|2,1:2|0:0,0:0:0:0:
127,18,33876,2,0,L|77:6,1,50.9999984436036,0|0,1:0|0:0,0:0:0:0:
220,173,34038,2,0,L|284:157,1,63.7500024318696,2|0,0:0|0:0,0:0:0:0:
426,62,34200,5,2,1:2:0:0:
422,74,34281,1,2,0:0:0:0:
410,70,34362,1,2,0:0:0:0:
413,57,34443,1,2,0:0:0:0:
434,59,34524,5,2,1:2:0:0:
426,82,34605,1,2,0:0:0:0:
402,74,34686,1,2,0:0:0:0:
408,49,34767,2,0,B|412:36|412:36|469:54,1,63.7500024318696,2|0,0:0|1:0,0:0:0:0:
415,344,35011,6,0,B|334:331|334:331|313:308|313:308|251:298,1,170,6|0,1:2|0:0,0:0:0:0:
184,252,35254,2,0,B|113:258|113:258|142:136,1,195.500003728867,6|0,1:2|0:0,0:0:0:0:
204,66,35497,6,0,L|251:178,1,110.499994941712,12|0,0:0|0:0,0:0:0:0:
75,333,35659,2,0,L|104:227,1,101.999996887207,8|0,0:0|0:0,0:0:0:0:
336,144,35822,1,0,1:0:0:0:
88,14,35984,1,0,3:0:0:0:
88,14,36065,1,0,3:0:0:0:
88,14,36146,6,0,B|55:56|55:56|126:85|126:85|174:35|174:35|228:54,1,255,6|2,1:2|0:0,0:0:0:0:
306,61,36470,2,0,L|225:74,1,63.7500024318696,0|0,1:0|0:0,0:0:0:0:
7,112,36632,1,2,0:0:0:0:
28,249,36795,1,2,1:2:0:0:
46,245,36876,1,2,0:0:0:0:
65,242,36957,1,2,0:0:0:0:
83,238,37038,1,2,0:0:0:0:
102,234,37119,1,2,1:2:0:0:
97,196,37200,1,2,0:0:0:0:
92,158,37281,1,2,0:0:0:0:
129,150,37362,1,2,0:0:0:0:
166,143,37443,1,0,1:0:0:0:
315,353,37605,6,0,B|232:365|239:297|127:319,1,170,2|0,0:0|1:0,0:0:0:0:
226,276,37849,2,0,B|282:238|252:165|252:165|183:193|183:193|159:169|167:119,1,255,2|2,0:0|1:2,0:0:0:0:
211,54,38254,1,0,0:0:0:0:
329,103,38416,1,0,1:0:0:0:
499,24,38578,2,0,B|455:17|455:17|445:65,1,85,2|0,0:0|0:0,0:0:0:0:
387,258,38740,6,0,B|407:285|441:285|441:285|477:221|477:221|473:160|406:128,1,255,2|2,1:2|0:0,0:0:0:0:
329,103,39065,2,0,L|321:162,1,50.9999984436036,0|0,1:0|0:0,0:0:0:0:
231,340,39227,2,0,L|223:281,1,50.9999984436036,2|0,0:0|0:0,0:0:0:0:
196,136,39389,5,2,1:2:0:0:
194,125,39470,1,2,0:0:0:0:
192,114,39551,1,2,0:0:0:0:
190,103,39632,1,2,0:0:0:0:
188,92,39713,5,2,1:2:0:0:
180,132,39795,1,2,0:0:0:0:
221,139,39876,1,2,0:0:0:0:
228,99,39957,2,0,B|230:81|230:81|177:72,1,50.9999984436036,2|0,0:0|1:0,0:0:0:0:
459,250,40200,6,0,P|359:257|298:318,1,170,6|0,1:2|0:0,0:0:0:0:
149,299,40443,2,0,B|121:274|121:274|149:228|149:228|252:257,1,187.000005706787,6|0,1:2|0:0,0:0:0:0:
399,353,40686,6,0,L|290:388,1,101.999996887207,12|0,0:0|0:0,0:0:0:0:
84,230,40849,2,0,L|193:195,1,101.999996887207,8|0,0:0|0:0,0:0:0:0:
414,129,41011,1,0,1:0:0:0:
191,50,41173,1,0,1:0:0:0:
191,50,41254,1,0,1:0:0:0:
191,50,41335,6,0,B|138:89|138:89|249:126|249:126|289:92|289:92|266:53,1,255,6|2,1:2|0:0,0:0:0:0:
148,128,41659,2,0,L|83:147,1,63.7500024318696,0|0,1:0|0:0,0:0:0:0:
304,200,41822,2,0,L|369:219,1,63.7500024318696,2|0,0:0|0:0,0:0:0:0:
170,345,41984,5,2,1:2:0:0:
160,332,42065,1,2,0:0:0:0:
155,317,42146,1,2,0:0:0:0:
154,301,42227,1,2,0:0:0:0:
157,285,42308,5,2,1:2:0:0:
197,262,42389,1,2,0:0:0:0:
242,276,42470,1,2,0:0:0:0:
263,318,42551,1,2,0:0:0:0:
247,362,42632,1,0,1:0:0:0:
48,191,42795,6,0,B|102:194|102:194|151:157|151:157|219:164,1,170,2|0,0:0|1:0,0:0:0:0:
269,82,43038,2,0,B|278:124|239:142|239:142|123:76|123:76|125:45|158:32,1,255,2|2,0:0|1:2,0:0:0:0:
141,210,43524,1,2,0:0:0:0:
134,225,43605,2,0,L|160:294,1,63.7500024318696,0|0,1:0|0:0,0:0:0:0:
48,345,43767,2,0,L|74:276,1,63.7500024318696,2|0,0:0|0:0,0:0:0:0:
283,237,43930,6,0,B|375:205|375:205|318:121|318:121|276:164,1,255,2|2,1:2|0:0,0:0:0:0:
369,253,44254,2,0,L|434:260,1,50.9999984436036,0|0,1:0|0:0,0:0:0:0:
211,121,44416,2,0,L|146:128,1,63.7500024318696,2|0,0:0|0:0,0:0:0:0:
230,326,44578,5,2,1:2:0:0:
243,328,44660,1,2,0:0:0:0:
245,316,44741,1,2,0:0:0:0:
233,314,44822,1,2,0:0:0:0:
217,334,44903,5,2,1:2:0:0:
251,339,44985,1,2,0:0:0:0:
256,307,45066,1,2,0:0:0:0:
225,302,45146,2,0,B|209:304|209:304|195:363,1,63.7500024318696,0|0,0:0|1:0,0:0:0:0:
469,221,45389,6,0,B|487:252|487:252|460:280|460:280|338:243,1,170,6|0,1:2|0:0,0:0:0:0:
198,171,45632,2,0,B|262:152|262:152|316:188|316:188|386:167,1,195.500003728867,6|0,1:2|0:0,0:0:0:0:
456,102,45876,6,0,B|473:50|473:50|446:-10,1,110.499994941712,12|0,0:0|0:0,0:0:0:0:
281,199,46038,2,0,B|268:237|268:237|288:281,1,85,8|0,0:0|0:0,0:0:0:0:
377,169,46200,5,2,1:2:0:0:
68,123,46362,2,0,L|147:110,1,63.7500024318696,2|0,3:0|0:0,0:0:0:0:
328,46,46524,6,0,B|314:128|314:128|231:164|231:164|216:256,1,255,2|2,1:2|0:0,0:0:0:0:
303,345,46849,2,0,L|290:270,1,63.7500024318696,0|0,1:0|0:0,0:0:0:0:
130,195,47011,2,0,L|143:270,1,63.7500024318696,2|0,0:0|0:0,0:0:0:0:
328,357,47173,5,2,1:2:0:0:
339,354,47254,1,2,0:0:0:0:
351,352,47335,1,2,0:0:0:0:
363,350,47416,1,2,0:0:0:0:
375,348,47497,1,2,1:2:0:0:
369,303,47578,1,2,0:0:0:0:
363,259,47659,1,2,0:0:0:0:
406,250,47740,1,2,0:0:0:0:
450,242,47822,1,0,1:0:0:0:
286,197,47984,6,0,B|176:173|176:173|211:128,1,170,2|0,0:0|1:0,0:0:0:0:
327,26,48227,2,0,B|365:27|365:27|376:116|376:116|297:116|297:116|268:76,1,255,2|2,0:0|1:2,0:0:0:0:
60,24,48713,1,2,0:0:0:0:
75,10,48795,2,0,L|154:21,1,63.7500024318696,0|0,1:0|0:0,0:0:0:0:
211,127,48957,2,0,L|132:116,1,63.7500024318696,2|0,0:0|0:0,0:0:0:0:
86,266,49119,6,0,B|127:255|127:255|147:187|147:187|305:155,1,255,2|2,1:2|0:0,0:0:0:0:
229,232,49443,2,0,L|158:223,1,63.7500024318696,0|0,1:0|0:0,0:0:0:0:
268,76,49605,2,0,L|339:85,1,63.7500024318696,2|0,0:0|0:0,0:0:0:0:
456,179,49767,5,2,1:2:0:0:
453,191,49849,1,2,0:0:0:0:
451,203,49930,1,2,0:0:0:0:
449,215,50011,1,2,0:0:0:0:
447,227,50092,5,2,1:2:0:0:
416,219,50173,1,2,0:0:0:0:
423,187,50254,1,2,0:0:0:0:
453,191,50335,2,0,B|469:199|469:199|460:258,1,63.7500024318696,2|0,0:0|1:0,0:0:0:0:
305,373,50578,6,0,B|295:324|295:324|342:269|342:269|330:217,1,170,6|0,1:2|0:0,0:0:0:0:
434,77,50822,6,0,B|470:67|470:67|501:122|501:122|460:161|460:161|303:129,1,293.2500055933,6|0,1:2|1:0,0:0:0:0:
113,94,51227,5,0,1:0:0:0:
255,1,51389,5,0,1:0:0:0:
213,232,51551,5,0,1:0:0:0:
213,232,51632,1,0,1:0:0:0:
213,232,51713,2,0,P|176:235|120:264,1,97.7500018644333,6|0,1:2|0:0,0:0:0:0:
305,373,51876,2,0,P|277:325|277:263,1,97.7500018644333,2|0,0:0|0:0,0:0:0:0:
395,187,52038,2,0,P|376:201|314:212,1,63.7500024318696,2|0,1:2|0:0,0:0:0:0:
149,168,52200,2,0,P|168:154|230:143,1,63.7500024318696,2|0,0:0|0:0,0:0:0:0:
410,273,52362,1,2,1:2:0:0:
462,243,52443,1,0,0:0:0:0:
483,199,52524,1,2,0:0:0:0:
478,156,52605,1,0,0:0:0:0:
459,125,52686,2,0,P|422:110|397:92,1,63.7500024318696,2|0,1:2|0:0,0:0:0:0:
273,283,52849,2,0,P|299:265|329:254,1,63.7500024318696,2|0,0:0|0:0,0:0:0:0:
329,80,53011,5,2,1:2:0:0:
281,86,53092,1,0,0:0:0:0:
236,73,53173,1,2,0:0:0:0:
199,43,53254,1,0,0:0:0:0:
177,1,53335,1,2,1:2:0:0:
138,28,53416,1,0,0:0:0:0:
92,39,53497,1,2,0:0:0:0:
45,31,53578,1,0,0:0:0:0:
6,5,53659,2,0,P|15:35|13:71,1,63.7500024318696,2|0,1:2|0:0,0:0:0:0:
156,230,53822,2,0,P|147:200|149:164,1,63.7500024318696,2|0,0:0|0:0,0:0:0:0:
236,73,53984,1,2,1:2:0:0:
248,70,54065,1,0,0:0:0:0:
260,67,54146,1,2,0:0:0:0:
272,64,54227,1,0,0:0:0:0:
284,61,54308,6,0,P|308:66|356:72,1,63.7500024318696,2|0,1:2|0:0,0:0:0:0:
482,35,54470,2,0,P|458:30|410:24,1,63.7500024318696,2|0,0:0|0:0,0:0:0:0:
297,148,54632,1,2,1:2:0:0:
289,179,54713,1,0,0:0:0:0:
292,210,54794,1,2,0:0:0:0:
306,239,54875,1,0,0:0:0:0:
328,262,54957,2,0,P|368:259|411:234,1,76.4999976654053,2|0,1:2|0:0,0:0:0:0:
205,147,55119,2,0,P|167:149|133:165,1,76.4999976654053,2|0,0:0|0:0,0:0:0:0:
224,349,55281,2,0,P|221:309|235:258,1,76.4999976654053,2|0,1:2|0:0,0:0:0:0:
301,72,55443,2,0,P|304:112|290:163,1,76.4999976654053,2|0,0:0|0:0,0:0:0:0:
296,147,55605,5,0,1:0:0:0:
89,86,55767,6,0,B|67:56|67:56|82:22|82:22|202:49,1,170,4|0,1:2|0:0,0:0:0:0:
301,72,56011,2,0,L|-12:120,1,293.2500055933,6|12,1:2|0:0,1:2:0:0:
475,176,56416,1,8,0:0:0:0:
319,271,56578,5,0,1:2:0:0:
291,263,56659,1,2,0:0:0:0:
263,255,56740,1,2,0:0:0:0:
234,246,56822,1,2,0:0:0:0:
206,237,56903,6,0,P|199:265|203:311,1,63.7500024318696,2|0,1:2|0:0,0:0:0:0:
321,168,57065,2,0,P|271:149|248:124,1,63.7500024318696,2|0,0:0|0:0,0:0:0:0:
50,265,57227,2,0,P|89:253|131:252,1,63.7500024318696,2|0,1:2|0:0,0:0:0:0:
254,369,57389,2,0,P|215:381|173:382,1,63.7500024318696,2|0,0:0|0:0,0:0:0:0:
70,175,57551,1,2,1:2:0:0:
59,126,57632,1,0,0:0:0:0:
76,85,57713,1,2,0:0:0:0:
103,64,57794,1,0,0:0:0:0:
132,57,57876,2,0,P|163:71|200:72,1,63.7500024318696,2|0,1:2|0:0,0:0:0:0:
374,10,58038,2,0,P|342:12|313:26,1,63.7500024318696,2|0,0:0|0:0,0:0:0:0:
263,142,58200,5,2,1:2:0:0:
284,172,58281,1,0,0:0:0:0:
297,208,58362,1,2,0:0:0:0:
297,247,58443,1,0,0:0:0:0:
286,284,58524,1,2,1:2:0:0:
319,265,58605,1,0,0:0:0:0:
356,253,58686,1,2,0:0:0:0:
395,251,58767,1,0,0:0:0:0:
433,258,58849,2,0,P|461:245|500:239,1,63.7500024318696,2|0,1:2|0:0,0:0:0:0:
284,172,59011,2,0,P|256:185|217:191,1,63.7500024318696,2|0,0:0|0:0,0:0:0:0:
348,316,59173,2,0,P|350:281|361:236,1,63.7500024318696,2|0,1:2|0:0,0:0:0:0:
313,26,59335,2,0,P|311:61|300:106,1,63.7500024318696,2|0,0:0|0:0,0:0:0:0:
176,254,59497,6,0,P|130:266|99:282,1,76.4999976654053,2|0,1:2|0:0,0:0:0:0:
366,171,59659,2,0,P|412:159|443:143,1,76.4999976654053,2|0,0:0|0:0,0:0:0:0:
212,48,59822,2,0,P|219:67|227:118,1,63.7500024318696,2|0,1:2|0:0,0:0:0:0:
268,332,59984,2,0,P|261:313|253:262,1,63.7500024318696,2|0,0:0|0:0,0:0:0:0:
146,168,60146,1,2,1:2:0:0:
99,176,60227,1,0,0:0:0:0:
58,155,60308,1,2,0:0:0:0:
38,112,60389,1,0,0:0:0:0:
48,67,60470,2,0,P|81:74|117:77,1,63.7500024318696,2|0,1:2|0:0,0:0:0:0:
274,57,60632,2,0,P|241:50|205:47,1,63.7500024318696,2|0,0:0|0:0,0:0:0:0:
211,47,60795,5,0,1:0:0:0:
170,318,60957,6,0,B|185:304|185:304|162:174|162:174|138:164,1,170,6|0,1:2|0:0,0:0:0:0:
110,76,61200,2,0,L|55:406,1,293.2500055933,6|14,1:2|0:0,0:0:0:0:
426,300,61605,1,8,0:0:0:0:
211,47,61767,1,8,0:0:0:0:
257,375,61930,5,8,0:0:0:0:
257,375,62011,1,8,0:0:0:0:
257,375,62092,2,0,P|260:326|267:282,1,85,6|0,1:2|0:0,0:0:0:0:
66,149,62254,2,0,P|63:198|56:242,1,85,2|0,0:0|0:0,0:0:0:0:
269,187,62416,2,0,P|225:173|185:162,1,63.7500024318696,10|0,0:0|0:0,0:0:0:0:
86,334,62578,2,0,P|130:348|170:359,1,63.7500024318696,2|0,0:0|0:0,0:0:0:0:
341,263,62740,5,2,1:2:0:0:
396,264,62821,1,0,0:0:0:0:
426,300,62902,1,2,0:0:0:0:
425,338,62983,1,0,0:0:0:0:
411,361,63065,2,0,P|406:330|394:293,1,63.7500024318696,10|0,0:0|0:0,0:0:0:0:
457,137,63227,2,0,P|462:168|474:205,1,63.7500024318696,2|0,0:0|0:0,0:0:0:0:
269,187,63389,5,2,1:2:0:0:
252,143,63470,1,0,0:0:0:0:
259,96,63551,1,2,0:0:0:0:
288,59,63632,1,0,0:0:0:0:
332,42,63713,1,10,0:0:0:0:
336,60,63795,1,0,0:0:0:0:
340,78,63876,1,2,0:0:0:0:
344,96,63957,1,0,0:0:0:0:
348,114,64038,2,0,P|344:151|342:185,1,63.7500024318696,2|0,1:2|0:0,0:0:0:0:
174,276,64200,2,0,P|178:239|180:205,1,63.7500024318696,2|0,0:0|0:0,0:0:0:0:
129,62,64362,1,10,0:0:0:0:
86,44,64443,1,0,0:0:0:0:
41,56,64524,1,2,0:0:0:0:
13,94,64605,1,0,0:0:0:0:
16,141,64686,6,0,P|56:143|91:151,1,63.7500024318696,2|0,1:2|0:0,0:0:0:0:
237,282,64849,2,0,P|197:280|162:272,1,63.7500024318696,2|0,0:0|0:0,0:0:0:0:
199,112,65011,1,10,0:0:0:0:
245,108,65092,1,0,0:0:0:0:
285,133,65173,1,2,0:0:0:0:
301,177,65254,1,0,0:0:0:0:
288,222,65335,6,0,P|274:180|279:143,1,76.4999976654053,2|0,1:2|0:0,0:0:0:0:
456,12,65497,2,0,P|470:54|465:91,1,76.4999976654053,2|0,0:0|0:0,0:0:0:0:
374,221,65659,1,10,0:0:0:0:
368,252,65740,1,0,0:0:0:0:
382,292,65821,1,2,0:0:0:0:
424,318,65902,1,0,0:0:0:0:
486,300,65983,1,0,1:0:0:0:
293,342,66146,6,0,B|278:365|278:365|206:338|206:338|181:353|181:353|142:346,1,170,6|0,1:2|0:0,0:0:0:0:
69,287,66389,2,0,B|22:302|22:302|3:256|3:256|52:208|52:208|216:242,1,293.2500055933,6|12,1:2|0:0,0:0:0:0:
486,300,66795,1,8,0:0:0:0:
368,252,66957,5,2,1:2:0:0:
358,254,67038,1,2,0:0:0:0:
348,256,67119,1,2,0:0:0:0:
338,258,67200,1,2,0:0:0:0:
328,260,67281,6,0,B|277:249|277:249|231:147|231:147|173:134,1,212.5,14|0,0:0|0:0,0:0:0:0:
125,197,67524,2,0,L|353:152,1,212.5,8|0,0:0|0:0,0:0:0:0:
450,231,67767,6,0,L|-37:130,1,459.000001750946,14|8,1:2|1:3,0:0:0:0:
0,137,68173,1,4,1:3:0:0:
0,137,68254,1,4,1:3:0:0:
38,155,68335,1,4,1:3:0:0:
78,143,68416,1,4,1:3:0:0:
100,107,68497,1,4,1:3:0:0:
92,66,68578,6,0,B|160:57|160:57|128:215,1,212.5,14|0,0:0|0:0,0:0:0:0:
419,317,68822,2,0,B|352:327|352:327|384:169,1,212.5,10|0,0:0|0:0,0:0:0:0:
234,10,69065,6,0,L|275:378,1,344.25000131321,14|0,1:2|0:0,0:0:0:0:
140,316,69389,6,0,B|184:322|184:322|226:293,1,85,10|0,0:0|0:0,0:0:0:0:
362,51,69551,2,0,B|318:45|318:45|276:74,1,85,10|0,0:0|0:0,0:0:0:0:
256,191,69713,5,0,1:0:0:0:
256,191,69795,1,0,1:0:0:0:
256,191,69876,2,0,L|395:210,1,106.25,14|0,0:0|0:0,0:0:0:0:
140,316,70038,2,0,L|1:297,1,106.25,10|0,0:0|0:0,0:0:0:0:
364,192,70200,5,10,0:0:0:0:
309,184,70281,1,10,0:0:0:0:
254,176,70362,1,10,0:0:0:0:
199,169,70443,1,10,0:0:0:0:
144,161,70524,2,0,B|124:112|124:112|149:57,1,106.25,14|0,0:0|0:0,0:0:0:0:
361,292,70686,1,0,1:0:0:0:
313,315,70767,2,0,B|262:328|262:328|212:295,1,106.25,12|0,0:0|0:0,0:0:0:0:
224,88,70930,5,0,1:0:0:0:
298,63,71011,1,12,0:0:0:0:
309,184,71173,5,2,0:0:0:0:
261,201,71254,1,2,0:0:0:0:
218,180,71335,1,2,0:0:0:0:
179,197,71416,1,2,0:0:0:0:
142,184,71497,1,2,0:0:0:0:
111,198,71578,1,2,0:0:0:0:
84,185,71659,1,2,0:0:0:0:
61,197,71740,1,2,0:0:0:0:
41,188,71822,1,2,0:0:0:0:
25,195,71903,1,2,0:0:0:0:
12,191,71984,1,2,0:0:0:0:
4,195,72065,1,2,0:0:0:0:
0,192,72146,5,2,3:0:0:0:
53,179,72227,1,2,3:0:0:0:
103,201,72308,1,2,3:0:0:0:
154,182,72389,1,2,3:0:0:0:
204,205,72470,2,0,B|291:191|291:191|309:94|309:94|444:72,1,293.2500055933,6|0,1:2|0:0,0:0:0:0:
505,144,72795,6,0,B|489:162|489:162|419:147,1,76.4999976654053,8|0,0:0|0:0,0:0:0:0:
218,106,72957,1,0,3:0:0:0:
218,106,73038,1,0,3:0:0:0:
218,106,73119,1,0,1:0:0:0:
355,271,73281,1,0,0:0:0:0:
309,13,73443,2,0,L|294:109,1,76.4999976654053,8|0,0:0|0:0,0:0:0:0:
430,307,73605,2,0,L|445:211,1,76.4999976654053,0|0,3:0|0:0,0:0:0:0:
218,106,73767,5,0,1:0:0:0:
321,350,73930,1,0,3:0:0:0:
410,85,74092,1,8,0:0:0:0:
188,227,74254,1,0,3:0:0:0:
188,227,74335,1,0,3:0:0:0:
188,227,74416,2,0,L|96:208,1,76.4999976654053,0|0,1:0|0:0,0:0:0:0:
41,27,74578,6,0,P|81:28|117:70,1,89.2499972763062,2|0,3:2|0:0,0:0:0:0:
211,25,74740,2,0,P|230:60|211:112,1,89.2499972763062,10|0,0:0|0:0,0:0:0:0:
387,201,74903,2,0,P|366:235|311:245,1,89.2499972763062,2|0,0:0|0:0,0:0:0:0:
23,359,75065,5,4,1:2:0:0:
56,329,75146,1,0,0:0:0:0:
97,311,75227,1,0,0:0:0:0:
141,306,75308,1,0,0:0:0:0:
185,314,75389,2,0,P|209:326|266:328,1,72.2500013780594,8|0,0:0|0:0,0:0:0:0:
389,230,75551,2,0,P|353:231|320:246,1,72.2500013780594
181,203,75713,5,0,1:0:0:0:
485,311,75876,1,0,3:0:0:0:
392,18,76038,1,8,0:0:0:0:
283,137,76200,1,0,3:0:0:0:
283,137,76281,1,0,3:0:0:0:
283,137,76362,2,0,L|370:122,1,72.2500013780594,0|0,1:0|0:0,0:0:0:0:
485,311,76524,2,0,L|398:326,1,72.2500013780594,0|0,3:0|0:0,0:0:0:0:
181,203,76686,1,8,0:0:0:0:
155,155,76767,1,0,3:0:0:0:
156,102,76848,1,0,3:0:0:0:
182,55,76929,1,0,3:0:0:0:
227,26,77010,1,0,1:0:0:0:
498,212,77173,6,0,L|426:235,1,72.2500013780594,2|0,0:0|0:0,0:0:0:0:
381,41,77335,2,0,L|299:26,1,72.2500013780594,10|0,0:0|0:0,0:0:0:0:
215,317,77497,2,0,L|143:340,1,72.2500013780594,2|0,0:0|0:0,0:0:0:0:
77,75,77659,6,0,B|171:90|171:90|192:182|192:182|294:196,1,280.500008560181,4|0,1:2|0:0,0:0:0:0:
404,154,77984,2,0,B|395:134|395:134|338:141,1,76.4999976654053,8|0,0:0|0:0,0:0:0:0:
31,196,78146,1,0,3:0:0:0:
31,196,78227,1,0,3:0:0:0:
31,196,78308,2,0,L|114:212,1,76.4999976654053,0|0,1:0|0:0,0:0:0:0:
215,317,78470,2,0,L|132:301,1,76.4999976654053,0|0,3:0|0:0,0:0:0:0:
1,110,78632,1,8,0:0:0:0:
287,61,78795,1,0,3:0:0:0:
205,229,78957,6,0,B|285:214|277:254|373:235,1,144.500002756119,0|0,1:0|3:0,0:0:0:0:
347,238,79200,1,0,3:0:0:0:
347,238,79281,1,8,0:0:0:0:
161,138,79443,1,0,3:0:0:0:
403,77,79605,1,0,1:0:0:0:
512,91,79767,2,0,L|334:118,1,144.500002756119,2|8,3:0|0:0,0:0:0:0:
113,278,80092,5,2,0:0:0:0:
113,278,80173,1,2,0:0:0:0:
113,278,80254,2,0,B|215:293|227:214|347:238,1,242.249993531227,6|0,1:2|0:0,0:0:0:0:
421,284,80578,2,0,B|433:248|433:248|423:200,1,72.2500013780594,8|0,0:0|0:0,0:0:0:0:
268,70,80740,2,0,B|256:106|256:106|266:154,1,72.2500013780594,0|0,3:0|0:0,0:0:0:0:
362,361,80903,5,2,1:2:0:0:
172,185,81065,1,0,3:0:0:0:
172,185,81146,1,0,3:0:0:0:
172,185,81227,1,8,3:2:0:0:
485,139,81389,6,0,P|418:127|338:89,1,144.500002756119,2|0,0:0|1:0,0:0:0:0:
87,334,81713,2,0,P|159:300|238:286,1,152.999995330811,2|8,0:0|0:0,0:0:0:0:
119,38,82038,6,0,P|164:111|170:199,1,161.499995687485,2|0,0:0|1:0,0:0:0:0:
436,384,82362,2,0,P|446:298|492:225,1,170,2|8,0:0|0:0,0:0:0:0:
345,11,82686,5,2,0:0:0:0:
345,11,82767,1,2,0:0:0:0:
345,11,82849,2,0,B|357:86|357:86|289:169|289:169|306:272,1,280.500008560181,4|0,1:2|0:0,0:0:0:0:
236,358,83173,2,0,B|220:322|220:322|230:287,1,76.4999976654053,8|0,0:0|0:0,0:0:0:0:
368,144,83335,1,0,3:0:0:0:
368,144,83416,1,0,3:0:0:0:
368,144,83497,2,0,B|384:180|384:180|374:215,1,76.4999976654053,0|0,1:0|0:0,0:0:0:0:
138,264,83659,1,0,3:0:0:0:
425,343,83822,1,8,0:0:0:0:
281,112,83984,5,0,3:0:0:0:
281,112,84065,1,0,3:0:0:0:
281,112,84146,2,0,L|204:126,1,72.2500013780594,0|0,1:0|0:0,0:0:0:0:
66,276,84308,2,0,L|143:262,1,72.2500013780594,0|0,3:0|0:0,0:0:0:0:
270,310,84470,1,8,0:0:0:0:
313,317,84551,1,0,3:0:0:0:
354,298,84632,1,0,3:0:0:0:
376,260,84713,1,0,3:0:0:0:
373,215,84794,1,0,1:0:0:0:
52,119,84957,6,0,P|91:123|148:149,1,76.4999976654053,2|0,0:0|0:0,0:0:0:0:
270,310,85119,2,0,P|253:274|247:211,1,76.4999976654053,10|0,0:0|0:0,0:0:0:0:
352,38,85281,2,0,P|329:69|278:106,1,76.4999976654053,2|0,0:0|0:3,0:3:0:0:
66,276,85443,5,4,1:2:0:0:
44,327,85524,1,0,0:0:0:0:
72,374,85605,1,0,0:0:0:0:
127,381,85686,1,0,0:0:0:0:
165,340,85767,2,0,P|168:306|164:261,1,72.2500013780594,8|0,0:0|0:0,0:0:0:0:
209,84,85930,2,0,P|206:118|210:163,1,72.2500013780594,0|0,3:0|0:0,0:0:0:0:
325,237,86092,5,0,1:0:0:0:
77,181,86254,1,0,3:0:0:0:
77,181,86335,1,0,3:0:0:0:
77,181,86416,1,8,0:0:0:0:
252,2,86578,1,0,3:0:0:0:
165,269,86740,5,0,1:0:0:0:
59,44,86903,1,0,3:0:0:0:
59,44,86984,1,0,3:0:0:0:
59,44,87065,2,0,L|137:60,1,72.2500013780594,8|0,0:0|0:0,0:0:0:0:
350,125,87227,2,0,L|279:139,1,72.2500013780594,0|0,3:0|0:0,0:0:0:0:
77,181,87389,1,0,1:0:0:0:
77,181,87470,1,0,3:0:0:0:
77,181,87551,6,0,L|158:191,1,72.2500013780594,2|0,0:0|0:0,0:0:0:0:
191,357,87713,2,0,L|272:347,1,72.2500013780594,10|0,0:0|0:0,0:0:0:0:
339,39,87876,2,0,L|420:49,1,72.2500013780594,2|0,0:0|0:0,0:0:0:0:
500,251,88038,5,6,1:2:0:0:
184,115,88200,1,0,3:0:0:0:
512,0,88362,1,8,0:0:0:0:
321,260,88524,1,0,3:0:0:0:
321,260,88605,1,0,3:0:0:0:
321,260,88686,2,0,P|276:244|243:242,1,72.2500013780594,0|0,1:0|0:0,0:0:0:0:
109,218,88849,2,0,P|144:213|178:199,1,72.2500013780594,0|0,3:0|0:0,0:0:0:0:
387,207,89011,1,8,0:0:0:0:
406,256,89092,1,0,0:0:0:0:
393,308,89173,1,0,0:0:0:0:
352,342,89254,1,0,0:0:0:0:
299,347,89335,6,0,B|210:358|210:358|176:310|176:310|59:326,1,267.749991828919,6|0,1:2|0:0,0:0:0:0:
136,364,89659,2,0,B|144:328|144:328|134:288,1,72.2500013780594,8|0,0:0|0:0,0:0:0:0:
36,105,89822,2,0,B|28:141|28:141|38:181,1,72.2500013780594,0|0,3:0|0:0,0:0:0:0:
362,43,89984,6,0,B|402:53|402:53|409:97|409:97|370:121|370:121|236:85,1,267.749991828919,6|0,1:2|0:0,0:0:0:0:
109,46,90308,2,0,B|134:15|134:15|171:30,1,76.4999976654053,8|0,0:0|0:0,0:0:0:0:
311,160,90470,2,0,B|286:191|286:191|249:176,1,76.4999976654053,0|0,1:0|0:0,0:0:0:0:
63,253,90632,5,6,1:2:0:0:
100,219,90713,1,0,0:0:0:0:
151,212,90794,1,0,0:0:0:0:
196,235,90875,1,0,0:0:0:0:
220,280,90956,1,8,0:0:0:0:
245,323,91038,1,0,0:0:0:0:
289,346,91119,1,0,0:0:0:0:
340,340,91200,1,0,0:0:0:0:
378,306,91281,2,0,P|378:276|391:237,1,72.2500013780594,0|0,1:0|0:0,0:0:0:0:
297,90,91443,2,0,P|309:123|310:159,1,72.2500013780594
245,323,91605,1,8,0:0:0:0:
483,237,91767,1,0,3:0:0:0:
405,47,91930,5,0,1:0:0:0:
378,306,92092,1,0,1:0:0:0:
119,278,92254,1,8,1:2:0:0:
146,20,92416,1,0,1:0:0:0:
119,278,92578,1,0,1:0:0:0:
122,292,92659,1,0,1:0:0:0:
125,306,92740,1,0,1:0:0:0:
128,320,92822,1,0,1:0:0:0:
131,334,92903,1,8,1:2:0:0:
183,326,92984,1,8,1:2:0:0:
222,289,93065,1,8,1:2:0:0:
234,237,93146,1,8,1:2:0:0:
214,188,93227,6,0,B|93:240|93:240|50:207|50:207|118:129,1,280.500008560181,6|2,1:2|0:0,0:0:0:0:
224,96,93551,2,0,L|161:85,1,42.5,0|0,1:0|0:0,0:0:0:0:
1,280,93713,2,0,L|64:269,1,63.7500024318696,2|0,0:0|0:0,0:0:0:0:
234,237,93876,1,2,1:2:0:0:
246,234,93957,1,2,0:0:0:0:
258,231,94038,1,2,0:0:0:0:
270,228,94119,1,2,0:0:0:0:
282,225,94200,1,2,1:2:0:0:
291,268,94281,1,2,0:0:0:0:
300,311,94362,1,2,0:0:0:0:
343,303,94443,1,2,0:0:0:0:
386,295,94524,1,0,1:0:0:0:
480,157,94686,6,0,B|430:150|401:183|401:183|389:133|322:122,1,170,2|0,0:0|1:0,0:0:0:0:
234,125,94930,2,0,L|487:73,1,255,2|2,0:0|1:2,0:0:0:0:
304,4,95416,1,2,0:0:0:0:
289,13,95497,2,0,L|281:72,1,50.9999984436036,0|0,1:0|0:0,0:0:0:0:
314,271,95659,2,0,L|322:207,1,63.7500024318696,2|0,0:0|0:0,0:0:0:0:
158,101,95822,6,0,B|102:125|102:125|38:69|38:69|84:13|84:13|124:35,1,255,2|2,1:2|0:0,0:0:0:0:
234,125,96146,2,0,L|220:183,1,50.9999984436036,0|0,1:0|0:0,0:0:0:0:
79,259,96308,2,0,L|62:192,1,63.7500024318696,2|0,0:0|0:0,0:0:0:0:
208,18,96470,5,2,1:2:0:0:
219,13,96551,1,2,0:0:0:0:
223,25,96632,1,2,0:0:0:0:
211,30,96713,1,2,0:0:0:0:
195,10,96795,5,2,1:2:0:0:
225,0,96876,1,2,0:0:0:0:
235,29,96957,1,2,0:0:0:0:
203,40,97038,2,0,B|212:48|212:48|262:34,1,63.7500024318696,2|0,0:0|1:0,0:0:0:0:
342,229,97281,6,0,B|308:221|308:221|274:134|274:134|229:124,1,170,6|0,1:2|0:0,0:0:0:0:
79,259,97524,2,0,B|99:268|99:268|247:228|247:228|256:205,1,195.500003728867,6|0,1:2|0:0,0:0:0:0:
311,154,97767,5,2,1:2:0:0:
314,144,97849,1,2,0:0:0:0:
316,134,97930,1,2,1:2:0:0:
319,124,98011,1,2,0:0:0:0:
322,114,98092,1,2,1:2:0:0:
325,104,98173,1,2,0:0:0:0:
328,94,98254,2,0,L|343:37,1,55.2499974708558,2|0,1:2|0:0,0:0:0:0:
443,265,98416,6,0,B|478:286|478:286|441:343|441:343|379:331|379:331|342:229,1,280.500008560181,6|2,1:2|0:0,0:0:0:0:
406,182,98740,2,0,L|451:178,1,42.5,0|0,1:0|0:0,0:0:0:0:
320,310,98903,2,0,L|252:316,1,63.7500024318696,2|0,0:2|0:0,0:0:0:0:
118,328,99065,5,2,1:2:0:0:
341,228,99227,1,2,0:0:0:0:
118,328,99389,2,0,L|130:258,1,63.7500024318696,2|0,1:2|0:0,0:0:0:0:
152,176,99551,1,0,3:0:0:0:
152,176,99632,1,0,3:0:0:0:
152,176,99713,1,0,1:0:0:0:
363,94,99876,6,0,B|356:125|356:125|201:103,1,170,2|0,0:0|1:0,0:0:0:0:
108,37,100119,2,0,B|162:8|162:8|202:47|202:47|148:183,1,255,2|2,0:0|1:2,0:0:0:0:
222,346,100605,1,2,0:0:0:0:
252,320,100686,2,0,L|240:229,1,63.7500024318696,0|0,1:2|0:0,0:0:0:0:
53,236,100849,2,0,L|41:145,1,63.7500024318696,2|0,0:0|0:0,0:0:0:0:
219,105,101011,6,0,B|244:132|244:132|164:193|164:193|76:163|76:163|59:93,1,293.2500055933,2|2,1:2|0:0,0:0:0:0:
108,37,101335,2,0,L|156:46,1,42.5,0|0,1:0|0:0,0:0:0:0:
318,189,101497,2,0,L|241:174,1,63.7500024318696,2|0,0:0|0:0,0:0:0:0:
49,338,101659,5,2,1:2:0:0:
61,335,101740,1,2,0:0:0:0:
73,332,101822,1,2,0:0:0:0:
85,330,101903,1,2,0:0:0:0:
97,328,101984,1,2,1:2:0:0:
91,277,102065,1,2,0:0:0:0:
85,226,102146,1,2,0:0:0:0:
135,218,102227,1,2,0:0:0:0:
185,210,102308,1,0,1:0:0:0:
485,216,102470,6,0,L|307:187,1,170,14|0,0:0|0:0,0:0:0:0:
27,168,102713,2,0,L|205:197,1,170,10|0,0:0|0:0,0:0:0:0:
352,41,102957,5,8,0:0:0:0:
85,226,103119,1,8,0:0:0:0:
372,370,103281,1,10,0:0:0:0:
258,129,103443,5,0,1:0:0:0:
258,129,103524,1,0,1:0:0:0:
258,129,103605,2,0,B|182:149|182:149|152:288|152:288|64:321,1,305.999990661621,4|0,1:2|0:0,0:0:0:0:
17,237,103930,2,0,B|36:217|36:217|95:228,1,76.4999976654053,8|0,0:0|0:0,0:0:0:0:
308,286,104092,1,0,3:0:0:0:
308,286,104173,1,0,3:0:0:0:
308,286,104254,1,0,1:0:0:0:
153,131,104416,1,0,3:0:0:0:
19,377,104578,1,8,0:0:0:0:
204,253,104740,5,0,3:0:0:0:
204,253,104822,1,0,3:0:0:0:
204,253,104903,1,0,1:0:0:0:
26,144,105065,1,0,0:0:0:0:
332,65,105227,2,0,L|423:85,1,76.4999976654053,8|0,0:0|0:0,0:0:0:0:
170,113,105389,2,0,L|79:93,1,76.4999976654053,0|0,3:0|0:0,0:0:0:0:
308,200,105551,1,0,1:0:0:0:
141,366,105713,5,2,0:0:0:0:
399,218,105876,1,10,0:0:0:0:
26,144,106038,1,2,0:0:0:0:
233,36,106200,5,4,1:2:0:0:
255,78,106281,1,0,0:0:0:0:
258,126,106362,1,0,0:0:0:0:
238,169,106443,1,0,0:0:0:0:
203,201,106524,1,8,0:0:0:0:
167,232,106605,1,0,0:0:0:0:
141,272,106686,1,0,0:0:0:0:
133,319,106767,1,0,0:0:0:0:
141,366,106849,2,0,P|163:357|218:348,1,72.2500013780594,0|0,1:0|0:0,0:0:0:0:
334,293,107011,2,0,P|298:287|264:275,1,72.2500013780594
118,168,107173,1,8,0:0:0:0:
99,137,107254,1,0,0:0:0:0:
103,102,107335,1,0,0:0:0:0:
128,77,107416,1,0,0:0:0:0:
163,73,107497,5,0,1:0:0:0:
342,197,107659,2,0,B|380:190|380:190|421:133|421:133|467:125,1,144.500002756119,0|8,0:0|0:0,0:0:0:0:
286,22,107984,1,0,3:0:0:0:
286,22,108065,1,0,3:0:0:0:
286,22,108146,1,0,1:0:0:0:
167,237,108308,5,2,0:0:0:0:
371,60,108470,1,10,0:0:0:0:
455,358,108632,1,2,0:0:0:0:
455,358,108713,1,2,0:0:0:0:
455,358,108795,1,6,1:2:0:0:
253,174,108957,6,0,B|240:103|306:104|285:21,1,161.499995687485,2|8,0:0|0:0,0:0:0:0:
487,205,109281,2,0,B|500:276|434:275|455:358,1,161.499995687485,2|0,0:0|1:0,0:0:0:0:
167,237,109605,5,2,0:0:0:0:
415,134,109767,1,8,0:0:0:0:
276,332,109930,5,2,0:0:0:0:
182,77,110092,1,0,1:0:0:0:
34,275,110254,1,2,0:0:0:0:
34,275,110335,1,2,0:0:0:0:
34,275,110416,2,0,P|64:278|112:292,1,72.2500013780594,8|0,0:0|0:0,0:0:0:0:
274,145,110578,2,0,P|239:154|203:159,1,72.2500013780594,0|0,3:0|0:0,0:0:0:0:
120,139,110740,1,0,1:0:0:0:
348,267,110903,5,2,0:0:0:0:
26,162,111065,1,10,0:0:0:0:
332,28,111227,6,0,B|317:116|317:116|246:143|246:143|226:244,1,255,2|0,0:0|0:0,0:0:0:0:
271,297,111551,2,0,P|242:327|120:322,1,161.499995687485,2|8,0:0|0:0,0:0:0:0:
362,101,111876,2,0,P|402:111|459:219,1,161.499995687485,2|0,0:0|1:0,0:0:0:0:
113,139,112200,2,0,P|101:98|166:-4,1,161.499995687485,2|8,0:0|0:0,0:0:0:0:
156,0,112443,1,0,0:0:0:0:
156,0,112524,1,2,0:0:0:0:
194,157,112686,1,0,1:0:0:0:
27,196,112849,1,2,0:0:0:0:
205,338,113011,6,0,B|285:359|315:289|413:319,1,204,8|0,0:0|0:0,0:0:0:0:
471,227,113335,2,0,P|424:230|385:248,1,76.4999976654053,10|0,0:0|0:0,0:0:0:0:
131,352,113497,2,0,P|178:349|217:331,1,76.4999976654053,8|0,0:0|0:0,0:0:0:0:
327,184,113659,2,0,P|324:137|306:98,1,76.4999976654053,8|0,0:0|0:0,0:0:0:0:
47,231,113822,5,10,0:0:0:0:
47,231,113903,1,8,0:0:0:0:
47,231,113984,2,0,B|131:240|131:240|212:171|212:171|349:186,1,305.999990661621,4|0,1:2|0:0,0:0:0:0:
462,125,114308,2,0,B|453:146|453:146|385:136,1,76.4999976654053,8|0,0:0|0:0,0:0:0:0:
144,113,114470,1,0,3:0:0:0:
144,113,114551,1,0,3:0:0:0:
144,113,114632,1,0,1:0:0:0:
339,262,114795,1,0,0:0:0:0:
231,12,114957,1,8,0:0:0:0:
116,191,115119,2,0,P|115:225|129:257,1,68,0|0,3:0|0:0,0:0:0:0:
392,180,115281,6,0,B|284:155|286:220|182:204,1,204,0|0,1:0|0:0,0:0:0:0:
193,205,115605,2,0,P|223:220|267:224,1,72.2500013780594,8|0,0:0|0:0,0:0:0:0:
398,97,115767,2,0,P|362:100|329:116,1,72.2500013780594,0|0,3:0|0:0,0:0:0:0:
262,302,115930,1,0,1:0:0:0:
470,254,116092,5,2,0:0:0:0:
184,121,116254,1,10,0:0:0:0:
502,16,116416,1,2,0:0:0:0:
184,121,116578,5,4,1:2:0:0:
133,136,116659,1,0,0:0:0:0:
90,107,116740,1,0,0:0:0:0:
84,55,116821,1,0,0:0:0:0:
120,17,116903,2,0,P|163:27|203:28,1,72.2500013780594,8|0,0:0|0:0,0:0:0:0:
281,192,117065,2,0,P|244:194|209:202,1,72.2500013780594
130,256,117227,5,0,1:0:0:0:
120,271,117308,1,0,0:0:0:0:
114,288,117389,1,0,0:0:0:0:
113,306,117470,1,0,0:0:0:0:
115,324,117551,1,8,0:0:0:0:
158,311,117632,1,0,0:0:0:0:
203,314,117713,1,0,0:0:0:0:
244,332,117794,1,0,0:0:0:0:
277,362,117876,6,0,B|378:385|380:306|499:341,1,216.750004134178,0|0,1:0|0:0,0:0:0:0:
431,285,118200,2,0,P|425:255|432:202,1,72.2500013780594,8|0,0:0|0:0,0:0:0:0:
486,75,118362,2,0,P|492:105|485:158,1,72.2500013780594
488,146,118524,1,0,1:0:0:0:
341,226,118686,5,2,0:0:0:0:
220,11,118849,1,10,0:0:0:0:
115,324,119011,1,2,0:0:0:0:
392,144,119173,6,0,B|366:186|366:186|271:167|271:167|237:122|237:122|140:143,1,267.749991828919,4|0,1:2|0:0,0:0:0:0:
94,102,119497,2,0,B|83:67|83:67|97:19,1,76.4999976654053,8|0,0:0|0:0,0:0:0:0:
248,195,119659,2,0,B|259:230|259:230|245:278,1,76.4999976654053
115,324,119822,1,0,1:0:0:0:
115,324,119903,1,0,3:0:0:0:
115,324,119984,2,0,L|49:310,1,68,0|0,3:0|0:0,0:0:0:0:
248,195,120146,1,8,0:0:0:0:
248,195,120227,1,0,3:0:0:0:
248,195,120308,2,0,L|314:209,1,68,0|0,3:0|0:0,0:0:0:0:
441,55,120470,5,6,1:2:0:0:
170,227,120632,1,0,0:0:0:0:
502,150,120795,1,8,0:0:0:0:
293,28,120957,5,0,3:0:0:0:
293,28,121038,1,0,3:0:0:0:
293,28,121119,2,0,L|281:106,1,68,2|0,1:2|0:0,0:0:0:0:
431,206,121281,2,0,L|419:284,1,68,2|0,3:0|0:0,0:0:0:0:
318,384,121443,1,10,0:0:0:0:
353,153,121605,1,0,3:0:0:0:
69,26,121767,6,0,B|29:71|29:71|71:121|71:121|226:55,1,280.500008560181,6|0,1:2|0:0,0:0:0:0:
293,28,122092,2,0,B|343:33|343:33|378:72|378:72|442:82,1,152.999995330811,8|0,0:0|0:0,0:0:0:0:
427,79,122335,1,0,0:0:0:0:
427,79,122416,1,0,1:0:0:0:
241,152,122578,1,0,0:0:0:0:
456,313,122740,2,0,L|465:240,1,72.2500013780594,8|0,0:0|0:0,0:0:0:0:
226,141,122903,2,0,L|217:214,1,72.2500013780594
339,379,123065,5,2,1:2:0:0:
129,248,123227,1,0,3:0:0:0:
407,175,123389,1,8,0:0:0:0:
240,19,123551,1,0,3:0:0:0:
50,266,123713,6,0,B|69:234|69:234|249:207,1,187.000005706787,14|0,1:2|0:0,0:0:0:0:
462,118,123957,2,0,B|443:150|443:150|263:177,1,187.000005706787,10|0,0:0|0:0,0:0:0:0:
240,19,124200,6,0,L|259:254,1,220.999989883423,10|10,0:0|1:2,0:0:0:0:
257,239,124605,6,0,B|343:273|343:273|390:231|390:231|362:194,1,195.500003728867,8|0,0:0|0:0,0:0:0:0:
270,96,124849,6,0,L|125:128,1,106.25,10|0,0:0|0:0,0:0:0:0:
170,136,125173,2,0,L|86:154,1,80.7499978437424,0|0,1:3|0:0,0:0:0:0:
20,200,125497,5,0,1:0:0:0:
91,152,125578,2,0,L|183:161,1,85,10|0,0:0|0:0,0:0:0:0:
213,226,125822,6,0,B|244:227|244:227|303:122|303:122|339:124,1,187.000005706787,10|0,0:0|0:0,0:0:0:0:
352,200,126065,2,0,L|432:206,1,80.7499978437424,0|0,1:0|0:0,0:0:0:0:
463,133,126308,6,0,B|489:25|489:25|400:52,1,203.999993774414,10|0,0:0|0:0,0:0:0:0:
331,219,126551,2,0,B|410:296|410:296|431:205,1,203.999993774414,10|0,0:0|0:0,0:0:0:0:
319,57,126795,2,0,B|212:87|212:87|280:151,1,203.999993774414,10|10,0:0|1:2,0:0:0:0:
280,151,127200,6,0,B|317:178|317:178|288:219|288:219|177:202,1,203.999993774414,10|0,0:0|0:0,0:0:0:0:
24,303,127443,2,0,L|150:275,1,110.499994941712,10|0,0:0|0:0,0:0:0:0:
268,298,127767,5,0,1:3:0:0:
234,366,127849,1,0,1:3:0:0:
181,202,128092,5,0,1:0:0:0:
181,202,128173,1,0,1:0:0:0:
181,202,128254,2,0,B|215:176|215:176|370:203,1,195.500003728867,10|0,0:0|0:0,0:0:0:0:
512,351,128497,2,0,B|478:377|478:377|323:350,1,195.500003728867,10|0,0:0|0:0,0:0:0:0:
268,298,128740,6,0,B|259:255|259:255|274:205,1,85,0|0,1:0|1:0,0:0:0:0:
379,72,128903,5,10,0:0:0:0:
122,127,129065,5,10,0:0:0:0:
434,329,129227,5,10,0:0:0:0:
176,384,129389,5,10,0:0:0:0:
410,188,129551,6,0,B|375:180|375:180|337:60|337:60|277:50,1,203.999993774414,14|0,0:0|0:0,0:0:0:0:
250,113,129795,2,0,L|483:69,1,212.5,10|0,0:0|0:0,0:0:0:0:
483,183,130038,2,0,B|465:199|465:199|393:184,1,80.7499978437424,8|0,0:0|0:0,0:0:0:0:
146,280,130200,6,0,B|71:353|71:353|188:387,1,212.5,10|0,0:0|0:0,0:0:0:0:
259,359,130443,2,0,B|333:285|333:285|216:251,1,212.5,10|0,0:0|0:0,0:0:0:0:
52,235,130686,5,8,0:0:0:0:
52,235,130767,1,8,0:0:0:0:
52,235,130849,2,0,B|21:210|21:210|30:166|30:166|170:145,1,212.5,14|0,0:0|0:0,0:0:0:0:
250,113,131092,2,0,B|83:139|83:139|74:75,1,220.999989883423,10|0,0:0|0:0,0:0:0:0:
180,78,131335,2,0,B|189:34|189:34|167:0,1,85,8|0,0:0|0:0,0:0:0:0:
139,235,131497,6,0,L|355:199,1,203.999993774414,10|0,0:0|0:0,0:0:0:0:
508,14,131740,2,0,L|292:50,1,212.5,10|0,0:0|0:0,0:0:0:0:
250,113,131984,2,0,B|238:156|238:156|255:203,1,85,8|0,0:0|0:0,0:0:0:0:
483,284,132146,6,0,B|467:257|467:257|387:273,1,101.999996887207,14|0,0:0|0:0,0:0:0:0:
53,221,132308,2,0,B|69:248|69:248|149:232,1,101.999996887207,8|0,0:0|0:0,0:0:0:0:
418,187,132470,1,10,0:0:0:0:
428,185,132551,1,0,3:0:0:0:
438,183,132632,1,0,3:0:0:0:
448,181,132713,1,0,3:0:0:0:
458,179,132795,2,0,B|480:149|480:149|446:103|446:103|304:147,1,212.5,10|0,0:0|0:0,0:0:0:0:
166,309,133038,2,0,B|144:339|144:339|178:385|178:385|320:341,1,212.5,10|0,0:0|0:0,0:0:0:0:
338,286,133281,2,0,B|340:260|340:260|305:230|305:230|308:198,1,93.5000028533936,10|0,0:0|0:0,0:0:0:0:
335,45,133443,5,8,1:2:0:0:
490,243,133605,5,8,0:0:0:0:
428,231,133686,1,8,0:0:0:0:
367,220,133767,1,8,0:0:0:0:
306,208,133848,1,8,0:0:0:0:
244,197,133929,1,8,0:0:0:0:
183,185,134010,1,8,0:0:0:0:
122,174,134092,2,0,B|94:146|94:146|90:106|90:106|225:91,1,195.500003728867,10|0,0:0|0:0,0:0:0:0:
262,288,134335,2,0,B|194:373|194:373|152:348|152:348|158:274,1,212.5,10|0,0:0|0:0,0:0:0:0:
204,93,134578,6,0,L|447:66,1,229.500000875473,10|0,0:0|0:0,0:0:0:0:
432,67,135065,6,0,B|359:56|359:56|261:184|261:184|201:170,1,293.2500055933,14|0,0:0|0:0,0:0:0:0:
135,209,135389,5,2,1:2:0:0:
478,149,135551,2,0,B|401:129|405:184|320:161,1,152.999995330811,2|8,0:0|0:0,0:0:0:0:
263,122,135876,1,2,0:0:0:0:
13,321,136038,2,0,P|99:240|234:273,1,229.499992996216,2|0,1:2|0:0,0:0:0:0:
278,222,136362,2,0,P|299:237|312:288,1,63.7500024318696,10|0,0:0|0:0,0:0:0:0:
197,370,136524,2,0,P|176:355|163:304,1,63.7500024318696,2|0,0:0|0:0,0:0:0:0:
329,163,136686,6,0,B|409:199|409:199|442:167|442:167|417:112,1,178.499994552612,14|0,0:0|0:0,0:0:0:0:
311,29,136930,1,2,0:0:0:0:
301,42,137011,2,0,B|323:63|323:63|408:45,1,89.2499972763062,8|0,0:0|0:0,0:0:0:0:
487,233,137173,2,0,L|267:280,1,178.499994552612,2|0,0:0|0:0,0:0:0:0:
381,356,137659,6,0,B|295:342|295:342|258:228|258:228|169:212,1,293.2500055933,14|0,0:0|0:0,0:0:0:0:
104,250,137984,1,2,1:2:0:0:
48,37,138146,2,0,P|124:24|186:61,1,127.500004863739,2|8,0:0|0:0,0:0:0:0:
216,106,138470,1,2,0:0:0:0:
51,319,138632,2,0,B|37:191|120:218|101:92,1,229.499992996216,2|0,1:2|0:0,0:0:0:0:
48,37,138957,2,0,P|17:97|56:176,1,152.999995330811,10|0,0:0|0:0,0:0:0:0:
331,232,139281,6,0,B|363:277|363:277|327:307|327:307|213:281,1,195.500003728867,14|0,0:0|0:0,0:0:0:0:
177,195,139524,1,2,0:0:0:0:
174,175,139605,2,0,B|222:154|222:154|261:191,1,97.7500018644333,8|0,0:0|0:0,0:0:0:0:
403,351,139767,2,0,B|355:372|355:372|316:335,1,97.7500018644333,2|0,0:0|0:0,0:0:0:0:
361,136,139930,6,0,B|408:89|408:89|379:18|379:18|334:30|334:30|329:58,1,212.5,14|0,0:0|0:0,0:0:0:0:
471,128,140173,2,0,L|234:81,1,212.5,8|0,0:0|0:0,0:0:0:0:
185,72,140416,2,0,B|143:64|143:64|131:25|131:25|169:-10,1,106.25,8|0,0:0|0:0,0:0:0:0:
452,243,140578,6,0,L|186:295,1,220.999989883423,10|0,0:0|0:0,0:0:0:0:
318,352,140822,2,0,L|360:135,1,220.999989883423,10|0,0:0|0:0,0:0:0:0:
107,170,141065,5,0,1:0:0:0:
107,170,141146,1,0,1:0:0:0:
107,170,141227,2,0,B|152:175|152:175|209:82|209:82|272:87,1,212.5,12|0,0:0|0:0,0:0:0:0:
478,107,141470,2,0,L|252:85,1,212.5,8|0,0:0|0:0,0:0:0:0:
186,104,141713,2,0,B|170:132|170:132|181:154|181:154|222:173,1,97.7500018644333,8|0,0:0|0:0,0:0:0:0:
484,342,141876,6,0,B|461:224|461:224|351:297,1,237.999992736817,10|0,0:0|0:0,0:0:0:0:
138,296,142119,2,0,B|236:361|236:361|259:243,1,237.999992736817,10|0,0:0|0:0,0:0:0:0:
363,42,142362,5,2,1:2:0:0:
363,42,142443,1,0,1:0:0:0:
363,42,142524,2,0,P|335:82|343:171,1,118.999996368408,12|0,0:0|0:0,0:0:0:0:
484,342,142686,2,0,P|472:292|431:261,1,93.5000028533936,0|0,1:0|0:0,0:0:0:0:
117,188,142849,6,0,P|191:186|233:157,1,106.25,8|0,0:0|0:0,0:0:0:0:
512,34,143011,2,0,P|451:5|413:13,1,85,0|0,1:0|0:0,0:0:0:0:
203,327,143173,6,0,P|271:322|334:352,1,114.750000437737,14|0,0:0|0:0,0:0:0:0:
502,152,143335,2,0,P|468:170|417:173,1,85,0|0,1:0|0:0,0:0:0:0:
132,13,143497,6,0,P|154:60|158:118,1,106.25,8|0,0:0|0:0,0:0:0:0:
46,315,143659,1,0,1:0:0:0:
46,315,143740,1,0,1:0:0:0:
46,315,143822,1,14,1:2:0:0:
87,277,143903,1,0,1:0:0:0:
142,264,143984,1,0,1:0:0:0:
196,277,144065,1,0,1:0:0:0:
238,314,144146,1,14,1:2:0:0:
279,350,144227,1,0,1:0:0:0:
334,363,144308,1,0,1:0:0:0:
389,350,144389,1,0,1:0:0:0:
430,313,144470,6,0,B|473:221|473:221|415:160|415:160|386:212,1,229.500000875473,14|0,1:2|0:0,0:0:0:0:
255,206,144713,2,0,B|135:245|135:245|111:199|111:199|147:138,1,237.999992736817,14|0,1:2|0:0,0:0:0:0:
366,30,144957,6,0,L|334:319,1,246.500007522583,14|4,1:2|0:0,0:0:0:0:
256,12,149011,5,0,0:0:0:0:
256,12,149335,2,0,P|294:21|321:24,2,56.6666666666667
189,63,149659,1,0,0:0:0:0:
180,99,149767,1,0,0:0:0:0:
193,140,149875,1,0,0:0:0:0:
233,178,149983,1,0,0:0:0:0:
275,228,150091,1,0,0:0:0:0:
277,306,150199,1,0,0:0:0:0:
177,367,150308,6,0,L|175:332,1,33.9999989624024,2|0,0:0|0:0,0:0:0:0:
222,245,150623,2,0,P|249:240|275:228,2,56.6666666666667
104,288,150939,1,0,0:0:0:0:
70,290,151044,1,0,0:0:0:0:
40,276,151149,1,0,0:0:0:0:
19,249,151254,1,0,0:0:0:0:
14,216,151360,1,0,0:0:0:0:
25,184,151465,1,0,0:0:0:0:
115,157,151571,6,0,P|119:127|110:86,2,56.6666666666667
39,275,151886,2,0,P|35:305|44:346,2,56.6666666666667
165,223,152202,1,0,0:0:0:0:
203,236,152307,1,0,0:0:0:0:
248,234,152412,1,0,0:0:0:0:
305,208,152517,1,0,0:0:0:0:
372,178,152623,1,0,0:0:0:0:
461,190,152728,1,0,0:0:0:0:
471,198,152834,6,0,L|470:215,3,17
470,214,154097,6,0,P|475:227|481:237,2,22.6666666666667
397,185,154413,2,0,P|376:176|358:174,2,33.9999989624024
308,228,154729,1,0,0:0:0:0:
258,236,154834,1,0,0:0:0:0:
212,215,154939,1,0,0:0:0:0:
185,172,155044,1,0,0:0:0:0:
186,122,155150,1,0,0:0:0:0:
215,81,155255,1,0,0:0:0:0:
293,37,155360,6,0,P|326:47|350:49,2,56.6666666666667,2|0|0,0:0|0:0|0:0,0:0:0:0:
160,11,155676,1,0,0:0:0:0:
99,62,155781,1,0,0:0:0:0:
24,32,155886,1,0,0:0:0:0:
107,76,155992,6,0,P|102:123|71:151,2,85.0000032424928
238,94,156308,1,0,0:0:0:0:
204,174,156413,1,0,0:0:0:0:
257,240,156518,1,0,0:0:0:0:
185,320,156623,6,0,P|149:313|122:302,2,56.6666666666667
353,255,156939,2,0,P|380:246|408:241,2,56.6666666666667
204,174,157255,1,0,0:0:0:0:
244,181,157360,1,0,0:0:0:0:
289,168,157465,1,0,0:0:0:0:
334,127,157570,1,0,0:0:0:0:
389,81,157676,1,0,0:0:0:0:
476,75,157781,1,0,0:0:0:0:
464,66,157886,6,0,L|447:63,3,17
447,63,159150,2,0,P|445:47|446:32,2,22.6666666666667
415,137,159465,2,0,P|439:142|456:147,2,33.9999989624024
341,92,159781,1,0,0:0:0:0:
311,115,159886,1,0,0:0:0:0:
277,130,159991,1,0,0:0:0:0:
241,137,160096,1,0,0:0:0:0:
204,135,160202,1,0,0:0:0:0:
168,125,160307,1,0,0:0:0:0:
100,70,160413,6,0,P|100:42|107:8,2,56.6666666666667,2|0|0,0:0|0:0|0:0,0:0:0:0:
171,212,160729,2,0,P|171:240|164:274,2,56.6666666666667
241,137,161044,1,0,0:0:0:0:
277,140,161149,1,0,0:0:0:0:
316,157,161254,1,0,0:0:0:0:
351,196,161359,1,0,0:0:0:0:
367,259,161465,1,0,0:0:0:0:
342,328,161570,1,0,0:0:0:0:
248,368,161676,6,0,P|218:350|181:351,2,67.9999979248048
446,314,161992,2,0,P|480:313|508:296,2,67.9999979248048
351,196,162308,5,0,0:0:0:0:
421,137,162413,1,0,0:0:0:0:
369,56,162518,1,0,0:0:0:0:
268,173,162623,5,0,0:0:0:0:
351,196,162729,1,0,0:0:0:0:
268,173,162834,1,0,0:0:0:0:
184,144,162939,6,0,L|166:147,3,17
167,146,164202,2,0,P|164:133|166:116,2,22.6666666666667
109,214,164518,2,0,P|81:206|62:204,2,33.9999989624024
162,286,164834,1,0,0:0:0:0:
192,268,164939,1,0,0:0:0:0:
225,256,165044,1,0,0:0:0:0:
260,250,165149,1,0,0:0:0:0:
295,251,165255,1,0,0:0:0:0:
330,259,165360,1,0,0:0:0:0:
408,211,165465,6,0,P|410:174|407:141,2,56.6666666666667,2|0|0,3:2|0:0|0:0,0:0:0:0:
387,330,165781,1,0,3:0:0:0:
383,346,165886,1,0,0:0:0:0:
380,362,165992,1,0,0:0:0:0:
503,311,166097,2,0,P|472:289|448:280,2,56.6666666666667,0|0|0,3:0|0:0|0:0,0:0:0:0:
408,211,166413,1,0,3:0:0:0:
358,221,166518,1,0,0:0:0:0:
319,188,166623,1,0,0:0:0:0:
350,100,166729,6,0,P|348:68|348:47,2,45.3333333333333,0|0|0,3:0|0:0|0:0,0:0:0:0:
408,211,167044,2,0,P|406:179|406:158,2,45.3333333333333,0|0|0,3:0|0:0|0:0,0:0:0:0:
313,283,167360,1,0,3:0:0:0:
312,292,167465,1,0,0:0:0:0:
311,301,167571,1,0,0:0:0:0:
310,310,167676,1,0,3:0:0:0:
309,319,167781,1,0,0:0:0:0:
308,328,167886,1,0,0:0:0:0:
380,372,167992,6,0,P|407:368|470:358,3,85
463,358,169255,2,0,P|466:346|470:334,2,22.6666666666667
389,326,169571,2,0,P|367:333|355:335,2,33.9999989624024
431,257,169886,2,0,P|426:221|426:201,2,45.3333333333333
347,253,170202,2,0,P|300:242|278:230,2,56.6666666666667
451,71,170518,5,0,1:0:0:0:
388,115,170623,2,0,P|351:109|321:94,1,56.6666666666667
228,189,170834,5,0,1:0:0:0:
221,112,170939,2,0,P|245:83|273:64,1,56.6666666666667
347,253,171150,5,0,1:0:0:0:
305,266,171255,1,0,0:0:0:0:
252,259,171360,1,0,0:0:0:0:
205,324,171465,5,0,1:0:0:0:
133,290,171571,1,0,0:0:0:0:
42,319,171676,1,0,0:0:0:0:
131,204,171781,5,0,1:0:0:0:
59,168,171886,2,0,P|53:129|54:98,1,56.6666666666667
252,259,172097,5,0,1:0:0:0:
324,295,172202,2,0,P|330:334|329:365,1,56.6666666666667
216,175,172413,5,0,1:0:0:0:
221,132,172518,1,0,0:0:0:0:
245,84,172623,1,0,0:0:0:0:
322,109,172728,5,0,1:0:0:0:
399,97,172834,1,0,0:0:0:0:
484,141,172939,1,0,0:0:0:0:
394,87,173044,6,0,P|379:47|372:26,2,56.6666666666667,0|0|0,1:0|0:0|0:0,0:0:0:0:
407,177,173360,2,0,P|392:217|385:238,2,56.6666666666667,0|0|0,1:0|0:0|0:0,0:0:0:0:
305,126,173676,1,0,1:0:0:0:
277,121,173781,1,0,0:0:0:0:
248,124,173886,1,0,0:0:0:0:
221,132,173991,1,0,1:0:0:0:
197,147,174097,1,0,0:0:0:0:
177,166,174202,1,0,0:0:0:0:
163,263,174308,5,0,1:0:0:0:
163,263,174623,1,0,1:0:0:0:
163,263,174939,1,0,1:0:0:0:
163,263,175255,1,0,1:0:0:0:
70,347,175571,5,0,1:0:0:0:
110,281,175676,2,0,P|145:265|181:264,1,56.6666666666667
198,70,175886,5,0,1:0:0:0:
235,137,175991,2,0,P|231:175|214:207,1,56.6666666666667
218,331,176202,5,0,1:0:0:0:
254,345,176307,1,0,0:0:0:0:
293,341,176412,1,0,0:0:0:0:
330,262,176517,5,0,1:0:0:0:
386,229,176623,1,0,0:0:0:0:
464,240,176728,1,0,0:0:0:0:
320,271,176834,6,0,P|276:257|255:254,2,56.6666666666667,0|0|0,1:0|0:0|0:0,0:0:0:0:
416,151,177150,2,0,P|402:116|400:90,2,56.6666666666667,0|0|0,1:0|0:0|0:0,0:0:0:0:
223,191,177465,5,0,1:0:0:0:
190,193,177570,1,0,0:0:0:0:
154,182,177675,1,0,0:0:0:0:
61,202,177780,5,0,1:0:0:0:
45,144,177886,1,0,0:0:0:0:
72,79,177991,1,0,0:0:0:0:
160,31,178097,6,0,P|210:38|234:40,2,56.6666666666667,0|0|0,1:0|0:0|0:0,0:0:0:0:
72,79,178413,2,0,P|22:86|-2:88,2,56.6666666666667,0|0|0,1:0|0:0|0:0,0:0:0:0:
145,137,178729,1,0,1:0:0:0:
147,148,178834,1,0,0:0:0:0:
149,159,178939,1,0,0:0:0:0:
151,170,179044,1,0,1:0:0:0:
153,181,179150,1,0,0:0:0:0:
155,192,179255,1,0,0:0:0:0:
157,203,179360,2,0,P|159:255|155:309,3,101.999996887207,0|0|0|0,1:0|1:0|1:0|1:0,0:0:0:0:
48,112,180623,5,0,1:0:0:0:
111,72,180729,2,0,P|122:52|121:13,1,56.6666666666667
298,145,180939,5,0,1:0:0:0:
232,110,181045,2,0,P|209:110|176:131,1,56.6666666666667
155,304,181255,5,0,1:0:0:0:
198,318,181360,1,0,0:0:0:0:
258,309,181465,1,0,0:0:0:0:
287,231,181570,5,0,1:0:0:0:
363,198,181676,1,0,0:0:0:0:
466,216,181781,1,0,0:0:0:0:
372,213,181886,6,0,P|376:164|378:140,2,56.6666666666667,0|0|0,1:0|0:0|0:0,0:0:0:0:
425,307,182202,2,0,P|421:356|419:380,2,56.6666666666667,0|0|0,1:0|0:0|0:0,0:0:0:0:
463,80,182518,5,0,1:0:0:0:
418,66,182623,1,0,0:0:0:0:
360,68,182728,1,0,0:0:0:0:
296,24,182833,5,0,1:0:0:0:
231,80,182939,1,0,0:0:0:0:
127,92,183044,1,0,0:0:0:0:
55,38,183150,5,0,1:0:0:0:
55,38,183465,1,0,1:0:0:0:
55,38,183781,1,0,1:0:0:0:
55,38,184097,1,0,1:0:0:0:
55,38,184413,6,0,P|94:47|147:51,1,85,0|0,1:0|0:0,0:0:0:0:
230,171,184729,2,0,P|188:175|146:184,1,85,0|0,1:0|0:0,0:0:0:0:
214,20,185044,2,0,P|243:26|279:35,2,56.6666666666667,0|0|0,1:0|0:0|0:0,0:0:0:0:
82,132,185360,2,0,P|53:126|17:117,2,56.6666666666667,0|0|0,1:0|0:0|0:0,0:0:0:0:
186,291,185676,5,0,1:0:0:0:
146,183,185781,2,0,P|135:207|128:241,1,56.6666666666667
291,109,185992,5,0,1:0:0:0:
404,128,186097,2,0,P|389:106|363:83,1,56.6666666666667
281,241,186308,5,0,1:0:0:0:
285,251,186413,1,0,0:0:0:0:
289,261,186518,1,0,0:0:0:0:
293,271,186623,1,0,1:0:0:0:
297,281,186729,1,0,0:0:0:0:
301,291,186834,1,0,0:0:0:0:
305,301,186939,6,0,P|337:298|368:285,2,56.6666666666667,0|0|0,1:0|0:0|0:0,0:0:0:0:
184,231,187255,2,0,P|157:222|129:220,2,56.6666666666667,0|0|0,1:0|0:0|0:0,0:0:0:0:
331,178,187571,5,0,1:0:0:0:
343,154,187676,1,0,0:0:0:0:
344,125,187781,1,0,0:0:0:0:
328,95,187886,1,0,1:0:0:0:
295,54,187992,1,0,0:0:0:0:
299,1,188097,1,0,0:0:0:0:
399,25,188202,6,0,P|428:36|468:42,2,56.6666666666667,0|0|0,1:0|0:0|0:0,0:0:0:0:
242,134,188518,2,0,P|214:139|187:149,2,56.6666666666667,0|0|0,1:0|0:0|0:0,0:0:0:0:
420,225,188834,2,0,P|449:236|489:242,2,56.6666666666667,0|0|0,1:0|0:0|0:0,0:0:0:0:
263,334,189150,2,0,P|235:339|208:349,2,56.6666666666667,0|0|0,1:0|0:0|0:0,0:0:0:0:
322,259,189465,5,0,1:0:0:0:
325,248,189571,1,0,0:0:0:0:
328,237,189676,1,0,0:0:0:0:
331,226,189781,1,0,1:0:0:0:
334,215,189886,1,0,0:0:0:0:
337,204,189992,1,0,0:0:0:0:
393,145,190097,5,0,1:0:0:0:
330,97,190202,1,0,3:0:0:0:
256,141,190308,1,0,3:0:0:0:
196,76,190413,5,0,1:0:0:0:
129,152,190518,1,0,3:0:0:0:
29,81,190623,1,0,3:0:0:0:
4,310,190729,6,0,B|69:296|69:296|86:256|86:256|223:227,1,249.333340942383,12|0,1:2|0:0,0:0:0:0:
371,365,191044,5,8,1:2:0:0:
452,342,191150,1,0,0:0:0:0:
388,283,191255,1,0,0:0:0:0:
241,352,191360,6,0,P|181:328|133:322,2,85.0000032424928,8|0|0,1:2|0:0|0:0,0:0:0:0:
310,220,191676,5,8,1:2:0:0:
256,141,191781,1,0,0:0:0:0:
295,54,191886,1,0,0:0:0:0:
496,95,191992,5,8,1:2:0:0:
440,148,192097,2,0,P|394:141|349:111,1,85.0000032424928
62,279,192308,5,8,1:2:0:0:
114,221,192413,2,0,P|151:200|193:195,1,85.0000032424928
499,332,192623,5,8,1:2:0:0:
426,350,192728,1,0,0:0:0:0:
354,326,192833,1,0,0:0:0:0:
287,288,192938,1,8,1:2:0:0:
213,274,193044,1,0,0:0:0:0:
141,297,193149,1,0,0:0:0:0:
11,111,193255,6,0,P|26:211|118:218,1,203.999993774414,8|0,1:2|0:0,0:0:0:0:
287,288,193571,2,0,P|272:188|180:181,1,203.999993774414,8|0,1:2|0:0,0:0:0:0:
16,295,193886,2,0,P|25:347|11:387,2,85.0000032424928,8|0|0,1:2|0:0|0:0,0:0:0:0:
113,220,194202,2,0,P|104:168|118:128,2,85.0000032424928,8|0|0,1:2|0:0|0:0,0:0:0:0:
287,288,194518,5,8,1:2:0:0:
303,231,194623,1,0,0:0:0:0:
290,174,194728,1,0,0:0:0:0:
344,120,194833,1,8,1:2:0:0:
318,67,194939,1,0,0:0:0:0:
321,8,195044,1,0,0:0:0:0:
418,163,195150,6,0,L|206:124,1,203.999993774414,8|0,1:2|0:0,0:0:0:0:
0,156,195465,5,8,1:2:0:0:
98,67,195571,1,8,1:2:0:0:
0,156,195676,1,8,1:2:0:0:
0,41,195781,6,0,P|55:58|113:70,2,101.999996887207,8|0|0,1:2|0:0|0:0,0:0:0:0:
113,220,196097,2,0,P|154:207|195:198,2,85.0000032424928,8|0|0,1:2|0:0|0:0,0:0:0:0:
69,316,196413,5,8,1:2:0:0:
111,335,196518,1,0,0:0:0:0:
173,335,196623,1,0,0:0:0:0:
229,274,196728,5,8,1:2:0:0:
304,231,196834,1,0,0:0:0:0:
411,245,196939,1,0,0:0:0:0:
348,298,197044,6,0,P|337:354|334:395,2,85.0000032424928,8|0|0,1:2|0:0|0:0,0:0:0:0:
460,180,197360,2,0,P|449:124|446:83,2,85.0000032424928,8|0|0,1:2|0:0|0:0,0:0:0:0:
346,6,197676,5,8,1:2:0:0:
280,64,197781,1,0,0:0:0:0:
370,89,197886,1,0,0:0:0:0:
304,231,197992,5,8,1:2:0:0:
361,167,198097,1,0,0:0:0:0:
280,148,198202,1,0,0:0:0:0:
205,272,198308,6,0,P|159:256|88:243,2,85.0000032424928,8|0|0,1:2|0:0|0:0,0:0:0:0:
200,64,198623,5,8,1:2:0:0:
120,91,198729,1,0,0:0:0:0:
153,168,198834,1,0,0:0:0:0:
61,306,198939,6,0,P|45:267|55:210,2,85.0000032424928,8|0|0,1:2|0:0|0:0,0:0:0:0:
267,223,199255,2,0,P|283:262|273:319,2,85.0000032424928,8|0|0,1:2|0:0|0:0,0:0:0:0:
120,91,199571,5,8,1:2:0:0:
183,70,199676,1,0,0:0:0:0:
248,89,199781,1,0,0:0:0:0:
298,151,199886,5,8,1:2:0:0:
360,175,199992,1,0,0:0:0:0:
426,166,200097,1,0,0:0:0:0:
471,94,200202,5,8,1:2:0:0:
471,94,200518,5,8,1:2:0:0:
426,166,200623,1,8,1:2:0:0:
471,94,200729,1,8,1:2:0:0:
504,239,200834,6,0,B|446:232|446:232|382:142|382:142|307:134,1,237.999992736817,8|0,1:2|0:0,0:0:0:0:
0,144,201150,5,8,1:2:0:0:
35,126,201255,1,0,0:0:0:0:
81,121,201360,1,0,0:0:0:0:
129,196,201465,5,8,1:2:0:0:
187,230,201571,1,0,0:0:0:0:
270,217,201676,1,0,0:0:0:0:
186,103,201781,6,0,P|174:77|186:16,2,85.0000032424928,8|0|0,1:2|0:0|0:0,0:0:0:0:
349,65,202097,5,8,1:2:0:0:
395,125,202202,2,0,P|440:139|488:142,1,85.0000032424928
357,349,202413,5,8,1:2:0:0:
385,279,202518,2,0,P|375:233|353:190,1,85.0000032424928
102,68,202729,5,8,1:2:0:0:
89,107,202834,1,0,0:0:0:0:
103,158,202939,1,0,0:0:0:0:
186,205,203044,5,8,1:2:0:0:
242,260,203150,1,0,0:0:0:0:
243,353,203255,1,0,0:0:0:0:
85,341,203360,6,0,P|127:314|182:314,2,85.0000032424928,8|0|0,1:2|0:0|0:0,0:0:0:0:
341,273,203676,2,0,P|299:266|264:242,2,85.0000032424928,8|0|0,1:2|0:0|0:0,0:0:0:0:
226,106,203992,5,8,1:2:0:0:
226,106,204308,2,0,P|223:154|197:202,2,85.0000032424928,8|0|0,1:2|0:0|0:0,0:0:0:0:
19,72,204623,5,8,1:2:0:0:
97,81,204729,1,0,0:0:0:0:
71,8,204834,1,0,0:0:0:0:
128,156,204939,6,0,P|132:200|114:249,2,85.0000032424928,8|0|0,1:2|0:0|0:0,0:0:0:0:
0,178,205255,6,0,L|244:205,1,226.666666666667,8|0,1:2|0:0,0:0:0:0:
370,304,205571,5,8,1:2:0:0:
367,181,205676,1,8,1:2:0:0:
463,265,205781,1,8,1:2:0:0:
265,356,205886,6,0,B|276:296|276:296|356:258|356:258|368:181,1,226.666666666667,10|0,1:2|0:0,0:0:0:0:
239,54,206202,2,0,P|184:64|157:93,2,85.0000032424928,8|0|0,1:2|0:0|0:0,0:0:0:0:
309,233,206518,5,8,1:2:0:0:
268,235,206623,1,0,0:0:0:0:
225,227,206728,1,0,0:0:0:0:
160,171,206833,5,8,1:2:0:0:
95,144,206939,1,0,0:0:0:0:
14,157,207044,1,0,0:0:0:0:
39,350,207150,5,8,1:2:0:0:
107,310,207255,2,0,P|109:250|98:224,1,85.0000032424928
370,110,207465,5,8,1:2:0:0:
302,150,207570,2,0,P|300:210|311:236,1,85.0000032424928
173,380,207781,6,0,P|189:316|205:283,2,85.0000032424928,8|0|0,1:2|0:0|0:0,0:0:0:0:
247,48,208097,2,0,P|231:112|215:145,2,85.0000032424928,8|0|0,1:2|0:0|0:0,0:0:0:0:
95,144,208413,5,8,1:2:0:0:
95,144,208729,5,8,1:2:0:0:
223,129,208834,1,8,1:2:0:0:
125,32,208939,1,8,1:2:0:0:
40,248,209044,6,0,P|119:229|147:224,2,85.0000032424928,8|0|0,1:2|0:0|0:0,0:0:0:0:
223,129,209360,2,0,P|302:148|330:153,2,85.0000032424928,8|0|0,1:2|0:0|0:0,0:0:0:0:
185,288,209676,5,8,1:2:0:0:
185,288,209992,5,8,1:2:0:0:
127,122,210097,1,8,1:2:0:0:
286,210,210203,1,8,1:2:0:0:
134,371,210308,5,8,1:2:0:0:
134,371,210518,1,8,1:2:0:0:
134,371,210729,1,8,1:2:0:0:
286,210,210939,6,0,B|334:226|334:226|376:170|376:170|331:113|331:113|283:137,1,237.999992736817,14|0,1:2|0:0,0:0:0:0:
251,357,211255,1,10,1:2:0:0:
328,334,211360,2,0,P|345:310|351:235,1,85.0000032424928,2|0,0:0|0:0,0:0:0:0:
358,46,211571,5,10,1:2:0:0:
284,41,211676,1,2,0:0:0:0:
219,73,211781,1,2,0:0:0:0:
165,123,211886,1,10,1:2:0:0:
98,152,211992,1,2,0:0:0:0:
24,154,212097,1,2,0:0:0:0:
77,8,212202,6,0,P|86:44|101:78,2,56.6666666666667,8|0|0,1:2|0:0|0:0,0:0:0:0:
202,127,212518,2,0,P|211:91|226:57,2,56.6666666666667,8|0|0,1:2|0:0|0:0,0:0:0:0:
46,277,212834,5,10,1:2:0:0:
127,289,212939,1,2,0:0:0:0:
207,269,213044,1,2,0:0:0:0:
270,217,213149,1,10,1:2:0:0:
352,196,213255,1,2,0:0:0:0:
433,211,213360,1,2,0:0:0:0:
420,343,213465,6,0,P|352:312|360:186,1,203.999993774414,8|0,1:2|0:0,0:0:0:0:
422,4,213781,2,0,P|490:35|482:161,1,203.999993774414,8|0,1:2|0:0,0:0:0:0:
302,127,214097,6,0,P|285:90|292:38,2,85.0000032424928,10|0|0,1:2|0:0|0:0,0:0:0:0:
480,283,214413,2,0,P|497:320|490:372,2,85.0000032424928,10|0|0,1:2|0:0|0:0,0:0:0:0:
304,257,214729,5,8,1:2:0:0:
287,261,214834,1,0,0:0:0:0:
270,265,214939,1,0,0:0:0:0:
253,269,215044,1,8,1:2:0:0:
236,273,215150,1,0,0:0:0:0:
219,277,215255,1,0,0:0:0:0:
110,258,215360,5,8,1:2:0:0:
198,361,215465,1,8,1:2:0:0:
220,198,215571,1,8,1:2:0:0:
99,271,215676,5,8,1:2:0:0:
235,187,215781,1,8,1:2:0:0:
187,373,215886,1,8,1:2:0:0:
131,173,215992,5,14,1:2:0:0:
131,173,216308,2,0,P|142:128|131:84,2,85.0000032424928,10|2|0,0:0|0:0|0:0,0:0:0:0:
33,285,216623,5,10,1:2:0:0:
111,285,216728,1,2,0:0:0:0:
181,248,216833,1,2,0:0:0:0:
244,201,216938,1,10,1:2:0:0:
319,181,217044,1,2,0:0:0:0:
396,196,217149,1,2,0:0:0:0:
347,323,217255,6,0,P|303:314|278:308,2,56.6666666666667,8|0|0,1:2|0:0|0:0,0:0:0:0:
396,196,217571,2,0,P|391:143|389:129,2,56.6666666666667,8|0|0,1:2|0:0|0:0,0:0:0:0:
211,380,217886,5,10,1:2:0:0:
186,306,217991,1,2,0:0:0:0:
215,233,218096,1,2,0:0:0:0:
262,170,218201,1,10,1:2:0:0:
277,94,218307,1,2,0:0:0:0:
243,23,218412,1,2,0:0:0:0:
50,61,218518,6,0,P|64:159|168:166,1,203.999993774414,8|0,1:2|0:0,0:0:0:0:
319,346,218834,2,0,P|305:248|201:241,1,203.999993774414,8|0,1:2|0:0,0:0:0:0:
24,353,219150,5,10,1:2:0:0:
73,293,219255,2,0,P|111:292|157:319,1,85.0000032424928,2|0,0:0|0:0,0:0:0:0:
417,169,219465,5,10,1:2:0:0:
368,229,219570,2,0,P|330:230|284:203,1,85.0000032424928,2|0,0:0|0:0,0:0:0:0:
108,95,219781,5,8,1:2:0:0:
271,72,219886,1,8,1:2:0:0:
132,223,219992,1,8,1:2:0:0:
289,208,220097,1,8,1:2:0:0:
289,208,220413,5,8,1:2:0:0:
201,153,220518,1,8,1:2:0:0:
271,72,220623,1,8,1:2:0:0:
372,197,220729,5,8,1:2:0:0:
442,116,220834,1,8,1:2:0:0:
354,61,220939,1,8,1:2:0:0:
232,272,221044,6,0,B|128:296|128:296|78:305|65:236|121:225|121:225|147:219,1,237.999992736817,14|0,0:2|0:0,0:0:0:0:
288,337,221360,1,10,1:2:0:0:
363,315,221465,2,0,P|381:344|437:366,1,85.0000032424928,2|0,0:0|0:0,0:0:0:0:
372,197,221676,5,10,1:2:0:0:
303,181,221781,1,2,0:0:0:0:
239,209,221886,1,2,0:0:0:0:
189,260,221991,1,10,1:2:0:0:
129,298,222097,1,2,0:0:0:0:
58,299,222202,1,2,0:0:0:0:
48,159,222308,6,0,P|49:187|44:215,2,56.6666666666667,8|0|0,1:2|0:0|0:0,0:0:0:0:
221,115,222623,5,10,1:2:0:0:
133,87,222729,2,0,P|109:41|109:7,1,85.0000032424928,2|0,0:0|0:0,0:0:0:0:
173,300,222939,5,10,1:2:0:0:
241,237,223045,2,0,P|292:239|322:256,1,85.0000032424928,2|0,0:0|0:0,0:0:0:0:
48,159,223255,5,10,1:2:0:0:
67,249,223361,2,0,P|39:292|9:309,1,85.0000032424928,2|0,0:0|0:0,0:0:0:0:
221,115,223571,6,0,P|302:104|354:48,1,147.333326588949,8|0,1:2|0:0,0:0:0:0:
447,203,223886,5,10,1:2:0:0:
487,134,223992,2,0,P|482:80|446:42,1,85.0000032424928,2|0,0:0|0:0,0:0:0:0:
382,252,224202,1,10,1:2:0:0:
308,263,224307,1,2,0:0:0:0:
241,237,224412,1,2,0:0:0:0:
180,194,224517,1,10,1:2:0:0:
110,173,224623,1,2,0:0:0:0:
37,184,224728,1,2,0:0:0:0:
11,289,224834,6,0,P|50:284|75:281,2,56.6666666666667,8|0|0,1:2|0:0|0:0,0:0:0:0:
122,361,225150,5,10,0:0:0:0:
210,328,225255,1,2,0:0:0:0:
288,376,225360,1,2,0:0:0:0:
413,340,225465,6,0,P|358:339|274:391,1,135.99999584961,10|0,1:2|0:0,0:0:0:0:
377,253,225781,5,8,1:2:0:0:
210,328,225886,1,8,1:2:0:0:
322,167,225992,1,8,1:2:0:0:
465,231,226097,6,0,L|215:191,1,215.333327583313,14|0,1:2|0:0,0:0:0:0:
72,113,226413,5,10,0:0:0:0:
165,166,226518,2,0,P|199:114|194:65,1,96.3333351707459,2|0,0:0|0:0,0:0:0:0:
91,311,226729,5,10,0:0:0:0:
90,203,226834,2,0,P|27:199|-11:228,1,96.3333351707459,2|0,0:0|0:0,0:0:0:0:
252,196,227044,5,10,0:0:0:0:
159,250,227149,2,0,P|187:305|231:325,1,96.3333351707459,2|0,0:0|0:0,0:0:0:0:
347,162,227360,6,0,P|334:119|326:87,2,56.6666666666667,8|0|0,1:2|0:0|0:0,0:0:0:0:
332,368,227676,5,10,1:2:0:0:
416,320,227781,2,0,P|428:271|412:226,1,85.0000032424928,2|0,0:0|0:0,0:0:0:0:
383,19,227992,5,10,1:2:0:0:
306,16,228097,1,2,0:0:0:0:
242,56,228202,1,2,0:0:0:0:
192,113,228307,1,10,1:2:0:0:
129,154,228413,1,2,0:0:0:0:
53,163,228518,1,2,0:0:0:0:
29,36,228623,5,14,1:2:0:0:
29,36,228939,5,10,1:2:0:0:
100,27,229044,1,2,0:0:0:0:
169,42,229149,1,2,0:0:0:0:
225,86,229254,1,10,1:2:0:0:
263,147,229360,1,2,0:0:0:0:
299,209,229465,1,2,0:0:0:0:
350,259,229570,1,10,1:2:0:0:
417,282,229675,1,2,0:0:0:0:
489,280,229781,1,2,0:0:0:0:
441,152,229886,6,0,P|447:192|450:221,2,56.6666666666667,8|0|0,1:2|0:0|0:0,0:0:0:0:
502,4,230202,5,10,1:2:0:0:
433,48,230308,2,0,P|387:41|342:17,1,85.0000032424928,2|0,0:0|0:0,0:0:0:0:
69,220,230518,5,10,1:2:0:0:
66,144,230623,1,2,0:0:0:0:
103,78,230728,1,2,0:0:0:0:
169,42,230833,1,10,1:2:0:0:
244,46,230939,1,2,0:0:0:0:
307,89,231044,2,0,B|314:100|314:100|305:181,1,85.0000032424928,2|4,0:0|0:0,0:0:0:0:
341,115,251360,5,0,3:0:0:0:
341,115,251992,2,0,P|327:151|322:176,3,34,0|0|0|0,3:0|0:0|0:0|0:0,0:0:0:0:
278,62,252308,2,0,P|264:26|259:1,3,34,0|0|0|0,3:0|0:0|0:0|0:0,0:0:0:0:
234,195,252623,6,0,P|180:205|75:124,1,152.999995330811,2|0,3:2|0:0,0:0:0:0:
136,98,252940,2,0,P|134:82|139:51,3,42.5,0|0|0|0,3:0|0:0|0:0|0:0,0:0:0:0:
140,228,253255,2,0,P|113:239|94:243,3,42.5,2|0|0|0,3:2|3:0|3:0|3:0,0:0:0:0:
296,127,253571,2,0,P|316:134|357:140,3,42.5,0|0|0|0,3:2|3:0|3:0|3:0,0:0:0:0:
234,195,253886,5,8,1:2:0:0:
224,213,253964,1,0,1:0:0:0:
223,234,254043,1,0,1:0:0:0:
230,254,254122,1,0,1:0:0:0:
244,270,254202,1,8,1:2:0:0:
258,285,254281,1,0,1:0:0:0:
265,305,254360,1,0,1:0:0:0:
263,326,254439,1,0,1:0:0:0:
254,345,254518,2,0,L|210:338,1,42.5,8|0,1:2|1:0,0:0:0:0:
94,317,254676,2,0,L|138:310,1,42.5,0|0,1:0|1:0,0:0:0:0:
244,270,254834,2,0,L|200:263,1,42.5,8|0,1:2|1:0,0:0:0:0:
84,242,254992,2,0,L|128:235,1,42.5,0|0,1:0|1:0,0:0:0:0:
319,121,255150,5,8,1:2:0:0:
332,105,255228,1,0,1:0:0:0:
352,93,255307,1,0,1:0:0:0:
379,90,255386,1,0,1:0:0:0:
399,97,255465,1,8,1:2:0:0:
422,121,255544,1,0,1:0:0:0:
430,152,255623,1,0,1:0:0:0:
419,185,255702,1,0,1:0:0:0:
394,209,255781,1,8,1:2:0:0:
350,221,255860,1,0,1:2:0:0:
305,212,255939,1,0,1:2:0:0:
258,190,256018,1,0,1:2:0:0:
212,172,256097,1,8,1:2:0:0:
156,179,256176,1,0,1:2:0:0:
129,233,256255,1,0,1:2:0:0:
172,283,256334,1,0,1:2:0:0:
244,269,256413,6,0,L|247:297,1,25.5,2|0,0:0|0:0,0:0:0:0:
481,254,256713,6,0,P|481:98|326:82,1,340,14|0,1:2|0:0,0:0:0:0:
201,357,257163,2,0,P|47:341|49:183,1,340,14|0,1:2|0:0,0:0:0:0:
498,337,257613,6,0,L|229:291,1,255,14|0,1:2|0:0,0:0:0:0:
8,80,257913,2,0,L|277:126,1,255,14|0,1:2|0:0,0:0:0:0:
481,254,258213,6,0,B|452:280|452:280|301:253,1,170,10|0,1:2|0:0,0:0:0:0:
82,48,258438,2,0,B|111:22|111:22|262:49,1,170,10|0,1:2|0:0,0:0:0:0:
246,294,258663,6,0,L|-23:248,1,212.5,10|0,1:2|0:0,0:0:0:0:
36,258,259113,6,0,P|45:123|222:129,1,340,14|0,1:2|0:0,0:0:0:0:
484,12,259563,2,0,P|475:147|298:141,1,340,14|0,1:2|0:0,0:0:0:0:
118,331,260013,6,0,B|235:367|235:367|301:249,1,255,14|0,1:2|0:0,0:0:0:0:
397,41,260313,2,0,B|280:5|280:5|214:123,1,255,14|0,1:2|0:0,0:0:0:0:
457,308,260613,6,0,L|268:343,1,170,10|0,1:2|0:0,0:0:0:0:
55,76,260838,2,0,L|244:41,1,170,10|0,1:2|0:0,0:0:0:0:
227,286,261063,6,0,B|85:230|85:230|123:179,1,212.5,10|0,1:2|0:0,0:0:0:0:
120,182,261513,6,0,P|113:327|293:347,1,340,14|0,1:2|0:0,0:0:0:0:
314,32,261963,2,0,P|468:53|470:209,1,340,14|0,1:2|0:0,0:0:0:0:
141,107,262413,6,0,B|140:22|140:22|221:44,1,170,14|0,1:2|0:0,0:0:0:0:
367,291,262638,2,0,B|293:334|293:334|272:252,1,170,10|0,1:2|0:0,0:0:0:0:
408,59,262863,6,0,B|482:100|482:100|365:151,1,212.5,10|14,1:2|0:0,0:0:0:0:
15,177,263238,6,0,L|245:117,1,212.5,14|0,0:0|0:0,0:0:0:0:
437,384,263463,6,0,L|259:239,1,212.5,14|0,0:0|0:0,0:0:0:0:
437,384,263913,6,0,P|453:246|289:171,1,340,14|0,1:2|0:0,0:0:0:0:
47,15,264363,2,0,P|31:153|195:228,1,340,14|0,1:2|0:0,0:0:0:0:
447,38,264813,6,0,B|486:106|451:220|372:174|331:271|368:344,1,340,14|0,1:2|0:0,0:0:0:0:
77,136,265263,6,0,B|156:32|156:32|272:101,1,255,14|0,1:2|0:0,0:0:0:0:
169,349,265563,2,0,B|277:288|277:288|226:167,1,255,14|0,1:2|0:0,0:0:0:0:
19,226,265863,2,0,L|146:242,1,85,14|0,1:2|0:0,0:0:0:0:
496,187,266013,6,0,P|391:172|337:65,1,229.499992996216,14|0,1:2|0:0,0:0:0:0:
405,17,266313,2,0,P|422:107|402:142,1,127.500004863739,8|0,0:0|0:0,0:0:0:0:
224,250,266613,2,0,P|277:262|321:296,1,110.499994941712,8|0,0:0|0:0,0:0:0:0:
266,32,266913,2,0,P|217:59|157:68,1,110.499994941712,8|0,0:0|0:0,0:0:0:0:
463,289,267213,6,0,P|464:239|509:172,1,110.499994941712,8|0,0:0|0:0,0:0:0:0:
294,133,267513,2,0,P|239:144|182:190,1,110.499994941712,8|0,0:0|0:0,0:0:0:0:
332,380,267813,2,0,P|318:299|323:250,1,110.499994941712,8|0,0:0|0:0,0:0:0:0:
454,65,268113,5,14,1:2:0:0:
194,174,268263,1,8,0:0:0:0:
509,376,268413,6,0,P|448:331|400:326,1,110.499994941712,14|0,1:2|0:0,0:0:0:0:
128,332,268713,2,0,P|201:324|247:301,1,110.499994941712,8|0,0:0|0:0,0:0:0:0:
339,66,269013,2,0,P|302:120|302:175,1,110.499994941712,8|0,0:0|0:0,0:0:0:0:
71,269,269313,2,0,P|34:215|34:160,1,110.499994941712,8|0,0:0|0:0,0:0:0:0:
401,10,269613,5,14,1:2:0:0:
234,309,269763,1,10,1:2:0:0:
85,26,269913,1,8,1:2:0:0:
427,144,270063,1,8,1:2:0:0:
71,269,270213,6,0,B|113:187|113:187|193:217,1,170,14|0,1:2|0:0,0:0:0:0:
348,254,270438,2,0,B|306:336|306:336|226:306,1,170,14|0,1:2|0:0,0:0:0:0:
153,148,270663,2,0,B|140:108|140:108|156:56,1,85,14|0,1:2|0:0,0:0:0:0:
417,9,270813,5,12,1:2:0:0:
452,20,270888,1,0,1:0:0:0:
479,46,270963,1,0,1:0:0:0:
493,80,271038,1,0,1:0:0:0:
492,117,271113,1,4,1:3:0:0:
475,151,271188,1,0,1:0:0:0:
446,174,271263,1,0,1:0:0:0:
409,182,271338,1,0,1:0:0:0:
373,175,271413,1,12,1:2:0:0:
343,154,271488,1,0,1:0:0:0:
324,122,271563,1,0,1:0:0:0:
319,85,271638,1,0,1:0:0:0:
305,50,271713,1,4,1:3:0:0:
278,25,271788,1,0,1:0:0:0:
242,13,271863,1,0,1:0:0:0:
205,17,271938,1,0,1:0:0:0:
173,36,272013,1,12,1:2:0:0:
152,66,272088,1,0,1:0:0:0:
145,103,272163,1,0,1:0:0:0:
154,139,272238,1,0,1:0:0:0:
177,168,272313,1,4,1:3:0:0:
210,184,272388,1,0,1:0:0:0:
247,193,272463,1,0,1:0:0:0:
277,214,272538,1,0,1:0:0:0:
296,246,272613,1,12,1:2:0:0:
300,283,272688,1,0,1:0:0:0:
288,319,272763,1,0,1:0:0:0:
263,346,272838,1,0,1:0:0:0:
228,360,272913,1,4,1:3:0:0:
191,359,272988,1,0,1:0:0:0:
158,342,273063,1,0,1:0:0:0:
135,312,273138,1,0,1:0:0:0:
126,276,273213,6,0,B|195:262|195:262|226:215|226:215|296:202,1,195.500003728867,14|0,1:2|0:0,0:0:0:0:
512,304,273438,2,0,B|443:318|443:318|412:365|412:365|342:378,1,195.500003728867,14|0,1:2|0:0,0:0:0:0:
214,276,273663,2,0,B|196:229|196:229|210:180,1,97.7500018644333,10|0,1:2|0:0,0:0:0:0:
478,70,273813,6,0,P|475:107|421:132,1,97.7500018644333,12|0,1:2|0:0,0:0:0:0:
233,10,273963,2,0,P|143:31|133:122,1,195.500003728867,10|0,1:2|0:0,0:0:0:0:
321,283,274188,2,0,P|299:193|208:183,1,195.500003728867,8|0,1:2|0:0,0:0:0:0:
61,318,274413,5,10,1:2:0:0:
361,354,274713,5,10,1:2:0:0:
398,54,275013,5,10,1:2:0:0:
97,17,275313,5,10,1:2:0:0:
497,7,278013,5,12,1:2:0:0:
487,7,278088,1,0,1:0:0:0:
480,13,278163,1,0,1:0:0:0:
477,22,278238,1,0,1:0:0:0:
480,31,278313,1,8,1:2:0:0:
490,50,278388,1,0,1:0:0:0:
487,71,278463,1,0,1:0:0:0:
471,87,278538,1,0,1:0:0:0:
449,89,278613,1,8,1:2:0:0:
419,83,278688,1,0,1:0:0:0:
391,98,278763,1,0,1:0:0:0:
380,127,278838,1,0,1:0:0:0:
391,156,278913,1,8,1:2:0:0:
424,196,278988,1,0,1:0:0:0:
406,245,279063,2,0,P|386:259|351:262,1,55.2499974708558,0|0,1:0|1:0,0:0:0:0:
121,132,279213,5,8,1:2:0:0:
154,113,279288,1,0,1:0:0:0:
187,94,279363,2,0,L|208:158,1,55.2499974708558,0|0,1:0|1:0,0:0:0:0:
312,330,279513,5,8,1:2:0:0:
356,355,279588,1,0,1:0:0:0:
400,381,279663,2,0,L|428:294,1,55.2499974708558,0|0,1:0|1:0,0:0:0:0:
335,17,279813,5,8,1:2:0:0:
310,90,279888,1,0,1:0:0:0:
285,163,279963,2,0,L|260:234,1,55.2499974708558,0|0,1:0|1:0,0:0:0:0:
214,373,280113,5,2,0:0:0:0:
214,373,280413,6,0,B|191:273|191:273|248:189|248:189|220:74,1,305.999990661621,6|0,1:2|0:0,0:0:0:0:
88,7,280713,2,0,B|100:24|100:24|158:42,1,76.4999976654053,8|0,0:0|0:0,0:0:0:0:
453,118,280863,1,0,0:0:0:0:
453,118,280938,1,0,0:0:0:0:
453,118,281013,1,0,1:0:0:0:
166,218,281163,1,0,0:0:0:0:
335,17,281313,1,8,0:0:0:0:
356,56,281388,1,0,0:0:0:0:
349,101,281463,2,0,P|344:127|356:171,1,63.7500024318696
442,355,281613,6,0,P|469:267|353:308,1,255,2|0,1:3|0:0,0:0:0:0:
299,341,281913,2,0,B|288:355|288:355|211:343,1,85,8|0,0:0|0:0,0:0:0:0:
52,175,282063,6,0,P|36:118|128:146,1,187.000005706787,2|0,3:0|1:0,0:0:0:0:
128,127,282288,1,0,0:0:0:0:
128,127,282363,1,2,0:0:0:0:
221,344,282513,1,10,0:0:0:0:
356,56,282663,1,2,0:0:0:0:
145,319,282813,5,4,1:2:0:0:
97,289,282888,1,0,3:0:0:0:
107,233,282963,2,0,P|140:213|191:212,1,72.2500013780594,0|0,3:0|0:0,0:0:0:0:
361,289,283113,1,8,0:0:0:0:
411,317,283188,1,0,3:0:0:0:
463,293,283263,1,0,3:0:0:0:
474,235,283338,1,0,3:0:0:0:
434,193,283413,2,0,L|380:198,1,50.9999984436036,0|0,1:0|0:0,0:0:0:0:
208,139,283563,2,0,L|262:134,1,50.9999984436036,0|0,3:0|0:0,0:0:0:0:
493,113,283713,1,8,0:0:0:0:
257,359,283863,5,2,0:3:0:0:
233,308,283938,1,2,0:3:0:0:
256,257,284013,2,0,B|307:170|307:170|295:99|295:99|238:65|238:65|191:98|191:98|217:162,1,340,2|8,1:3|0:0,0:0:0:0:
411,317,284463,2,0,B|382:258|382:258|408:198,1,127.500004863739,2|0,0:3|1:0,0:0:0:0:
150,270,284763,5,2,0:0:0:0:
420,111,284913,1,10,0:0:0:0:
49,16,285063,1,2,0:0:0:0:
49,16,285138,1,2,0:0:0:0:
49,16,285213,2,0,B|5:54|5:54|32:119|32:119|78:127|78:127|102:81|102:81|254:44,1,374.000011413575,6|8,1:2|0:0,0:0:0:0:
484,172,285663,1,0,0:0:0:0:
270,349,285813,2,0,P|251:279|264:217,1,127.500004863739,2|0,1:3|0:0,0:0:0:0:
390,27,286113,1,8,0:0:0:0:
436,268,286263,5,2,0:3:0:0:
436,268,286338,1,2,0:3:0:0:
436,268,286413,2,0,P|392:267|350:287,1,85,2|0,1:3|0:0,0:0:0:0:
88,250,286563,2,0,P|127:267|169:265,1,85,2|0,0:3|0:0,0:0:0:0:
373,115,286713,1,8,0:0:0:0:
47,56,286863,1,2,0:3:0:0:
114,352,287013,5,2,1:2:0:0:
289,136,287163,1,2,0:0:0:0:
1,210,287313,1,8,0:0:0:0:
159,23,287463,1,2,0:0:0:0:
159,23,287538,1,2,0:0:0:0:
159,23,287613,6,0,B|171:63|171:63|157:113,1,85,6|0,1:2|0:0,0:0:0:0:
303,322,287763,1,0,3:0:0:0:
338,285,287838,1,0,3:0:0:0:
326,235,287913,2,0,L|239:211,1,85,8|0,0:0|0:0,0:0:0:0:
0,143,288063,1,0,3:0:0:0:
1,210,288138,1,0,3:0:0:0:
67,224,288213,2,0,L|161:196,1,85,2|0,1:2|0:0,0:0:0:0:
350,72,288363,2,0,L|256:44,1,85,0|0,3:0|0:0,0:0:0:0:
0,143,288513,1,8,0:0:0:0:
233,357,288663,6,0,P|259:273|236:198,1,152.999995330811,2|0,0:0|1:0,0:0:0:0:
510,108,288963,2,0,P|455:169|345:152,1,170,2|8,0:0|0:0,0:0:0:0:
0,251,289263,2,0,P|112:239|178:287,1,187.000005706787,2|0,0:0|1:0,0:0:0:0:
330,46,289563,2,0,P|246:133|248:227,1,203.999993774414,2|8,0:0|0:0,0:0:0:0:
446,349,289863,1,2,0:0:0:0:
446,349,289938,1,2,0:0:0:0:
446,349,290013,6,0,B|502:305|502:305|465:241|465:241|400:248|400:248|374:291|374:291|292:311,1,331.499984825135,4|0,1:2|0:0,0:0:0:0:
246,367,290313,2,0,L|116:338,1,85,8|0,0:0|0:0,0:0:0:0:
240,111,290463,1,0,3:0:0:0:
260,160,290538,1,0,3:0:0:0:
242,210,290613,2,0,P|203:213|164:227,1,63.7500024318696,0|0,1:0|0:0,0:0:0:0:
34,135,290763,2,0,P|79:154|109:157,1,63.7500024318696,0|0,3:0|0:0,0:0:0:0:
331,15,290913,2,0,P|290:20|246:40,1,63.7500024318696,8|0,0:0|0:0,0:0:0:0:
348,238,291063,5,2,0:3:0:0:
419,265,291138,1,2,0:3:0:0:
468,205,291213,2,0,B|500:126|500:126|411:152,1,170,2|0,1:3|0:0,0:0:0:0:
100,233,291513,1,8,0:0:0:0:
186,19,291663,1,2,0:3:0:0:
186,19,291738,1,0,0:0:0:0:
186,19,291813,1,0,1:0:0:0:
210,279,291963,5,2,0:0:0:0:
29,56,292113,1,10,0:0:0:0:
320,125,292263,1,2,0:0:0:0:
5,241,292413,6,0,L|329:271,1,305.999990661621,4|0,1:2|0:0,0:0:0:0:
439,225,292713,2,0,B|429:208|429:208|371:217,1,76.4999976654053,8|0,0:0|0:0,0:0:0:0:
132,334,292863,1,0,0:0:0:0:
132,334,292938,1,0,0:0:0:0:
132,334,293013,1,0,1:0:0:0:
161,107,293163,1,0,3:0:0:0:
357,360,293313,1,8,0:0:0:0:
383,123,293463,1,2,0:3:0:0:
355,77,293538,1,2,0:3:0:0:
302,87,293613,2,0,P|275:152|299:231,1,152.999995330811,0|0,1:2|0:0,0:0:0:0:
501,165,293913,1,8,0:0:0:0:
213,32,294063,6,0,P|147:66|66:68,1,136,2|0,0:0|1:0,0:0:0:0:
151,352,294363,2,0,P|156:249|188:188,1,161.499995687485,2|8,0:0|0:0,0:0:0:0:
468,48,294663,1,2,0:0:0:0:
419,90,294738,1,2,0:0:0:0:
355,77,294813,2,0,B|330:50|330:50|366:10|366:10|421:33|421:33|383:179,1,293.2500055933,6|0,1:2|0:0,0:0:0:0:
316,347,295113,6,0,L|286:254,1,97.7500018644333,8|2,0:0|0:3,0:0:0:0:
426,282,295413,6,0,P|349:290|276:241,1,152.999995330811,2|0,1:3|0:0,0:0:0:0:
224,110,295638,1,2,0:3:0:0:
240,126,295713,2,0,P|241:167|217:214,1,76.4999976654053,8|0,0:0|0:0,0:0:0:0:
414,355,295863,2,0,P|413:314|437:267,1,76.4999976654053,2|0,3:0|0:0,0:0:0:0:
355,77,296013,5,2,1:2:0:0:
141,157,296163,1,0,0:0:0:0:
425,281,296313,5,8,0:0:0:0:
444,15,296463,1,0,0:0:0:0:
133,283,296613,5,2,1:2:0:0:
496,334,296763,1,0,0:0:0:0:
295,21,296913,2,0,B|187:4|187:93|66:76,1,229.499992996216,8|0,0:0|0:0,0:0:0:0:
217,220,297213,5,6,1:2:0:0:
247,167,297288,1,0,3:0:0:0:
224,110,297363,2,0,L|147:103,1,63.7500024318696,0|0,3:3|0:0,0:0:0:0:
0,313,297513,1,8,0:0:0:0:
74,331,297588,1,0,3:0:0:0:
133,283,297663,2,0,L|216:305,1,63.7500024318696,0|0,3:0|0:0,0:0:0:0:
373,276,297813,5,0,1:0:0:0:
418,253,297888,1,0,3:0:0:0:
419,202,297963,1,0,3:0:0:0:
373,179,298038,1,0,3:0:0:0:
333,211,298113,1,8,3:2:0:0:
293,241,298188,1,0,3:0:0:0:
247,218,298263,1,0,3:0:0:0:
247,167,298338,1,0,3:0:0:0:
294,146,298413,6,0,B|348:159|348:159|412:115|412:115|506:135,1,229.499992996216,6|0,1:2|0:0,0:0:0:0:
480,47,298713,2,0,B|469:59|469:59|387:72,1,72.2500013780594,8|0,0:0|0:0,0:0:0:0:
92,157,298863,6,0,P|24:96|158:110,1,340,2|0,0:3|0:0,0:0:0:0:
12,364,299313,1,10,0:0:0:0:
55,302,299388,1,2,3:3:0:0:
112,279,299463,1,2,3:3:0:0:
157,281,299538,1,2,3:3:0:0:
194,296,299613,6,0,B|247:305|247:305|282:251|282:251|386:254|386:254|395:303|395:303|341:324,1,318.75,6|0,1:2|0:0,0:0:0:0:
240,228,299913,2,0,B|231:192|231:192|246:146,1,76.4999976654053,8|0,0:0|0:0,0:0:0:0:
409,22,300063,1,0,0:0:0:0:
409,22,300138,1,0,0:0:0:0:
409,22,300213,1,0,1:0:0:0:
503,266,300363,1,0,3:0:0:0:
287,74,300513,1,8,0:0:0:0:
239,61,300588,1,2,3:3:0:0:
192,78,300663,1,2,3:3:0:0:
162,116,300738,1,2,3:3:0:0:
158,165,300813,6,0,B|229:172|229:172|276:113|276:113|389:125,1,255,2|0,1:3|0:0,0:0:0:0:
512,69,301113,2,0,B|499:80|499:80|438:72,1,76.4999976654053,8|0,0:0|0:0,0:0:0:0:
92,314,301263,6,0,B|180:299|180:299|225:215|225:215|338:201,1,280.500008560181,2|0,3:0|0:0,0:0:0:0:
384,250,301563,2,0,B|394:288|394:288|380:325,1,72.2500013780594,2|0,0:0|0:0,0:0:0:0:
158,165,301713,2,0,B|148:127|148:127|162:90,1,72.2500013780594,10|0,0:0|0:0,0:0:0:0:
380,15,301863,5,2,0:0:0:0:
380,15,301938,1,2,0:0:0:0:
380,15,302013,2,0,B|426:38|426:38|416:100|416:100|337:119|337:119|309:256,1,280.500008560181,4|0,1:2|0:0,0:0:0:0:
205,232,302313,2,0,B|213:253|213:253|273:261,1,76.4999976654053,8|0,0:0|0:0,0:0:0:0:
502,293,302463,1,0,0:0:0:0:
502,293,302538,1,0,0:0:0:0:
502,293,302613,1,0,1:0:0:0:
373,135,302763,1,0,3:0:0:0:
202,348,302913,1,8,0:0:0:0:
146,357,302988,1,2,3:0:0:0:
99,326,303063,1,2,3:0:0:0:
86,272,303138,1,2,3:0:0:0:
114,223,303213,6,0,B|161:165|161:165|145:100|145:100|87:91|87:91|74:157,1,255,2|0,1:3|0:0,0:0:0:0:
183,200,303513,2,0,B|195:171|195:171|183:116,1,72.2500013780594,8|0,0:0|0:0,0:0:0:0:
0,25,303663,1,2,3:0:0:0:
273,0,303813,1,0,1:0:0:0:
9,206,303963,5,2,0:0:0:0:
347,267,304113,1,10,0:0:0:0:
151,18,304263,1,2,0:0:0:0:
151,18,304338,1,2,0:0:0:0:
151,18,304413,1,6,1:2:0:0:
143,368,304563,6,0,P|109:270|118:204,1,152.999995330811,2|8,0:0|0:0,0:0:0:0:
468,87,304863,2,0,B|397:75|399:116|304:104,1,152.999995330811,2|0,0:0|1:0,0:0:0:0:
43,271,305163,2,0,B|114:283|112:242|207:254,1,152.999995330811,2|8,0:0|0:0,0:0:0:0:
388,314,305463,5,2,0:0:0:0:
388,314,305538,1,2,0:0:0:0:
388,314,305613,1,2,1:2:0:0:
219,159,305763,1,2,0:0:0:0:
437,3,305913,2,0,B|457:89|457:89|399:140|399:140|425:252,1,255.000009727478,8|0,0:0|1:0,0:0:0:0:
211,342,306363,5,2,0:0:0:0:
504,205,306513,1,10,0:0:0:0:
224,21,306663,1,2,0:0:0:0:
224,21,306738,1,2,0:0:0:0:
224,21,306813,1,6,1:2:0:0:
305,289,306963,6,0,P|211:239|139:243,1,152.999995330811,2|8,0:0|0:0,0:0:0:0:
454,358,307263,2,0,B|436:274|392:305|378:221,1,152.999995330811,2|0,0:0|1:0,0:0:0:0:
104,13,307563,2,0,B|122:97|166:66|180:150,1,152.999995330811,2|8,0:0|0:0,0:0:0:0:
118,327,307863,5,2,0:0:0:0:
118,327,307938,1,2,0:0:0:0:
118,327,308013,1,2,1:2:0:0:
340,148,308163,1,2,0:0:0:0:
15,186,308313,2,0,P|46:190|80:204,1,63.7500024318696,8|0,0:0|0:0,0:0:0:0:
239,126,308463,2,0,P|209:138|178:142,1,63.7500024318696,0|0,3:0|0:0,0:0:0:0:
30,362,308613,6,0,P|164:346|216:231,1,255.000009727478,2|8,1:2|0:0,0:0:0:0:
42,97,309063,1,2,0:0:0:0:
335,10,309213,5,4,1:2:0:0:
353,45,309288,1,0,3:0:0:0:
343,85,309363,2,0,P|336:118|348:168,1,63.7500024318696,0|0,3:0|0:0,0:0:0:0:
472,260,309513,1,8,0:0:0:0:
504,218,309588,1,0,3:0:0:0:
483,170,309663,1,0,3:0:0:0:
431,165,309738,1,0,3:0:0:0:
401,209,309813,1,0,1:0:0:0:
178,267,309963,1,0,3:0:0:0:
442,345,310113,5,8,0:0:0:0:
161,187,310263,1,2,3:0:0:0:
133,144,310338,1,2,3:0:0:0:
152,96,310413,2,0,B|215:108|215:108|241:141|241:141|316:121|316:121|358:61|358:61|312:16|312:16|263:46,1,374.000011413575,2|8,1:3|0:0,0:0:0:0:
177,266,310863,2,0,B|97:294|97:294|34:209,1,170,2|0,3:0|1:0,3:0:0:0:
46,226,311088,1,0,0:0:0:0:
46,226,311163,1,2,0:0:0:0:
241,179,311313,1,10,0:0:0:0:
361,323,311463,1,2,0:0:0:0:
110,292,311613,6,0,P|141:274|176:266,1,72.2500013780594,4|0,1:2|0:0,0:0:0:0:
419,221,311763,2,0,P|384:212|353:195,1,72.2500013780594,0|0,3:0|0:0,0:0:0:0:
229,65,311913,2,0,P|288:37|283:121,1,170,8|0,0:0|3:0,0:0:0:0:
241,178,312138,1,0,3:0:0:0:
216,163,312213,2,0,P|193:163|151:174,1,63.7500024318696,0|0,1:0|0:0,0:0:0:0:
407,79,312363,2,0,P|430:79|472:68,1,63.7500024318696,0|0,3:0|0:0,0:0:0:0:
152,16,312513,1,8,0:0:0:0:
343,293,312663,5,2,3:0:0:0:
377,246,312738,1,2,3:0:0:0:
352,194,312813,2,0,B|263:208|263:208|230:283|230:283|132:298,1,255,2|0,1:3|0:0,0:0:0:0:
29,241,313113,2,0,B|46:224|46:224|105:234,1,72.2500013780594,8|0,0:0|0:0,0:0:0:0:
296,353,313263,6,0,B|311:273|311:273|215:185|215:185|231:103,1,293.2500055933,2|0,3:0|0:0,0:0:0:0:
248,15,313563,5,2,0:0:0:0:
456,236,313713,1,10,0:0:0:0:
147,295,313863,2,0,L|151:277,1,17,2|0,0:0|0:0,0:0:0:0:
186,365,314313,6,0,L|112:20,1,340,12|0,1:2|0:0,0:0:0:0:
114,32,314913,6,0,L|450:140,1,340,12|2,1:2|0:0,0:0:0:0:
437,136,315513,6,0,L|175:373,1,340,12|2,1:2|0:0,0:0:0:0:
186,365,316113,6,0,L|149:192,1,170,12|0,1:2|0:0,0:0:0:0:
280,17,316413,5,0,1:0:0:0:
280,17,316563,1,0,1:0:0:0:
280,17,316713,1,8,1:2:0:0:
280,17,316863,1,0,1:0:0:0:
215,70,317013,5,0,1:0:0:0:
310,138,317163,1,0,1:0:0:0:
150,198,317313,1,8,1:2:0:0:
301,329,317463,1,0,1:0:0:0:
0,361,317613,5,12,1:2:0:0:
32,332,317688,1,0,1:0:0:0:
72,320,317763,1,0,1:0:0:0:
113,324,317838,1,0,1:0:0:0:
151,345,317913,1,8,1:2:0:0:
189,366,317988,1,0,1:0:0:0:
230,370,318063,1,0,1:0:0:0:
270,358,318138,1,0,1:0:0:0:
301,329,318213,6,0,P|303:297|271:242,1,76.4999976654053,12|0,1:2|0:0,0:0:0:0:
16,127,318363,2,0,P|47:128|102:158,1,76.4999976654053,0|0,1:0|1:0,0:0:0:0:
428,16,318513,2,0,P|399:37|339:60,1,76.4999976654053,8|0,1:2|1:0,0:0:0:0:
6,262,318663,2,0,P|35:241|95:218,1,76.4999976654053,0|0,1:0|1:0,0:0:0:0:
508,200,318813,5,6,1:2:0:0:
24,8,318963,2,0,B|95:19|95:19|129:79|129:79|200:94,1,212.5,2|8,0:0|0:0,0:0:0:0:
362,53,319263,5,0,3:0:0:0:
362,53,319338,1,0,3:0:0:0:
362,53,319413,1,2,1:2:0:0:
276,357,319563,1,2,0:0:0:0:
269,4,319713,2,0,B|318:62|318:62|219:123|219:123|188:268,1,318.75,8|0,0:0|0:0,0:0:0:0:
174,361,320013,5,2,1:2:0:0:
511,239,320163,2,0,P|425:148|326:153,1,212.5,2|8,0:0|0:0,0:0:0:0:
112,296,320463,5,0,3:0:0:0:
112,296,320538,1,0,3:0:0:0:
112,296,320613,1,2,1:2:0:0:
429,182,320763,1,2,0:0:0:0:
0,90,320913,2,0,B|52:151|165:118|116:46|249:27|304:97,1,318.75,8|0,0:0|0:0,0:0:0:0:
271,364,321213,6,0,L|227:244,1,106.25,6|0,1:2|0:0,0:0:0:0:
364,34,321363,2,0,B|460:80|460:80|425:191,1,212.5,2|8,0:0|0:0,0:0:0:0:
381,361,321663,5,0,3:0:0:0:
381,361,321738,1,0,3:0:0:0:
381,361,321813,2,0,L|494:327,1,106.25,6|0,1:2|0:0,0:0:0:0:
482,330,321963,1,2,0:0:0:0:
68,345,322113,2,0,B|162:365|162:365|219:256|219:256|342:278,1,318.75,8|0,0:0|0:0,0:0:0:0:
507,154,322413,6,0,L|498:115,1,38.2499988327027,2|0,1:2|0:0,0:0:0:0:
317,273,322713,6,0,L|308:234,1,38.2499988327027,10|0,0:0|0:0,0:0:0:0:
208,124,323013,6,0,L|199:85,1,38.2499988327027,2|0,1:2|0:0,0:0:0:0:
18,243,323313,6,0,L|9:204,1,38.2499988327027,10|0,0:0|0:0,0:0:0:0:
60,128,323613,5,6,1:2:0:0:
373,193,323763,2,0,B|393:235|366:267|366:267|221:229,1,212.5,2|8,0:0|0:0,0:0:0:0:
137,215,324063,5,0,3:0:0:0:
137,215,324138,1,0,3:0:0:0:
137,215,324213,1,2,1:2:0:0:
420,90,324363,1,2,0:0:0:0:
247,349,324513,2,0,B|230:273|174:256|174:256|181:194|235:184|235:184|217:79,1,318.75,8|0,0:0|0:0,0:0:0:0:
205,11,324813,5,2,1:2:0:0:
34,359,324963,2,0,P|75:229|155:217,1,212.5,2|8,0:0|0:0,0:0:0:0:
324,271,325263,5,0,3:0:0:0:
324,271,325338,1,0,3:0:0:0:
324,271,325413,1,2,1:2:0:0:
32,152,325563,1,2,0:0:0:0:
355,39,325713,2,0,B|377:63|377:63|416:107|484:76|471:4|396:-2|377:63|377:63|354:107|279:95,1,318.75,8|0,0:0|0:0,0:0:0:0:
101,34,326013,6,0,L|222:7,1,106.25,6|0,1:2|0:0,0:0:0:0:
411,266,326163,2,0,B|472:228|472:228|479:180|479:180|380:158,1,212.5,2|8,0:0|0:0,0:0:0:0:
216,121,326463,5,0,3:0:0:0:
216,121,326538,1,0,3:0:0:0:
216,121,326613,2,0,L|186:227,1,106.25,6|0,1:2|0:0,0:0:0:0:
187,223,326763,1,2,0:0:0:0:
496,250,326913,2,0,B|455:216|455:216|385:234|385:234|395:306|395:306|353:354|353:354|290:325,1,318.75,8|0,0:0|0:0,0:0:0:0:
5,230,327213,6,0,L|14:267,1,38.2499988327027,2|0,1:2|0:0,0:0:0:0:
195,111,327514,6,0,L|204:148,1,38.2499988327027,10|0,0:0|0:0,0:0:0:0:
304,260,327814,6,0,L|313:297,1,38.2499988327027,2|0,1:2|0:0,0:0:0:0:
494,141,328114,6,0,L|503:178,1,38.2499988327027,10|0,0:0|0:0,0:0:0:0:
439,327,328413,5,6,1:2:0:0:
254,3,328563,2,0,B|269:38|269:38|344:43|388:157,1,212.5,2|8,0:0|0:0,0:0:0:0:
304,260,328863,5,0,3:0:0:0:
304,260,328938,1,0,3:0:0:0:
304,260,329013,1,2,1:2:0:0:
467,64,329163,1,2,0:0:0:0:
33,186,329313,2,0,B|64:153|64:153|201:167|333:91,1,318.75,8|0,0:0|0:0,0:0:0:0:
378,9,329613,5,2,1:2:0:0:
201,347,329763,2,0,P|98:265|126:190,1,212.5,2|8,0:0|0:0,0:0:0:0:
410,156,330063,5,0,3:0:0:0:
410,156,330138,1,0,3:0:0:0:
410,156,330213,1,2,1:2:0:0:
106,32,330363,1,2,0:0:0:0:
345,264,330513,2,0,B|383:312|383:387|204:394|219:254|272:172|308:166,1,318.75,8|0,0:0|0:0,0:0:0:0:
482,83,330813,6,0,L|367:57,1,106.25,6|0,1:2|0:0,0:0:0:0:
18,209,330963,2,0,B|33:224|33:224|79:124|79:124|173:105,1,212.5,2|8,0:0|0:0,0:0:0:0:
264,0,331263,5,0,0:0:0:0:
264,0,331338,1,0,0:0:0:0:
264,0,331413,2,0,L|233:111,1,106.25,6|0,1:2|0:0,0:0:0:0:
235,102,331563,1,2,0:0:0:0:
378,380,331713,2,0,B|395:363|395:363|211:276|211:276|217:173,1,318.75,8|0,0:0|0:0,0:0:0:0:
507,230,332013,6,0,L|498:269,1,38.2499988327027,2|0,1:2|0:0,0:0:0:0:
317,111,332313,6,0,L|308:150,1,38.2499988327027,10|0,0:0|0:0,0:0:0:0:
208,260,332613,6,0,L|199:299,1,38.2499988327027,2|0,1:2|0:0,0:0:0:0:
18,141,332913,6,0,L|9:180,1,38.2499988327027,10|0,0:0|0:0,0:0:0:0:
77,269,333213,5,6,1:2:0:0:
452,148,333363,2,0,B|471:117|471:117|446:81|446:81|296:115,1,212.5,2|8,0:0|0:0,0:0:0:0:
172,144,333663,5,0,3:0:0:0:
172,144,333738,1,0,3:0:0:0:
172,144,333813,1,2,1:2:0:0:
477,234,333963,1,2,0:0:0:0:
174,359,334113,2,0,B|122:369|122:369|94:318|94:318|183:212|183:212|169:132,1,318.75,8|0,0:0|0:0,0:0:0:0:
154,47,334413,5,2,1:2:0:0:
386,236,334563,2,0,P|389:318|277:341,1,212.5,2|8,0:0|0:0,0:0:0:0:
54,183,334863,5,0,3:0:0:0:
54,183,334938,1,0,3:0:0:0:
54,183,335013,1,2,1:2:0:0:
374,68,335163,1,2,0:0:0:0:
208,277,335313,2,0,B|151:312|156:384|260:419|328:298|245:276|211:233|240:163,1,318.75,8|0,0:0|0:0,0:0:0:0:
298,120,335613,6,0,L|253:15,1,106.25,6|0,1:2|0:0,0:0:0:0:
399,316,335763,2,0,B|414:258|414:258|472:247|491:191|491:191|501:122,1,212.5,2|8,0:0|0:0,0:0:0:0:
478,49,336063,5,0,3:0:0:0:
478,49,336138,1,0,3:0:0:0:
478,49,336213,2,0,L|362:70,1,106.25,6|0,1:2|0:0,0:0:0:0:
373,68,336363,1,2,0:0:0:0:
35,164,336513,2,0,B|93:185|93:185|192:176|220:86|220:86|302:121,1,318.75,8|0,0:0|0:0,0:0:0:0:
507,154,336813,6,0,L|498:115,1,38.2499988327027,2|0,1:2|0:0,0:0:0:0:
18,243,337113,6,0,L|9:204,1,38.2499988327027,10|0,0:0|0:0,0:0:0:0:
457,218,337413,5,6,1:2:0:0:
402,224,337488,1,2,0:0:0:0:
347,215,337563,1,2,0:0:0:0:
296,193,337638,1,2,0:0:0:0:
249,162,337713,1,10,0:0:0:0:
203,131,337788,1,2,0:0:0:0:
150,114,337863,1,2,0:0:0:0:
95,116,337938,1,2,0:0:0:0:
42,135,338013,5,6,1:2:0:0:
402,10,338163,2,0,B|423:39|423:39|404:80|404:80|344:48|259:51,1,212.5,2|8,0:0|0:0,0:0:0:0:
116,8,338463,5,0,3:0:0:0:
116,8,338538,1,0,3:0:0:0:
116,8,338613,1,2,1:2:0:0:
333,106,338763,1,2,0:0:0:0:
167,308,338913,2,0,B|102:335|102:335|77:279|77:279|160:207|148:97,1,318.75,8|0,0:0|0:0,0:0:0:0:
195,41,339213,5,2,1:2:0:0:
235,354,339363,2,0,P|249:282|128:231,1,212.5,2|8,0:0|0:0,0:0:0:0:
6,382,339663,5,0,3:0:0:0:
6,382,339738,1,0,3:0:0:0:
6,382,339813,1,2,1:2:0:0:
290,281,339963,1,2,0:0:0:0:
98,55,340113,2,0,B|76:79|76:79|37:123|-31:92|-18:20|57:14|76:79|76:79|99:123|174:111,1,318.75,8|0,0:0|0:0,0:0:0:0:
382,36,340413,6,0,L|260:14,1,106.25,6|0,1:2|0:0,0:0:0:0:
48,187,340563,2,0,B|70:241|70:241|166:237|220:162,1,212.5,2|8,0:0|0:0,0:0:0:0:
338,136,340863,5,0,3:0:0:0:
338,136,340938,1,0,3:0:0:0:
338,136,341013,2,0,L|460:113,1,106.25,6|0,1:2|0:0,0:0:0:0:
442,116,341163,1,2,0:0:0:0:
317,368,341313,2,0,B|221:336|221:336|244:235|307:215|307:215|331:245|328:280,1,318.75,8|0,0:0|0:0,0:0:0:0:
97,375,341613,6,0,L|142:368,1,38.2499988327027,2|0,1:2|0:0,0:0:0:0:
328,271,341913,6,0,L|373:264,1,38.2499988327027,10|0,0:0|0:0,0:0:0:0:
128,122,342213,6,0,L|173:115,1,38.2499988327027,2|0,1:2|0:0,0:0:0:0:
359,18,342513,6,0,L|404:11,1,38.2499988327027,10|0,0:0|0:0,0:0:0:0:
193,16,342813,5,6,1:2:0:0:
498,236,342963,2,0,B|437:214|437:214|422:136|422:136|337:113,1,212.5,2|8,0:0|0:0,0:0:0:0:
213,199,343263,5,0,3:0:0:0:
213,199,343338,1,0,3:0:0:0:
213,199,343413,1,2,1:2:0:0:
492,83,343563,1,2,0:0:0:0:
399,354,343713,2,0,B|434:211|434:211|369:222|369:222|355:113,1,318.75,8|0,0:0|0:0,0:0:0:0:
340,25,344013,5,2,1:2:0:0:
123,251,344163,2,0,P|23:218|46:118,1,212.5,2|8,0:0|0:0,0:0:0:0:
340,203,344463,5,0,3:0:0:0:
340,203,344538,1,0,3:0:0:0:
340,203,344613,1,2,1:2:0:0:
76,51,344763,1,2,0:0:0:0:
228,291,344913,2,0,B|257:332|219:407|145:392|106:313|138:209|206:179,1,318.75,8|0,0:0|0:0,0:0:0:0:
164,87,345213,6,0,L|288:69,1,106.25,6|0,1:2|0:0,0:0:0:0:
477,273,345363,2,0,B|377:304|377:304|339:201,1,212.5,2|8,0:0|0:0,0:0:0:0:
401,102,345663,5,0,3:0:0:0:
401,102,345738,1,0,3:0:0:0:
401,102,345813,2,0,L|505:35,1,106.25,6|0,1:2|0:0,0:0:0:0:
490,44,345963,1,2,0:0:0:0:
55,303,346113,2,0,B|135:292|135:292|207:200|207:200|327:193,1,318.75,8|0,0:0|0:0,0:0:0:0:
396,12,346413,6,0,L|351:19,1,38.2499988327027,2|0,1:2|0:0,0:0:0:0:
165,116,346713,6,0,L|120:123,1,38.2499988327027,10|0,0:0|0:0,0:0:0:0:
365,265,347013,6,0,L|320:272,1,38.2499988327027,2|0,1:2|0:0,0:0:0:0:
134,369,347313,6,0,L|89:376,1,38.2499988327027,10|0,0:0|0:0,0:0:0:0:
15,243,347613,5,6,1:2:0:0:
362,367,347763,2,0,B|401:327|401:327|366:284|366:284|268:326,1,212.5,2|8,0:0|0:0,0:0:0:0:
150,238,348063,5,0,3:0:0:0:
150,238,348138,1,0,3:0:0:0:
150,238,348213,1,2,1:2:0:0:
466,151,348363,1,2,0:0:0:0:
197,9,348513,2,0,B|155:48|155:48|188:95|188:95|309:34|309:34|399:56,1,318.75,8|0,0:0|0:0,0:0:0:0:
472,52,348813,5,2,1:2:0:0:
344,291,348963,2,0,P|245:247|269:134,1,212.5,2|8,0:0|0:0,0:0:0:0:
478,328,349263,5,0,3:0:0:0:
478,328,349338,1,0,3:0:0:0:
478,328,349413,1,2,1:2:0:0:
324,117,349563,1,0,3:0:0:0:
131,326,349713,2,0,B|97:379|146:428|205:411|285:296|174:285|145:248|186:164,1,318.75,8|0,0:0|0:0,0:0:0:0:
239,66,350013,6,0,L|110:27,1,106.25,6|0,1:2|0:0,0:0:0:0:
33,275,350163,2,0,B|12:248|12:248|31:105|31:105|73:91,1,212.5,2|8,0:0|0:0,0:0:0:0:
177,184,350463,5,0,3:0:0:0:
177,184,350538,1,0,3:0:0:0:
177,184,350613,2,0,L|296:143,1,106.25,6|0,1:2|0:0,0:0:0:0:
277,149,350763,1,2,0:0:0:0:
497,383,350913,2,0,B|448:364|448:364|489:210|489:210|362:225,1,318.75,8|0,0:0|0:0,0:0:0:0:
415,375,351213,6,0,L|370:368,1,38.2499988327027,2|0,1:2|0:0,0:0:0:0:
184,271,351513,6,0,L|139:264,1,38.2499988327027,10|0,0:0|0:0,0:0:0:0:
384,122,351813,6,0,L|339:115,1,38.2499988327027,2|0,1:2|0:0,0:0:0:0:
153,18,352113,6,0,L|108:11,1,38.2499988327027,10|0,0:0|0:0,0:0:0:0:
28,115,352413,5,6,1:2:0:0:
452,49,352563,2,0,B|376:35|376:35|348:89|240:83,1,212.5,2|8,0:0|0:0,0:0:0:0:
149,179,352863,5,0,3:0:0:0:
149,179,352938,1,0,3:0:0:0:
149,179,353013,1,2,1:2:0:0:
426,258,353163,1,2,0:0:0:0:
62,371,353313,2,0,B|66:318|66:318|196:320|323:214,1,318.75,8|0,0:0|0:0,0:0:0:0:
363,155,353613,5,2,1:2:0:0:
27,115,353763,2,0,P|41:17|139:5,1,212.5,2|8,0:0|0:0,0:0:0:0:
45,229,354063,5,0,3:0:0:0:
45,229,354138,1,0,3:0:0:0:
45,229,354213,1,2,1:2:0:0:
366,313,354363,1,2,0:0:0:0:
199,62,354513,2,0,B|143:127|209:215|258:171|303:257|245:362,1,318.75,8|0,0:0|0:0,0:0:0:0:
156,362,354813,6,0,L|137:240,1,106.25,6|0,1:2|0:0,0:0:0:0:
294,38,354963,2,0,B|357:17|357:17|393:86|330:168,1,212.5,2|8,0:0|0:0,0:0:0:0:
155,141,355263,5,0,3:0:0:0:
155,141,355338,1,0,3:0:0:0:
155,141,355413,2,0,L|21:116,1,106.25,6|0,1:2|0:0,0:0:0:0:
51,122,355563,1,2,0:0:0:0:
290,269,355713,2,0,B|331:300|331:300|450:282|491:169|491:169|458:120,1,318.75,8|0,0:0|0:0,0:0:0:0:
377,15,356013,6,0,L|415:9,1,38.2499988327027,2|0,1:2|0:0,0:0:0:0:
146,119,356313,6,0,L|184:113,1,38.2499988327027,10|0,0:0|0:0,0:0:0:0:
346,268,356613,6,0,L|384:262,1,38.2499988327027,2|0,1:2|0:0,0:0:0:0:
115,372,356913,6,0,L|153:366,1,38.2499988327027,10|0,0:0|0:0,0:0:0:0:
252,328,357213,5,0,1:0:0:0:
253,319,357288,1,0,1:0:0:0:
254,310,357363,1,0,1:0:0:0:
255,301,357438,1,0,1:0:0:0:
256,292,357513,6,0,B|61:325|61:325|4:334|-6:256|51:248|51:248|122:237,1,391.000007457733,14|0,1:2|0:0,0:0:0:0:
308,145,357963,2,0,B|487:187|487:187|501:109|501:109|410:89|410:89|398:152,1,407.999987548829,8|0,1:2|0:0,0:0:0:0:
338,354,358413,5,12,1:2:0:0:
143,14,358563,2,0,B|157:135|157:135|242:178|242:178|257:308,1,331.499984825135,8|0,1:2|0:0,0:0:0:0:
188,372,358863,2,0,L|177:273,1,85,12|0,1:2|0:0,0:0:0:0:
308,145,359163,5,8,1:2:0:0:
265,208,359238,1,8,1:2:0:0:
65,308,359388,5,8,1:2:0:0:
108,245,359463,1,8,1:2:0:0:
183,107,359613,5,0,1:0:0:0:
184,115,359688,1,0,1:0:0:0:
185,123,359763,1,0,1:0:0:0:
187,131,359838,1,0,1:0:0:0:
188,139,359913,6,0,B|268:147|268:147|327:52|327:52|481:71|481:71|447:127,1,407.999987548829,14|0,1:2|0:0,0:0:0:0:
338,314,360363,6,0,B|242:327|242:327|265:246|265:246|6:209,1,425,12|0,1:2|0:0,0:0:0:0:
122,378,360813,5,12,0:0:0:0:
505,229,360963,2,0,L|129:288,1,331.499984825135,8|0,1:2|0:0,0:0:0:0:
120,198,361263,6,0,B|201:154|201:154|265:240,1,191.250007295609,8|0,1:2|0:0,0:0:0:0:
224,357,361563,5,8,0:0:0:0:
0,283,361713,1,8,0:0:0:0:
66,85,361863,1,8,0:0:0:0:
66,85,361938,1,8,0:0:0:0:
66,85,362313,5,14,1:2:0:0:
492,126,362463,1,0,1:0:0:0:
492,126,362613,1,0,1:0:0:0:
27,183,362763,5,12,0:0:0:0:
387,65,362913,1,0,1:0:0:0:
387,65,363063,1,0,1:0:0:0:
123,235,363213,5,12,0:0:0:0:
506,290,363363,1,0,1:0:0:0:
506,290,363513,1,0,1:0:0:0:
79,356,363663,5,12,0:0:0:0:
416,254,363813,1,0,1:0:0:0:
416,254,363963,1,0,1:0:0:0:
300,11,364113,5,12,1:2:0:0:
205,370,364263,1,0,1:0:0:0:
205,370,364338,1,0,1:0:0:0:
205,370,364413,1,14,1:2:0:0:
158,347,364488,1,0,1:0:0:0:
145,296,364563,1,0,1:0:0:0:
175,253,364638,1,0,1:0:0:0:
226,248,364713,1,12,1:2:0:0:
265,283,364788,1,0,1:0:0:0:
283,333,364863,1,0,1:0:0:0:
330,356,364938,1,0,1:0:0:0:
378,336,365013,1,12,1:2:0:0:
394,286,365088,1,0,1:0:0:0:
367,241,365163,1,0,1:0:0:0:
316,227,365238,1,0,1:0:0:0:
277,192,365313,1,12,1:2:0:0:
278,140,365388,1,0,1:0:0:0:
319,107,365463,1,0,1:0:0:0:
370,117,365538,1,0,1:0:0:0:
397,162,365613,6,0,P|443:151|464:116,1,85,14|0,1:2|1:0,0:0:0:0:
127,23,365763,2,0,P|169:58|185:122,1,85,0|0,1:0|1:0,0:0:0:0:
164,361,365913,2,0,P|170:326|210:263,1,85,12|0,1:2|1:0,0:0:0:0:
347,28,366063,2,0,P|341:63|301:126,1,85,0|0,1:0|1:0,0:0:0:0:
42,204,366213,1,12,1:2:0:0:
92,186,366288,1,0,1:0:0:0:
144,180,366363,1,0,1:0:0:0:
197,184,366438,1,0,1:0:0:0:
248,200,366513,1,12,1:2:0:0:
295,225,366588,1,0,1:0:0:0:
335,259,366663,1,0,1:0:0:0:
368,301,366738,1,0,1:0:0:0:
368,301,367113,5,4,1:2:0:0:
256,192,367188,12,4,375111,0:0:0:0:
