osu file format v14

[General]
AudioFilename: Disturbia.mp3
AudioLeadIn: 2007
PreviewTime: 47995
Countdown: 0
SampleSet: Normal
StackLeniency: 0.7
Mode: 0
LetterboxInBreaks: 1
StoryFireInFront: 0
EpilepsyWarning: 1
WidescreenStoryboard: 0

[Editor]
Bookmarks: 2081,17441,32801,48161,63521,78881,94241,109601,124961,140321,155681,171041,186401,201761,217121
DistanceSpacing: 1.5
BeatDivisor: 4
GridSize: 8
TimelineZoom: 1

[Metadata]
Title:Disturbia
TitleUnicode:Disturbia
Artist:Doofus-P
ArtistUnicode:Doofus-P
Creator:Aleksart
Version:Disturbia
Source:Vocaloid
Tags:Rihanna Hatsune Miku Hellzero OzzyOzrock
BeatmapID:1215388
BeatmapSetID:31806

[Difficulty]
HPDrainRate:7
CircleSize:4
OverallDifficulty:7
ApproachRate:8
SliderMultiplier:2
SliderTickRate:1

[Events]
//Background and Video events
0,0,"BG.jpg",0,0
//Break Periods
2,79081,93491
2,155881,170291
//Storyboard Layer 0 (Background)
//Storyboard Layer 1 (Fail)
//Storyboard Layer 2 (Pass)
//Storyboard Layer 3 (Foreground)
//Storyboard Sound Samples

[TimingPoints]
2081,480,4,1,1,70,1,0
2801,-100,4,1,1,60,0,0
5921,-100,4,1,1,70,0,0
6641,-100,4,1,1,60,0,0
9761,-100,4,1,1,70,0,0
10481,-100,4,1,1,60,0,0
13601,-100,4,1,1,70,0,0
14321,-100,4,1,1,60,0,0
17441,480,4,1,1,70,1,0
17681,-100,4,1,1,60,0,0
19601,-100,4,1,2,60,0,0
20081,-100,4,1,1,60,0,0
32801,-100,4,1,1,70,0,0
33041,-100,4,1,1,60,0,0
36641,-100,4,1,1,70,0,0
36881,-100,4,1,1,60,0,0
40481,-100,4,1,1,70,0,0
40721,-100,4,1,1,60,0,0
48161,-100,4,1,1,70,0,0
48401,-100,4,1,1,60,0,0
52001,-100,4,1,1,70,0,0
52121,-100,4,1,1,60,0,0
55841,-100,4,1,1,70,0,0
55961,-100,4,1,1,60,0,0
63521,-100,4,1,1,70,0,1
63761,-100,4,1,1,60,0,1
67361,-100,4,1,1,70,0,1
67601,-100,4,1,1,60,0,1
71201,-100,4,1,1,70,0,1
71441,-100,4,1,1,60,0,1
75041,-100,4,1,1,70,0,1
75281,-100,4,1,1,60,0,1
78881,-100,4,1,1,70,0,0
94241,-100,4,1,1,70,0,0
94481,-100,4,1,1,60,0,0
98081,-100,4,1,1,70,0,0
98321,-100,4,1,1,60,0,0
101921,-100,4,1,1,70,0,0
102161,-100,4,1,1,60,0,0
109601,-100,4,1,1,70,0,0
109841,-100,4,1,1,60,0,0
113441,-100,4,1,1,70,0,0
113681,-100,4,1,1,60,0,0
117281,-100,4,1,1,70,0,0
117521,-100,4,1,1,60,0,0
124961,-100,4,1,1,70,0,0
125201,-100,4,1,1,60,0,0
128801,-100,4,1,1,70,0,0
129041,-100,4,1,1,60,0,0
132641,-100,4,1,1,70,0,0
132881,-100,4,1,1,60,0,0
140321,-100,4,1,1,70,0,1
140561,-100,4,1,1,60,0,1
144161,-100,4,1,1,70,0,1
144401,-100,4,1,1,60,0,1
148001,-100,4,1,1,70,0,1
148241,-100,4,1,1,60,0,1
151841,-100,4,1,1,70,0,1
152081,-100,4,1,1,60,0,1
155681,-100,4,1,1,70,0,0
171041,-100,4,1,1,70,0,0
171281,-100,4,1,1,60,0,0
174881,-100,4,1,1,70,0,0
175121,-100,4,1,1,60,0,0
178721,-100,4,1,1,70,0,0
178961,-100,4,1,1,60,0,0
186401,-100,4,1,1,70,0,0
186641,-100,4,1,1,60,0,0
190241,-100,4,1,1,70,0,0
190481,-100,4,1,1,60,0,0
194081,-100,4,1,1,70,0,0
194201,-100,4,1,1,60,0,0
201761,-100,4,1,1,70,0,1
202001,-100,4,1,1,60,0,1
205601,-100,4,1,1,70,0,1
205841,-100,4,1,1,60,0,1
209441,-100,4,1,1,70,0,1
209681,-100,4,1,1,60,0,1
213281,-100,4,1,1,70,0,1
213521,-100,4,1,1,60,0,1
217121,-100,4,1,1,40,0,0

[Colours]
Combo1 : 255,11,255
Combo2 : 0,255,255
SliderBorder : 255,255,255

[HitObjects]
256,288,2081,6,8,B|256:56,1,200,4|4,0:0|0:0,0:0:0:0:
88,192,3041,1,2,0:0:0:0:
424,192,3281,1,0,0:0:0:0:
424,104,3521,2,0,B|336:152,1,100,2|0,0:0|0:0,0:0:0:0:
88,104,4001,2,0,B|176:152,1,100,2|0,0:0|0:0,0:0:0:0:
184,240,4481,2,0,B|96:328,1,100,2|0,0:0|0:0,0:0:0:0:
336,256,4961,2,0,B|440:320,1,100,2|0,0:0|0:0,0:0:0:0:
256,48,5441,1,2,0:0:0:0:
256,192,5921,5,4,0:0:0:0:
256,192,6401,1,4,0:0:0:0:
48,192,6881,2,0,B|120:296,1,100,2|0,0:0|0:0,0:0:0:0:
328,192,7361,2,0,B|256:88,1,100,2|0,0:0|0:0,0:0:0:0:
144,152,7841,2,0,B|216:256,1,100,2|0,0:0|0:0,0:0:0:0:
424,152,8321,2,0,B|352:48,1,100,2|0,0:0|0:0,0:0:0:0:
256,96,8801,1,2,0:0:0:0:
256,192,9041,1,0,0:0:0:0:
256,288,9281,1,2,0:0:0:0:
40,192,9761,5,4,0:0:0:0:
256,48,10241,1,4,0:0:0:0:
472,192,10721,1,2,0:0:0:0:
416,272,10961,1,0,0:0:0:0:
320,280,11201,1,2,0:0:0:0:
256,200,11441,1,0,0:0:0:0:
192,280,11681,1,2,0:0:0:0:
96,272,11921,1,0,0:0:0:0:
40,192,12161,1,2,0:0:0:0:
152,152,12401,2,0,B|216:72,1,100,0|2,0:0|0:0,0:0:0:0:
360,152,12881,2,0,B|296:72,1,100,0|2,0:0|0:0,0:0:0:0:
256,272,13601,6,0,B|256:72,2,200,4|4|2,0:0|0:0|0:0,0:0:0:0:
192,352,14801,1,0,0:0:0:0:
320,352,15041,1,2,0:0:0:0:
160,272,15281,1,0,0:0:0:0:
352,272,15521,1,2,0:0:0:0:
192,32,15761,5,0,0:0:0:0:
320,32,16001,1,2,0:0:0:0:
160,112,16241,1,0,0:0:0:0:
352,112,16481,1,2,0:0:0:0:
256,192,16721,5,2,0:0:0:0:
256,192,16841,1,0,0:0:0:0:
256,192,16961,1,2,0:0:0:0:
256,192,17441,5,4,0:0:0:0:
184,304,17681,2,0,B|112:232,2,100,0|8|0,0:0|0:0|0:0,0:0:0:0:
256,192,18401,1,2,0:0:0:0:
328,80,18641,2,0,B|400:152,2,100,0|8|0,0:0|0:0|0:0,0:0:0:0:
256,192,19361,1,2,0:0:0:0:
184,64,19601,1,0,0:0:0:0:
120,192,19841,1,8,0:0:0:0:
184,320,20081,1,0,0:0:0:0:
328,320,20321,1,2,0:0:0:0:
392,192,20561,1,0,0:0:0:0:
328,64,20801,1,8,0:0:0:0:
256,192,21041,5,8,0:0:0:0:
256,192,21161,1,8,0:0:0:0:
256,192,21281,1,4,0:0:0:0:
256,328,21521,5,0,0:0:0:0:
256,192,21761,1,8,0:0:0:0:
200,320,22001,2,0,B|144:320|104:280|104:280|144:240|112:192,1,200,2|0,0:0|0:0,0:0:0:0:
256,192,22721,1,8,0:0:0:0:
312,320,22961,2,0,B|368:320|408:280|408:280|368:240|400:192,1,200,2|0,0:0|0:0,0:0:0:0:
376,72,23681,5,8,0:0:0:0:
256,192,23921,1,0,0:0:0:0:
296,48,24161,1,2,0:0:0:0:
256,192,24401,1,0,0:0:0:0:
216,48,24641,1,8,0:0:0:0:
256,192,24881,1,2,0:0:0:0:
152,88,25121,1,4,0:0:0:0:
456,296,25361,6,0,B|400:296|400:296|392:288|392:288|336:288,1,100,0|8,0:0|0:0,0:0:0:0:
256,192,25841,1,8,0:0:0:0:
184,168,25961,1,0,0:0:0:0:
128,120,26081,1,2,0:0:0:0:
456,72,26321,6,0,B|400:72|400:72|392:80|392:80|336:80,1,100,0|8,0:0|0:0,0:0:0:0:
256,192,26801,1,8,0:0:0:0:
184,200,26921,1,0,0:0:0:0:
128,248,27041,1,2,0:0:0:0:
256,192,27281,5,0,0:0:0:0:
392,192,27521,1,8,0:0:0:0:
320,312,27761,1,0,0:0:0:0:
256,192,28001,1,2,0:0:0:0:
120,192,28241,5,0,0:0:0:0:
192,312,28481,1,8,0:0:0:0:
256,192,28721,1,0,0:0:0:0:
256,48,28961,1,4,0:0:0:0:
120,80,29201,6,0,B|40:160,1,100,0|8,0:0|0:0,0:0:0:0:
256,48,29681,2,0,B|256:148,1,100,0|8,0:0|0:0,0:0:0:0:
392,79,30161,2,0,B|462:150,1,100,0|8,0:0|0:0,0:0:0:0:
408,280,30641,5,8,0:0:0:0:
352,328,30761,1,0,0:0:0:0:
296,280,30881,1,8,0:0:0:0:
104,280,31121,1,8,0:0:0:0:
160,328,31241,1,0,0:0:0:0:
216,280,31361,1,8,0:0:0:0:
256,184,31601,5,8,0:0:0:0:
184,200,31721,1,0,0:0:0:0:
128,144,31841,1,8,0:0:0:0:
184,96,31961,1,0,0:0:0:0:
220,32,32081,1,8,0:0:0:0:
292,32,32201,5,0,0:0:0:0:
328,96,32321,1,8,0:0:0:0:
384,144,32441,1,0,0:0:0:0:
328,200,32561,1,8,0:0:0:0:
256,112,32801,5,4,0:0:0:0:
200,288,33041,6,0,B|96:240,2,100,0|8|0,0:0|0:0|0:0,0:0:0:0:
256,184,33761,1,2,0:0:0:0:
312,288,34001,2,0,B|416:240,2,100,0|8|0,0:0|0:0|0:0,0:0:0:0:
256,184,34721,1,2,0:0:0:0:
144,48,34961,6,0,B|64:128,1,100,0|8,0:0|0:0,0:0:0:0:
368,48,35441,2,0,B|448:128,1,100,0|0,0:0|0:0,0:0:0:0:
256,184,35921,1,0,0:0:0:0:
256,320,36161,1,8,0:0:0:0:
256,320,36401,1,0,0:0:0:0:
256,48,36641,5,4,0:0:0:0:
96,192,36881,6,0,B|48:240,2,50,0|0|8,0:0|0:0|0:0,0:0:0:0:
176,320,37361,1,0,0:0:0:0:
336,320,37601,1,2,0:0:0:0:
416,192,37841,6,0,B|464:240,2,50,0|0|8,0:0|0:0|0:0,0:0:0:0:
256,192,38321,2,0,B|256:80,1,100,0|2,0:0|0:0,0:0:0:0:
112,48,38801,5,0,0:0:0:0:
152,112,38921,1,0,0:0:0:0:
152,184,39041,1,8,0:0:0:0:
400,48,39281,1,0,0:0:0:0:
360,112,39401,1,0,0:0:0:0:
360,184,39521,1,8,0:0:0:0:
256,296,39761,1,0,0:0:0:0:
256,224,39881,1,0,0:0:0:0:
256,152,40001,1,8,0:0:0:0:
152,184,40241,5,0,0:0:0:0:
360,184,40481,1,4,0:0:0:0:
256,296,40721,6,0,B|352:336,2,100,0|8|0,0:0|0:0|0:0,0:0:0:0:
200,240,41321,1,0,0:0:0:0:
184,312,41441,1,2,0:0:0:0:
163,49,41681,2,0,B|256:88,1,100
352,208,42161,6,0,B|248:208|248:136|128:136,1,200,0|0,0:0|0:0,0:0:0:0:
184,248,42881,1,8,0:0:0:0:
256,128,43121,1,0,0:0:0:0:
104,216,43361,1,2,0:0:0:0:
408,168,43841,1,8,0:0:0:0:
408,168,44081,1,0,0:0:0:0:
256,192,44321,5,2,0:0:0:0:
152,80,44561,1,0,0:0:0:0:
84,112,44681,1,0,0:0:0:0:
36,52,44801,1,8,0:0:0:0:
88,288,45041,5,0,0:0:0:0:
256,192,45281,1,2,0:0:0:0:
360,304,45521,1,0,0:0:0:0:
428,272,45641,1,0,0:0:0:0:
476,332,45761,1,8,0:0:0:0:
424,96,46001,5,0,0:0:0:0:
256,192,46241,1,2,0:0:0:0:
192,40,46481,1,0,0:0:0:0:
256,80,46601,1,0,0:0:0:0:
320,40,46721,1,8,0:0:0:0:
256,192,46961,12,8,47681,0:0:0:0:
72,192,48161,5,4,0:0:0:0:
256,336,48401,1,0,0:0:0:0:
440,192,48641,1,4,0:0:0:0:
256,48,48881,5,0,0:0:0:0:
256,120,49001,1,0,0:0:0:0:
256,192,49121,1,2,0:0:0:0:
160,280,49361,2,0,B|112:280|112:280|80:248|32:248,1,100,0|8,0:0|0:0,0:0:0:0:
352,104,49841,2,0,B|400:104|400:104|432:136|480:136,1,100,0|2,0:0|0:0,0:0:0:0:
160,104,50321,2,0,B|112:104|112:104|80:136|32:136,1,100,0|8,0:0|0:0,0:0:0:0:
352,280,50801,2,0,B|400:280|400:280|432:248|480:248,1,100,0|2,0:0|0:0,0:0:0:0:
256,48,51281,1,0,0:0:0:0:
220,112,51401,1,0,0:0:0:0:
292,112,51521,1,8,0:0:0:0:
256,344,51761,1,0,0:0:0:0:
152,232,52001,5,4,0:0:0:0:
208,280,52121,1,0,0:0:0:0:
256,224,52241,1,4,0:0:0:0:
304,280,52361,1,0,0:0:0:0:
360,232,52481,1,4,0:0:0:0:
220,112,52721,6,0,B|184:80|184:80|160:104|160:104|104:104,1,100,0|2,0:0|0:0,0:0:0:0:
292,112,53201,2,0,B|328:80|328:80|352:104|352:104|408:104,2,100,0|8|0,0:0|0:0|0:0,0:0:0:0:
168,192,53921,1,2,0:0:0:0:
256,336,54161,1,0,0:0:0:0:
256,144,54401,1,8,0:0:0:0:
256,336,54641,1,0,0:0:0:0:
344,192,54881,1,2,0:0:0:0:
160,56,55121,5,0,0:0:0:0:
352,56,55361,1,8,0:0:0:0:
256,336,55601,1,0,0:0:0:0:
344,192,55841,6,0,B|384:232,2,50,4|0|8,0:0|0:0|0:0,0:0:0:0:
168,192,56321,2,0,B|128:232,2,50,4|0|8,0:0|0:0|0:0,0:0:0:0:
256,72,56801,5,2,0:0:0:0:
344,192,57041,1,0,0:0:0:0:
408,328,57281,1,8,0:0:0:0:
256,344,57521,1,0,0:0:0:0:
104,328,57761,1,2,0:0:0:0:
168,192,58001,1,0,0:0:0:0:
256,72,58241,1,8,0:0:0:0:
344,192,58481,5,0,0:0:0:0:
408,232,58601,1,0,0:0:0:0:
472,192,58721,1,8,0:0:0:0:
168,192,58961,1,0,0:0:0:0:
104,232,59081,1,0,0:0:0:0:
40,192,59201,1,8,0:0:0:0:
104,56,59441,5,0,0:0:0:0:
256,192,59681,1,2,0:0:0:0:
408,56,59921,1,0,0:0:0:0:
320,96,60161,5,8,0:0:0:0:
256,192,60401,1,0,0:0:0:0:
192,96,60641,1,2,0:0:0:0:
112,152,60881,5,0,0:0:0:0:
256,296,61121,1,8,0:0:0:0:
400,152,61361,1,0,0:0:0:0:
256,192,61601,12,4,63521,0:0:0:0:
256,192,63761,5,0,0:0:0:0:
256,192,63881,1,0,0:0:0:0:
256,192,64001,1,8,0:0:0:0:
256,40,64241,5,0,0:0:0:0:
120,96,64481,6,0,B|72:184,1,100,2|0,0:0|0:0,0:0:0:0:
392,96,64961,2,0,B|440:184,1,100,8|0,0:0|0:0,0:0:0:0:
176,296,65441,2,0,B|144:184,1,100,2|0,0:0|0:0,0:0:0:0:
336,296,65921,2,0,B|368:184,1,100,8|0,0:0|0:0,0:0:0:0:
256,48,66401,5,8,0:0:0:0:
256,120,66521,1,0,0:0:0:0:
256,192,66641,1,8,0:0:0:0:
256,264,66761,1,0,0:0:0:0:
256,336,66881,1,8,0:0:0:0:
128,192,67121,5,0,0:0:0:0:
384,192,67361,1,4,0:0:0:0:
344,96,67601,5,0,0:0:0:0:
344,96,67721,1,0,0:0:0:0:
344,96,67841,1,8,0:0:0:0:
384,240,68081,2,0,B|416:352,2,100,0|2|0,0:0|0:0|0:0,0:0:0:0:
256,320,68801,5,8,0:0:0:0:
176,192,69041,1,0,0:0:0:0:
256,64,69281,1,2,0:0:0:0:
336,136,69521,1,0,0:0:0:0:
400,96,69641,1,0,0:0:0:0:
408,168,69761,1,8,0:0:0:0:
304,280,70001,2,0,B|256:272|256:272|200:280,1,100,0|2,0:0|0:0,0:0:0:0:
104,168,70481,1,0,0:0:0:0:
112,96,70601,1,0,0:0:0:0:
176,136,70721,1,8,0:0:0:0:
256,192,70961,5,0,0:0:0:0:
256,192,71201,1,4,0:0:0:0:
64,272,71441,5,0,0:0:0:0:
128,304,71561,1,0,0:0:0:0:
200,304,71681,1,8,0:0:0:0:
256,192,71921,1,0,0:0:0:0:
256,40,72161,5,2,0:0:0:0:
448,272,72401,5,0,0:0:0:0:
384,304,72521,1,0,0:0:0:0:
312,304,72641,1,8,0:0:0:0:
344,160,72881,6,0,B|432:88,2,100,0|2|0,0:0|0:0|0:0,0:0:0:0:
168,160,73601,2,0,B|80:88,2,100,8|0|0,0:0|0:0|0:0,0:0:0:0:
256,336,74321,5,8,0:0:0:0:
256,264,74441,1,0,0:0:0:0:
256,192,74561,1,8,0:0:0:0:
256,120,74681,1,0,0:0:0:0:
256,48,74801,1,8,0:0:0:0:
144,192,75041,5,4,0:0:0:0:
256,336,75281,1,4,0:0:0:0:
368,192,75521,1,4,0:0:0:0:
256,48,75761,5,8,0:0:0:0:
256,120,75881,1,0,0:0:0:0:
256,192,76001,1,8,0:0:0:0:
136,288,76241,1,0,0:0:0:0:
256,192,76481,1,8,0:0:0:0:
376,288,76721,1,0,0:0:0:0:
256,192,76961,12,4,78881,0:0:0:0:
80,72,94241,5,4,0:0:0:0:
168,192,94481,2,0,B|224:88,1,100,0|8,0:0|0:0,0:0:0:0:
344,192,94961,2,0,B|288:88,1,100,0|2,0:0|0:0,0:0:0:0:
432,72,95441,1,0,0:0:0:0:
344,192,95681,1,8,0:0:0:0:
256,312,95921,5,0,0:0:0:0:
256,312,96041,1,0,0:0:0:0:
256,312,96161,1,2,0:0:0:0:
168,192,96401,1,0,0:0:0:0:
80,72,96641,1,8,0:0:0:0:
64,224,96881,5,0,0:0:0:0:
256,48,97121,1,2,0:0:0:0:
448,224,97361,1,0,0:0:0:0:
256,312,97601,1,8,0:0:0:0:
168,192,97841,5,0,0:0:0:0:
344,192,98081,1,4,0:0:0:0:
256,48,98321,6,0,B|256:136,2,50,0|0|8,0:0|0:0|0:0,0:0:0:0:
136,136,98801,1,0,0:0:0:0:
104,280,99041,1,2,0:0:0:0:
256,192,99281,1,0,0:0:0:0:
256,344,99521,5,8,0:0:0:0:
376,136,99761,1,0,0:0:0:0:
408,280,100001,1,2,0:0:0:0:
144,280,100241,6,0,B|96:224,2,50,0|0|8,0:0|0:0|0:0,0:0:0:0:
368,280,100721,2,0,B|416:224,2,50,0|0|8,0:0|0:0|0:0,0:0:0:0:
256,264,101201,5,0,0:0:0:0:
256,192,101321,1,0,0:0:0:0:
256,120,101441,1,8,0:0:0:0:
176,40,101681,1,0,0:0:0:0:
336,40,101921,1,4,0:0:0:0:
256,192,102161,5,0,0:0:0:0:
152,240,102401,2,0,B|80:144,1,100,8|0,0:0|0:0,0:0:0:0:
360,240,102881,2,0,B|432:144,1,100,2|0,0:0|0:0,0:0:0:0:
400,88,103241,1,0,0:0:0:0:
328,64,103361,1,8,0:0:0:0:
256,192,103601,5,0,0:0:0:0:
112,160,103841,6,0,B|200:72,1,100,2|0,0:0|0:0,0:0:0:0:
400,224,104321,2,0,B|312:312,1,100,8|0,0:0|0:0,0:0:0:0:
112,224,104801,2,0,B|182:294,1,100,2|0,0:0|0:0,0:0:0:0:
400,160,105281,2,0,B|329:89,1,100,8|0,0:0|0:0,0:0:0:0:
256,192,105761,5,2,0:0:0:0:
256,176,106241,1,8,0:0:0:0:
256,160,106721,1,2,0:0:0:0:
256,144,107201,5,8,0:0:0:0:
256,128,107441,1,2,0:0:0:0:
256,112,107921,5,2,0:0:0:0:
256,192,108401,12,4,109601,0:0:0:0:
64,72,109841,5,0,0:0:0:0:
160,192,110081,1,8,0:0:0:0:
256,72,110321,2,0,B|336:72|336:72|336:160|440:160,1,200
416,80,110921,1,0,0:0:0:0:
416,80,111041,1,8,0:0:0:0:
256,312,111281,2,0,B|176:312|176:312|176:224|72:224,1,200
96,304,111881,1,0,0:0:0:0:
96,304,112001,1,8,0:0:0:0:
256,192,112241,5,0,0:0:0:0:
256,192,112481,1,2,0:0:0:0:
256,192,112721,1,0,0:0:0:0:
176,88,112961,1,8,0:0:0:0:
328,88,113201,1,0,0:0:0:0:
256,336,113441,1,4,0:0:0:0:
56,192,113681,5,0,0:0:0:0:
120,224,113801,1,0,0:0:0:0:
192,232,113921,1,8,0:0:0:0:
256,88,114161,2,0,B|256:216,1,100,0|2,0:0|0:0,0:0:0:0:
456,192,114641,1,0,0:0:0:0:
392,224,114761,1,0,0:0:0:0:
320,232,114881,1,8,0:0:0:0:
256,88,115121,1,0,0:0:0:0:
152,32,115361,5,2,0:0:0:0:
152,192,115601,1,0,0:0:0:0:
360,32,115841,1,8,0:0:0:0:
360,192,116081,1,0,0:0:0:0:
256,192,116321,1,2,0:0:0:0:
152,352,116561,1,0,0:0:0:0:
360,352,116801,1,8,0:0:0:0:
152,192,117041,1,0,0:0:0:0:
360,192,117281,1,6,0:0:0:0:
256,344,117521,6,0,B|256:208,1,100,0|8,0:0|0:0,0:0:0:0:
160,128,118001,2,0,B|216:128|256:104|256:104|296:128|376:128,1,200
416,264,118721,1,8,0:0:0:0:
256,344,118961,1,0,0:0:0:0:
96,264,119201,1,2,0:0:0:0:
160,128,119441,5,0,0:0:0:0:
256,344,119681,1,8,0:0:0:0:
256,112,119921,1,0,0:0:0:0:
256,344,120161,1,2,0:0:0:0:
352,128,120401,1,0,0:0:0:0:
256,344,120641,1,8,0:0:0:0:
256,184,120881,5,8,0:0:0:0:
256,112,121001,1,0,0:0:0:0:
256,40,121121,1,8,0:0:0:0:
408,192,121361,1,8,0:0:0:0:
464,240,121481,1,0,0:0:0:0:
464,312,121601,1,8,0:0:0:0:
104,192,121841,1,8,0:0:0:0:
48,240,121961,1,0,0:0:0:0:
48,312,122081,1,8,0:0:0:0:
256,284,122321,5,8,0:0:0:0:
256,284,122441,1,0,0:0:0:0:
256,284,122561,2,0,B|256:184,1,100,8|0,0:0|0:0,0:0:0:0:
160,128,123041,2,0,B|216:128|256:104|256:104|296:128|376:128,1,200,2|8,0:0|0:0,0:0:0:0:
256,192,123761,12,8,124481,0:0:0:0:
256,40,124961,5,4,0:0:0:0:
256,200,125201,1,4,0:0:0:0:
256,344,125441,1,4,0:0:0:0:
128,272,125681,6,0,B|56:176,1,100,0|2,0:0|0:0,0:0:0:0:
384,112,126161,2,0,B|456:208,1,100,0|10,0:0|0:0,0:0:0:0:
312,288,126641,1,0,0:0:0:0:
256,336,126761,1,0,0:0:0:0:
200,288,126881,1,8,0:0:0:0:
200,96,127121,1,0,0:0:0:0:
256,48,127241,1,0,0:0:0:0:
312,96,127361,1,8,0:0:0:0:
376,192,127601,5,0,0:0:0:0:
256,192,127841,1,8,0:0:0:0:
136,192,128081,1,0,0:0:0:0:
176,328,128321,1,0,0:0:0:0:
336,328,128561,1,0,0:0:0:0:
256,80,128801,5,4,0:0:0:0:
152,264,129041,1,4,0:0:0:0:
360,264,129281,1,4,0:0:0:0:
256,192,129521,5,0,0:0:0:0:
256,192,129641,1,0,0:0:0:0:
256,192,129761,1,2,0:0:0:0:
136,104,130001,5,0,0:0:0:0:
72,240,130241,1,8,0:0:0:0:
256,344,130481,1,0,0:0:0:0:
256,192,130721,1,2,0:0:0:0:
376,104,130961,1,0,0:0:0:0:
440,240,131201,1,8,0:0:0:0:
376,104,131441,2,0,B|448:48,2,50,0|0|2,0:0|0:0|0:0,0:0:0:0:
256,328,131921,1,0,0:0:0:0:
136,104,132161,2,0,B|64:48,2,50,8|0|0,0:0|0:0|0:0,0:0:0:0:
256,120,132641,5,4,0:0:0:0:
192,168,132761,1,0,0:0:0:0:
216,240,132881,1,4,0:0:0:0:
296,240,133001,1,0,0:0:0:0:
320,168,133121,1,4,0:0:0:0:
64,296,133361,5,0,0:0:0:0:
144,64,133601,1,0,0:0:0:0:
64,296,133841,1,0,0:0:0:0:
128,264,133961,1,0,0:0:0:0:
192,296,134081,1,8,0:0:0:0:
448,296,134321,5,0,0:0:0:0:
368,64,134561,1,0,0:0:0:0:
448,296,134801,1,0,0:0:0:0:
384,264,134921,1,0,0:0:0:0:
320,296,135041,1,8,0:0:0:0:
256,192,135281,1,0,0:0:0:0:
144,320,135521,2,0,B|96:208,1,100,2|0,0:0|0:0,0:0:0:0:
368,64,136001,2,0,B|416:176,1,100,8|0,0:0|0:0,0:0:0:0:
256,192,136481,5,2,0:0:0:0:
192,96,136721,1,0,0:0:0:0:
320,288,136961,1,8,0:0:0:0:
304,64,137201,1,0,0:0:0:0:
208,320,137441,1,2,0:0:0:0:
160,208,137681,1,0,0:0:0:0:
384,152,137921,1,8,0:0:0:0:
256,192,138161,5,0,0:0:0:0:
256,192,138401,12,4,140321,0:0:0:0:
256,192,140561,5,0,0:0:0:0:
256,192,140681,1,0,0:0:0:0:
256,192,140801,1,8,0:0:0:0:
344,248,141041,1,0,0:0:0:0:
168,248,141281,1,2,0:0:0:0:
256,192,141521,6,0,B|184:176|184:176|160:128,1,100,0|8,0:0|0:0,0:0:0:0:
88,272,142001,1,0,0:0:0:0:
256,192,142241,2,0,B|328:176|328:176|352:128,1,100,2|0,0:0|0:0,0:0:0:0:
424,272,142721,1,8,0:0:0:0:
256,344,142961,1,0,0:0:0:0:
256,192,143201,1,2,0:0:0:0:
256,40,143441,1,0,0:0:0:0:
88,136,143681,1,8,0:0:0:0:
40,192,143801,1,0,0:0:0:0:
88,248,143921,1,8,0:0:0:0:
256,192,144161,5,4,0:0:0:0:
336,120,144401,1,0,0:0:0:0:
336,192,144521,1,0,0:0:0:0:
336,264,144641,1,8,0:0:0:0:
256,344,144881,1,2,0:0:0:0:
256,40,145121,1,0,0:0:0:0:
176,120,145361,1,0,0:0:0:0:
176,192,145481,1,0,0:0:0:0:
176,264,145601,1,8,0:0:0:0:
256,344,145841,1,0,0:0:0:0:
256,40,146081,1,2,0:0:0:0:
384,112,146321,6,0,B|432:72,2,50,0|0|8,0:0|0:0|0:0,0:0:0:0:
256,344,146801,2,0,B|160:248,1,100,0|2,0:0|0:0,0:0:0:0:
384,272,147281,2,0,B|432:312,2,50,0|0|8,0:0|0:0|0:0,0:0:0:0:
256,40,147761,1,0,0:0:0:0:
128,272,148001,5,4,0:0:0:0:
384,272,148241,1,4,0:0:0:0:
256,40,148481,1,4,0:0:0:0:
160,192,148721,5,0,0:0:0:0:
160,192,148841,1,0,0:0:0:0:
160,192,148961,1,2,0:0:0:0:
256,288,149201,1,0,0:0:0:0:
256,136,149441,1,8,0:0:0:0:
256,288,149681,1,0,0:0:0:0:
352,192,149921,2,0,B|296:200|296:200|256:224|216:200|216:200|152:192,1,200,2|8,0:0|0:0,0:0:0:0:
56,304,150641,1,0,0:0:0:0:
128,320,150761,1,0,0:0:0:0:
184,272,150881,1,2,0:0:0:0:
256,48,151121,1,0,0:0:0:0:
256,288,151361,1,8,0:0:0:0:
456,304,151601,1,0,0:0:0:0:
384,320,151721,1,0,0:0:0:0:
328,272,151841,5,6,0:0:0:0:
256,48,152081,1,4,0:0:0:0:
184,272,152321,1,4,0:0:0:0:
184,104,152561,5,0,0:0:0:0:
256,128,152681,1,0,0:0:0:0:
328,104,152801,1,2,0:0:0:0:
328,272,153041,2,0,B|424:224,1,100,0|8,0:0|0:0,0:0:0:0:
184,272,153521,2,0,B|88:224,1,100,0|2,0:0|0:0,0:0:0:0:
256,128,154001,1,0,0:0:0:0:
256,200,154121,1,0,0:0:0:0:
256,272,154241,1,8,0:0:0:0:
256,192,154361,12,4,155681,0:0:0:0:
256,192,171041,5,4,0:0:0:0:
256,296,171521,6,0,B|128:288,1,100,8|0,0:0|0:0,0:0:0:0:
104,200,172001,1,2,0:0:0:0:
176,128,172241,1,0,0:0:0:0:
256,192,172481,2,0,B|256:48,2,100,8|0|2,0:0|0:0|0:0,0:0:0:0:
336,128,173201,1,0,0:0:0:0:
408,200,173441,1,8,0:0:0:0:
360,288,173681,5,0,0:0:0:0:
328,320,173801,1,0,0:0:0:0:
280,344,173921,1,2,0:0:0:0:
232,344,174041,1,2,0:0:0:0:
184,320,174161,1,2,0:0:0:0:
152,288,174281,1,0,0:0:0:0:
184,248,174401,1,10,0:0:0:0:
232,224,174521,1,2,0:0:0:0:
280,224,174641,1,2,0:0:0:0:
328,248,174761,1,0,0:0:0:0:
360,288,174881,1,4,0:0:0:0:
256,48,175361,6,0,B|256:168,1,100,8|0,0:0|0:0,0:0:0:0:
176,192,175841,2,0,B|136:192|136:192|136:232|96:272,1,100,2|0,0:0|0:0,0:0:0:0:
336,192,176321,2,0,B|376:192|376:192|376:232|416:272,1,100,8|0,0:0|0:0,0:0:0:0:
408,320,176801,1,2,0:0:0:0:
256,272,177041,1,0,0:0:0:0:
256,224,177161,1,0,0:0:0:0:
256,176,177281,1,8,0:0:0:0:
104,224,177521,5,0,0:0:0:0:
104,320,177761,1,2,0:0:0:0:
256,176,178001,1,0,0:0:0:0:
408,320,178241,1,8,0:0:0:0:
408,224,178481,5,4,0:0:0:0:
104,224,178721,1,4,0:0:0:0:
256,76,179201,6,0,B|256:176,1,100,8|0,0:0|0:0,0:0:0:0:
72,104,179681,2,0,B|184:160,1,100,2|0,0:0|0:0,0:0:0:0:
440,104,180161,2,0,B|328:160,1,100,8|0,0:0|0:0,0:0:0:0:
360,248,180641,1,2,0:0:0:0:
336,344,180881,1,0,0:0:0:0:
256,192,181121,1,8,0:0:0:0:
176,344,181361,1,0,0:0:0:0:
152,248,181601,1,2,0:0:0:0:
168,152,181841,6,0,B|120:63,1,100,0|8,0:0|0:0,0:0:0:0:
256,192,182321,2,0,B|256:88,1,100,0|2,0:0|0:0,0:0:0:0:
344,152,182801,2,0,B|391:63,1,100,0|8,0:0|0:0,0:0:0:0:
416,296,183281,5,0,0:0:0:0:
256,192,183521,1,2,0:0:0:0:
96,296,183761,1,0,0:0:0:0:
72,64,184001,2,0,B|136:160,1,100,8|0,0:0|0:0,0:0:0:0:
440,64,184481,2,0,B|376:160,1,100,2|0,0:0|0:0,0:0:0:0:
256,336,184961,1,8,0:0:0:0:
256,192,185201,1,0,0:0:0:0:
256,48,185441,1,2,0:0:0:0:
72,64,185681,5,2,0:0:0:0:
256,192,185921,1,10,0:0:0:0:
440,64,186161,1,2,0:0:0:0:
440,64,186401,5,4,0:0:0:0:
256,336,186641,1,4,0:0:0:0:
72,64,186881,1,4,0:0:0:0:
144,192,187121,6,0,B|40:272,1,100,0|2,0:0|0:0,0:0:0:0:
368,192,187601,2,0,B|472:272,1,100,0|8,0:0|0:0,0:0:0:0:
256,336,188081,1,0,0:0:0:0:
144,192,188321,1,2,0:0:0:0:
368,192,188561,1,0,0:0:0:0:
256,336,188801,1,8,0:0:0:0:
56,88,189041,1,0,0:0:0:0:
456,88,189281,1,2,0:0:0:0:
256,336,189521,1,0,0:0:0:0:
256,192,189761,1,8,0:0:0:0:
256,40,190001,1,0,0:0:0:0:
48,344,190241,5,4,0:0:0:0:
256,40,190481,1,4,0:0:0:0:
464,344,190721,1,4,0:0:0:0:
256,192,190961,5,0,0:0:0:0:
256,344,191201,1,2,0:0:0:0:
120,280,191441,1,0,0:0:0:0:
72,224,191561,1,0,0:0:0:0:
56,152,191681,1,8,0:0:0:0:
256,192,191921,1,0,0:0:0:0:
56,152,192161,1,2,0:0:0:0:
392,280,192401,1,0,0:0:0:0:
440,224,192521,1,0,0:0:0:0:
456,152,192641,1,8,0:0:0:0:
256,192,192881,1,0,0:0:0:0:
456,152,193121,1,2,0:0:0:0:
392,280,193361,5,0,0:0:0:0:
256,192,193601,1,8,0:0:0:0:
120,280,193841,1,0,0:0:0:0:
144,128,194081,5,4,0:0:0:0:
216,104,194201,1,0,0:0:0:0:
256,40,194321,1,4,0:0:0:0:
296,104,194441,1,0,0:0:0:0:
368,128,194561,1,4,0:0:0:0:
256,344,194801,5,0,0:0:0:0:
256,192,195041,1,2,0:0:0:0:
120,280,195281,1,0,0:0:0:0:
32,160,195521,2,0,B|96:64,1,100,8|0,0:0|0:0,0:0:0:0:
480,160,196001,2,0,B|416:64,1,100,2|0,0:0|0:0,0:0:0:0:
120,280,196481,2,0,B|40:352,1,100
392,280,196961,2,0,B|472:352,1,100,2|0,0:0|0:0,0:0:0:0:
256,192,197441,5,8,0:0:0:0:
384,112,197681,1,0,0:0:0:0:
256,32,197921,1,2,0:0:0:0:
128,112,198161,1,0,0:0:0:0:
392,280,198401,5,8,0:0:0:0:
384,112,198641,1,0,0:0:0:0:
128,112,198881,1,2,0:0:0:0:
120,280,199121,1,0,0:0:0:0:
464,192,199361,5,8,0:0:0:0:
256,32,199601,1,0,0:0:0:0:
48,192,199841,1,2,0:0:0:0:
256,352,200081,1,0,0:0:0:0:
256,192,200321,5,8,0:0:0:0:
256,192,200441,12,4,201761,0:0:0:0:
256,192,202001,5,0,0:0:0:0:
256,192,202121,1,0,0:0:0:0:
256,192,202241,1,8,0:0:0:0:
204,332,202481,6,0,B|324:332,1,100,0|2,0:0|0:0,0:0:0:0:
416,232,202961,1,0,0:0:0:0:
440,160,203081,1,0,0:0:0:0:
440,88,203201,1,8,0:0:0:0:
256,192,203441,1,0,0:0:0:0:
256,192,203681,1,0,0:0:0:0:
96,232,203921,1,0,0:0:0:0:
72,160,204041,1,0,0:0:0:0:
72,88,204161,1,8,0:0:0:0:
256,40,204401,5,0,0:0:0:0:
144,192,204641,1,2,0:0:0:0:
368,192,204881,1,0,0:0:0:0:
440,88,205121,1,8,0:0:0:0:
72,88,205361,1,0,0:0:0:0:
40,344,205601,5,4,0:0:0:0:
256,40,205841,1,4,0:0:0:0:
472,344,206081,1,4,0:0:0:0:
256,192,206321,5,0,0:0:0:0:
72,88,206561,2,0,B|112:192,1,100,2|0,0:0|0:0,0:0:0:0:
440,88,207041,2,0,B|400:192,1,100,8|0,0:0|0:0,0:0:0:0:
256,192,207521,2,0,B|200:304|200:304|200:224|136:216,1,200,2|8,0:0|0:0,0:0:0:0:
256,192,208241,2,0,B|312:304|312:304|312:224|376:216,1,200,2|0,0:0|0:0,0:0:0:0:
256,48,208961,1,8,0:0:0:0:
256,48,209081,1,0,0:0:0:0:
256,48,209201,1,0,0:0:0:0:
256,192,209441,5,4,0:0:0:0:
112,192,209681,1,4,0:0:0:0:
400,192,209921,1,4,0:0:0:0:
256,336,210161,5,0,0:0:0:0:
256,336,210281,1,0,0:0:0:0:
256,336,210401,1,2,0:0:0:0:
120,272,210641,1,0,0:0:0:0:
168,128,210881,1,8,0:0:0:0:
344,128,211121,1,0,0:0:0:0:
392,272,211361,1,2,0:0:0:0:
256,192,211841,5,8,0:0:0:0:
120,272,212081,2,0,B|104:160,1,100,0|2,0:0|0:0,0:0:0:0:
392,272,212561,2,0,B|408:160,1,100,0|8,0:0|0:0,0:0:0:0:
256,192,213041,1,0,0:0:0:0:
256,40,213281,5,4,0:0:0:0:
352,192,213521,1,4,0:0:0:0:
160,192,213761,1,4,0:0:0:0:
256,192,214001,6,0,B|256:304,2,100,0|2|0,0:0|0:0|0:0,0:0:0:0:
144,272,214721,1,8,0:0:0:0:
368,272,214961,1,0,0:0:0:0:
256,40,215201,5,4,0:0:0:0:
128,344,215441,1,4,0:0:0:0:
392,344,215681,1,4,0:0:0:0:
256,192,215801,12,4,217121,0:0:0:0:
