osu file format v14

[General]
AudioFilename: audio.mp3
AudioLeadIn: 2500
PreviewTime: 128718
Countdown: 0
SampleSet: Soft
StackLeniency: 0.7
Mode: 3
LetterboxInBreaks: 0
EpilepsyWarning: 1
SpecialStyle: 1
WidescreenStoryboard: 1

[Editor]
Bookmarks: 91161,91619,219405
DistanceSpacing: 1
BeatDivisor: 4
GridSize: 8
TimelineZoom: 0.9999998

[Metadata]
Title:Platinum Jet
TitleUnicode:プラチナジェット
Artist:Donuts Quintet
ArtistUnicode:どーなつ◎くいんてっと
Creator:Acnos
Version:Midori [NM]
Source:SHIROBAKO
Tags:Juri Kimura 木村珠莉 Haruka Yoshimura 佳村はるか Haruka Chisuga 千菅春香 Asami Takano 髙野麻美 Hitomi Ohwada 大和田仁美 Halko Momoi 桃井はるこ Takeshi Watanabe 渡辺剛 シロバコ White Box Ending ED Anime Ne Lunar jyu AlpacaCokelat
BeatmapID:1341533
BeatmapSetID:542662

[Difficulty]
HPDrainRate:7
CircleSize:4
OverallDifficulty:7
ApproachRate:3
SliderMultiplier:1.4
SliderTickRate:1

[Events]
//Background and Video events
0,0,"BG-Midori.jpg",0,0
//Break Periods
//Storyboard Layer 0 (Background)
Sprite,Background,Centre,"BG-Midori.jpg",320,240 F,0,-2500,,0
//Storyboard Layer 1 (Fail)
//Storyboard Layer 2 (Pass)
//Storyboard Layer 3 (Foreground)
//Storyboard Sound Samples

[TimingPoints]
474,458.015267175573,4,2,2,20,1,0
7802,-100,4,2,1,30,0,0
13298,-100,4,2,1,35,0,0
15130,-100,4,2,1,30,0,0
20397,-100,4,2,1,37,0,0
20855,-100,4,2,1,35,0,0
21313,-100,4,2,1,36,0,0
22458,-100,4,2,1,32,0,0
35054,-100,4,2,1,32,0,0
35970,-100,4,2,1,40,0,0
37115,-100,4,2,1,40,0,0
44442,-100,4,2,1,35,0,0
51771,-100,4,2,1,40,0,1
77420,-100,4,2,1,35,0,0
82916,-100,4,2,2,35,0,0
83832,-100,4,3,1,35,0,0
84061,-100,4,2,2,30,0,0
84290,-100,4,2,2,30,0,0
84748,-100,4,2,1,30,0,0
90244,-100,4,2,1,35,0,0
92077,-100,4,2,1,30,0,0
97115,-100,4,2,1,37,0,0
97344,-100,4,2,1,37,0,0
98031,-100,4,2,1,35,0,0
99176,-100,4,2,1,32,0,0
99405,-100,4,2,1,32,0,0
112000,-100,4,2,1,32,0,0
112916,-100,4,2,1,40,0,0
114061,-100,4,2,1,40,0,0
121390,-100,4,2,1,40,0,0
128718,-100,4,2,1,40,0,1
154367,-100,4,2,1,30,0,0
159863,-100,4,2,2,20,0,0
165130,-100,4,2,1,30,0,0
166275,-100,4,2,1,35,0,0
167191,-100,4,2,1,40,0,0
180015,-100,4,2,2,40,0,0
189176,-100,4,2,1,10,0,0
196504,-100,4,2,1,20,0,0
200168,-100,4,2,1,20,0,0
202000,-100,4,2,1,40,0,0
203832,-100,4,2,1,50,0,1
214825,-100,4,2,2,30,0,1
220321,-100,4,2,2,30,0,0
223985,-100,4,2,1,30,0,0
236580,-100,4,2,1,30,0,0
238641,-100,4,2,1,30,0,0
245741,-100,4,2,1,10,0,0

[Colours]
Combo1 : 122,99,142
Combo2 : 233,192,71
Combo3 : 73,144,190
Combo4 : 211,82,145
Combo5 : 170,194,92

[HitObjects]
192,192,474,5,0,0:0:0:15:soft-hitwhistle2.wav
448,192,474,1,0,0:0:0:70:soft-hitfinish2.wav
320,192,703,1,0,0:0:0:0:
192,192,932,1,0,0:0:0:15:soft-hitwhistle2.wav
320,192,1161,1,0,0:0:0:15:soft-hitwhistle2.wav
64,192,1161,1,0,0:0:0:0:
192,192,1619,1,0,0:0:0:15:soft-hitwhistle2.wav
320,192,1848,1,0,0:0:0:15:soft-hitwhistle2.wav
64,192,2077,1,0,0:0:0:15:soft-hitwhistle2.wav
448,192,2306,1,0,0:0:0:20:soft-hitwhistle2.wav
192,192,2306,1,0,0:0:0:0:
64,192,2535,1,0,0:0:0:15:soft-hitwhistle2.wav
448,192,2764,1,0,0:0:0:15:soft-hitwhistle2.wav
320,192,2993,1,0,0:0:0:15:soft-hitwhistle2.wav
64,192,2993,1,0,0:0:0:0:
320,192,3451,1,0,0:0:0:15:soft-hitwhistle2.wav
448,192,3680,1,0,0:0:0:15:soft-hitwhistle2.wav
192,192,3680,1,0,0:0:0:0:
320,192,4138,1,0,0:0:0:15:soft-hitwhistle2.wav
64,192,4138,1,0,0:0:0:30:soft-hitclap2.wav
448,192,4596,1,0,0:0:0:30:soft-hitclap2.wav
192,192,4596,1,0,0:0:0:0:
320,192,5054,1,0,0:0:0:30:soft-hitclap2.wav
192,192,5054,1,0,0:0:0:0:
64,192,5512,1,0,0:0:0:30:soft-hitclap2.wav
448,192,5512,1,0,0:0:0:0:
192,192,5970,1,0,0:0:0:30:soft-hitclap2.wav
448,192,5970,1,0,0:0:0:0:
64,192,6199,1,0,0:0:0:0:
448,192,6428,1,0,0:0:0:30:soft-hitclap2.wav
192,192,6428,1,0,0:0:0:0:
192,192,6771,1,0,0:0:0:70:blank.wav
320,192,6771,1,0,0:0:0:0:
320,192,7115,128,0,7344:0:0:0:40:kick DBS.wav
64,192,7344,128,0,7802:0:0:0:40:soft-hitfinish2.wav
448,192,7802,1,0,0:0:0:30:soft-hitwhistle.wav
448,192,8031,1,0,0:0:0:30:soft-hitwhistle.wav
192,192,8260,1,0,0:0:0:30:soft-hitclap.wav
192,192,8489,1,0,0:0:0:30:soft-hitwhistle.wav
64,192,8718,128,0,9176:0:0:0:30:soft-hitwhistle.wav
448,192,9176,1,0,0:0:0:30:soft-hitclap.wav
192,192,9405,1,0,0:0:0:30:soft-hitwhistle.wav
192,192,9863,1,0,0:0:0:30:soft-hitwhistle.wav
320,192,10092,1,0,0:0:0:30:soft-hitclap.wav
448,192,10321,1,0,0:0:0:30:soft-hitwhistle.wav
192,192,10550,128,0,11008:0:0:0:30:soft-hitwhistle.wav
448,192,11008,1,0,0:0:0:30:soft-hitclap.wav
192,192,11466,1,0,0:0:0:30:soft-hitwhistle.wav
192,192,11695,1,0,0:0:0:30:soft-hitwhistle.wav
448,192,11924,1,0,0:0:0:30:soft-hitclap.wav
448,192,12153,1,0,0:0:0:30:soft-hitwhistle.wav
320,192,12382,128,0,12840:0:0:0:30:soft-hitwhistle.wav
192,192,12840,1,0,0:0:0:30:soft-hitclap.wav
448,192,13069,1,0,0:0:0:30:soft-hitwhistle.wav
448,192,13527,1,0,0:0:0:30:soft-hitwhistle.wav
192,192,13985,1,0,0:0:0:30:soft-hitwhistle.wav
192,192,14443,1,0,0:0:0:30:soft-hitwhistle.wav
320,192,14672,1,0,0:0:0:40:soft-hitclap.wav
64,192,14901,1,0,0:0:0:30:soft-hitwhistle.wav
192,192,15130,1,0,0:0:0:30:soft-hitfinish.wav
320,192,15130,1,0,0:0:0:0:
192,192,15359,1,0,0:0:0:30:soft-hitwhistle.wav
448,192,15588,1,0,0:0:0:30:soft-hitclap.wav
448,192,15817,1,0,0:0:0:30:soft-hitwhistle.wav
192,192,16046,128,0,16504:0:0:0:30:soft-hitwhistle.wav
320,192,16504,1,0,0:0:0:30:soft-hitclap.wav
448,192,16733,1,0,0:0:0:30:soft-hitwhistle.wav
448,192,17191,1,0,0:0:0:30:soft-hitwhistle.wav
192,192,17420,1,0,0:0:0:30:soft-hitclap.wav
64,192,17649,1,0,0:0:0:30:soft-hitwhistle.wav
320,192,17878,1,0,0:0:0:30:soft-hitwhistle.wav
192,192,18107,1,0,0:0:0:30:soft-hitwhistle.wav
192,192,18336,1,0,0:0:0:30:soft-hitclap.wav
320,192,18565,1,0,0:0:0:30:soft-hitwhistle.wav
64,192,18794,1,0,0:0:0:30:soft-hitfinish.wav
448,192,18794,1,0,0:0:0:0:
192,192,19023,1,0,0:0:0:30:soft-hitwhistle.wav
320,192,19252,1,0,0:0:0:30:soft-hitclap.wav
64,192,19481,1,0,0:0:0:30:soft-hitwhistle.wav
320,192,19710,1,0,0:0:0:30:soft-hitwhistle.wav
192,192,19939,1,0,0:0:0:30:soft-hitwhistle.wav
448,192,20168,1,0,0:0:0:30:soft-hitclap.wav
320,192,20397,128,0,20626:0:0:0:30:kick DBS.wav
192,192,20855,128,0,21084:0:0:0:30:kick DBS.wav
64,192,21313,128,0,21542:0:0:0:30:kick DBS.wav
448,192,22458,128,0,22687:0:0:0:30:soft-hitwhistle.wav
64,192,22916,1,0,0:0:0:30:soft-hitclap.wav
192,192,22916,1,0,0:0:0:0:
320,192,23374,1,0,0:0:0:30:soft-hitwhistle.wav
448,192,23603,1,0,0:0:0:30:soft-hitwhistle.wav
64,192,23832,1,0,0:0:0:30:soft-hitclap.wav
192,192,23832,1,0,0:0:0:0:
192,192,24290,1,0,0:0:0:30:soft-hitwhistle.wav
64,192,24519,1,0,0:0:0:30:soft-hitwhistle.wav
448,192,24748,1,0,0:0:0:30:soft-hitclap.wav
320,192,24748,1,0,0:0:0:0:
320,192,25206,1,0,0:0:0:30:soft-hitwhistle.wav
192,192,25664,1,0,0:0:0:30:soft-hitclap.wav
448,192,25664,1,0,0:0:0:0:
64,192,26122,128,0,26351:0:0:0:30:soft-hitwhistle.wav
448,192,26580,1,0,0:0:0:30:soft-hitclap.wav
320,192,26580,1,0,0:0:0:0:
320,192,27038,1,0,0:0:0:30:soft-hitwhistle.wav
64,192,27267,1,0,0:0:0:30:soft-hitwhistle.wav
448,192,27496,1,0,0:0:0:30:soft-hitclap.wav
192,192,27496,1,0,0:0:0:0:
64,192,27954,1,0,0:0:0:30:soft-hitwhistle.wav
320,192,27954,1,0,0:0:0:0:
192,192,28183,1,0,0:0:0:30:soft-hitwhistle.wav
192,192,28412,1,0,0:0:0:30:soft-hitclap.wav
448,192,28412,1,0,0:0:0:0:
320,192,28870,1,0,0:0:0:30:soft-hitwhistle.wav
192,192,29328,1,0,0:0:0:30:soft-hitclap.wav
64,192,29328,1,0,0:0:0:0:
64,192,29786,128,0,30015:0:0:0:30:soft-hitwhistle.wav
320,192,30244,1,0,0:0:0:30:soft-hitclap.wav
448,192,30244,1,0,0:0:0:0:
64,192,30703,1,0,0:0:0:30:soft-hitwhistle.wav
192,192,30932,1,0,0:0:0:30:soft-hitwhistle.wav
320,192,31161,1,0,0:0:0:30:soft-hitclap.wav
448,192,31161,1,0,0:0:0:0:
64,192,31619,1,0,0:0:0:30:soft-hitwhistle.wav
448,192,31848,1,0,0:0:0:30:soft-hitwhistle.wav
192,192,32077,1,0,0:0:0:30:soft-hitclap.wav
320,192,32077,1,0,0:0:0:0:
448,192,32535,1,0,0:0:0:30:soft-hitwhistle.wav
448,192,32993,1,0,0:0:0:30:soft-hitclap.wav
320,192,32993,1,0,0:0:0:0:
64,192,33222,1,0,0:0:0:30:soft-hitwhistle.wav
192,192,33222,1,0,0:0:0:30:soft-hitfinish.wav
320,192,33680,1,0,0:0:0:30:soft-hitwhistle.wav
64,192,33909,128,0,35054:0:0:0:30:soft-hitwhistle.wav
448,192,33909,1,0,0:0:0:0:
192,192,34367,1,0,0:0:0:30:soft-hitwhistle.wav
448,192,34825,1,0,0:0:0:30:soft-hitwhistle.wav
320,192,35054,128,0,35741:0:0:0:30:soft-hitwhistle.wav
192,192,35741,1,0,0:0:0:30:soft-hitclap.wav
64,192,36199,1,0,0:0:0:30:soft-hitwhistle.wav
64,192,36428,1,0,0:0:0:30:soft-hitwhistle.wav
448,192,36657,1,0,0:0:0:30:soft-hitwhistle.wav
448,192,36886,1,0,0:0:0:30:soft-hitwhistle.wav
64,192,37115,128,0,37573:0:0:0:30:soft-hitwhistle.wav
192,192,37115,1,0,0:0:0:20:soft-hitfinish.wav
320,192,37573,1,0,0:0:0:30:soft-hitclap.wav
448,192,37573,1,0,0:0:0:0:
448,192,38031,1,0,0:0:0:30:soft-hitwhistle.wav
192,192,38489,1,0,0:0:0:30:soft-hitclap.wav
64,192,38489,1,0,0:0:0:0:
320,192,38947,1,0,0:0:0:30:soft-hitwhistle.wav
448,192,39176,1,0,0:0:0:30:soft-hitwhistle.wav
64,192,39405,1,0,0:0:0:30:soft-hitclap.wav
320,192,39405,1,0,0:0:0:0:
192,192,39863,1,0,0:0:0:30:soft-hitwhistle.wav
448,192,40092,128,0,40779:0:0:0:30:soft-hitwhistle.wav
64,192,40321,1,0,0:0:0:30:soft-hitclap.wav
192,192,40779,128,0,41237:0:0:0:30:soft-hitwhistle.wav
448,192,41237,1,0,0:0:0:30:soft-hitclap.wav
320,192,41237,1,0,0:0:0:0:
192,192,41695,1,0,0:0:0:30:soft-hitwhistle.wav
64,192,42153,1,0,0:0:0:30:soft-hitclap.wav
320,192,42153,1,0,0:0:0:0:
448,192,42611,1,0,0:0:0:30:soft-hitwhistle.wav
64,192,42840,1,0,0:0:0:30:soft-hitwhistle.wav
448,192,43069,1,0,0:0:0:30:soft-hitclap.wav
192,192,43298,1,0,0:0:0:30:soft-hitwhistle.wav
320,192,43412,1,0,0:0:0:0:
448,192,43527,1,0,0:0:0:30:soft-hitwhistle.wav
64,192,43756,128,0,44443:0:0:0:30:soft-hitwhistle.wav
192,192,43985,1,0,0:0:0:30:soft-hitclap.wav
320,192,44214,1,0,0:0:0:30:soft-hitclap.wav
448,192,44443,1,0,0:0:0:30:soft-hitfinish.wav
64,192,44901,1,0,0:0:0:30:soft-hitclap.wav
192,192,45359,1,0,0:0:0:30:soft-hitwhistle.wav
320,192,45588,128,0,46275:0:0:0:30:soft-hitwhistle.wav
64,192,45817,1,0,0:0:0:30:soft-hitclap.wav
448,192,46275,128,0,47191:0:0:0:30:soft-hitwhistle.wav
192,192,46733,1,0,0:0:0:30:soft-hitclap.wav
64,192,47191,128,0,47649:0:0:0:30:soft-hitwhistle.wav
320,192,47649,1,0,0:0:0:30:soft-hitclap.wav
192,192,47878,1,0,0:0:0:30:soft-hitwhistle.wav
448,192,47878,1,0,0:0:0:30:soft-hitclap.wav
448,192,48336,1,0,0:0:0:30:soft-hitwhistle.wav
320,192,48565,1,0,0:0:0:30:soft-hitwhistle.wav
192,192,48794,1,0,0:0:0:30:soft-hitwhistle.wav
448,192,49023,128,0,49481:0:0:0:30:soft-hitwhistle.wav
320,192,49481,1,0,0:0:0:30:soft-hitwhistle.wav
192,192,49710,128,6,50626:0:0:0:0:
64,192,49710,1,0,0:0:0:0:
320,192,50855,1,0,0:0:0:70:kick DBS.wav
448,192,50855,1,0,0:0:0:0:
192,192,51084,1,0,0:0:0:70:kick DBS.wav
64,192,51084,1,0,0:0:0:0:
320,192,51313,1,0,0:0:0:70:kick DBS.wav
448,192,51313,1,0,0:0:0:0:
64,192,51771,128,0,53603:0:0:0:40:soft-hitfinish.wav
192,192,51771,1,0,0:0:0:0:
448,192,52229,1,0,0:0:0:40:soft-hitclap.wav
320,192,52229,1,0,0:0:0:0:
192,192,52687,1,0,0:0:0:40:soft-hitwhistle.wav
192,192,53145,1,0,0:0:0:40:soft-hitclap.wav
320,192,53145,1,0,0:0:0:0:
448,192,53603,1,0,0:0:0:40:soft-hitwhistle.wav
448,192,54061,1,0,0:0:0:40:soft-hitclap.wav
192,192,54061,1,0,0:0:0:0:
320,192,54290,128,0,54748:0:0:0:35:soft-hitwhistle.wav
64,192,54748,1,0,0:0:0:0:
192,192,54977,1,0,0:0:0:40:soft-hitclap.wav
448,192,54977,1,0,0:0:0:0:
64,192,55206,1,0,0:0:0:40:soft-hitwhistle.wav
448,192,55435,128,0,56351:0:0:0:30:soft-hitwhistle.wav
64,192,55893,1,0,0:0:0:40:soft-hitclap.wav
192,192,55893,1,0,0:0:0:0:
64,192,56351,128,0,57267:0:0:0:30:soft-hitwhistle.wav
448,192,56809,1,0,0:0:0:40:soft-hitclap.wav
320,192,56809,1,0,0:0:0:0:
192,192,57267,1,0,0:0:0:35:soft-hitwhistle.wav
448,192,57267,1,0,0:0:0:0:
64,192,57611,1,0,0:0:0:35:soft-hitwhistle.wav
320,192,57611,1,0,0:0:0:0:
192,192,57954,1,0,0:0:0:35:soft-hitwhistle.wav
448,192,57954,1,0,0:0:0:0:
192,192,58183,1,0,0:0:0:40:soft-hitclap.wav
64,192,58183,1,0,0:0:0:0:
320,192,58412,1,0,0:0:0:0:
320,192,58641,1,0,0:0:0:40:soft-hitclap.wav
448,192,58641,1,0,0:0:0:0:
192,192,58870,1,0,0:0:0:0:
192,192,59099,1,0,0:0:0:40:soft-hitfinish.wav
64,192,59099,1,0,0:0:0:0:
64,192,59557,1,0,0:0:0:40:soft-hitclap.wav
320,192,59557,1,0,0:0:0:0:
320,192,60015,1,0,0:0:0:40:soft-hitwhistle.wav
448,192,60474,1,0,0:0:0:40:soft-hitclap.wav
192,192,60474,1,0,0:0:0:0:
192,192,60932,1,0,0:0:0:40:soft-hitwhistle.wav
64,192,61390,1,0,0:0:0:40:soft-hitclap.wav
320,192,61390,1,0,0:0:0:0:
448,192,61619,128,0,62077:0:0:0:35:soft-hitwhistle.wav
192,192,62077,1,0,0:0:0:0:
320,192,62306,1,0,0:0:0:40:soft-hitclap.wav
64,192,62306,1,0,0:0:0:0:
448,192,62535,1,0,0:0:0:40:soft-hitwhistle.wav
192,192,62764,128,0,63680:0:0:0:30:soft-hitwhistle.wav
320,192,63222,1,0,0:0:0:40:soft-hitclap.wav
448,192,63222,1,0,0:0:0:0:
320,192,63680,128,0,64596:0:0:0:30:soft-hitwhistle.wav
64,192,64138,1,0,0:0:0:40:soft-hitclap.wav
192,192,64138,1,0,0:0:0:0:
448,192,64596,128,0,65054:0:0:0:35:soft-hitwhistle.wav
192,192,64825,1,0,0:0:0:35:soft-hitwhistle.wav
64,192,65054,128,0,65512:0:0:0:35:soft-hitwhistle.wav
320,192,65054,1,0,0:0:0:0:
192,192,65283,1,0,0:0:0:35:soft-hitwhistle.wav
448,192,65512,1,0,0:0:0:40:soft-hitclap.wav
320,192,65741,1,0,0:0:0:35:soft-hitwhistle.wav
64,192,65970,1,0,0:0:0:40:soft-hitclap.wav
192,192,66199,1,0,0:0:0:35:soft-hitwhistle.wav
448,192,66428,128,0,68260:0:0:0:40:soft-hitfinish.wav
320,192,66428,1,0,0:0:0:0:
64,192,66886,1,0,0:0:0:40:soft-hitclap.wav
192,192,66886,1,0,0:0:0:0:
64,192,67344,1,0,0:0:0:40:soft-hitwhistle.wav
320,192,67802,1,0,0:0:0:40:soft-hitclap.wav
192,192,67802,1,0,0:0:0:0:
64,192,68260,1,0,0:0:0:40:soft-hitwhistle.wav
448,192,68718,1,0,0:0:0:40:soft-hitclap.wav
320,192,68718,1,0,0:0:0:0:
192,192,68947,128,0,69405:0:0:0:35:soft-hitwhistle.wav
448,192,69405,1,0,0:0:0:0:
320,192,69634,1,0,0:0:0:40:soft-hitclap.wav
64,192,69634,1,0,0:0:0:0:
192,192,69863,1,0,0:0:0:40:soft-hitwhistle.wav
64,192,70092,128,0,71008:0:0:0:30:soft-hitwhistle.wav
192,192,70550,1,0,0:0:0:40:soft-hitclap.wav
320,192,70550,1,0,0:0:0:0:
448,192,71008,128,0,71924:0:0:0:30:soft-hitwhistle.wav
192,192,71466,1,0,0:0:0:40:soft-hitclap.wav
320,192,71466,1,0,0:0:0:0:
320,192,71924,1,0,0:0:0:35:soft-hitwhistle.wav
64,192,71924,1,0,0:0:0:0:
320,192,72267,1,0,0:0:0:35:soft-hitwhistle.wav
192,192,72267,1,0,0:0:0:0:
448,192,72611,1,0,0:0:0:35:soft-hitwhistle.wav
64,192,72611,1,0,0:0:0:0:
192,192,72840,1,0,0:0:0:40:soft-hitclap.wav
448,192,73069,1,0,0:0:0:0:
320,192,73298,1,0,0:0:0:40:soft-hitclap.wav
192,192,73298,1,0,0:0:0:0:
64,192,73527,1,0,0:0:0:0:
320,192,73756,1,0,0:0:0:40:soft-hitfinish.wav
448,192,73756,1,0,0:0:0:0:
64,192,74214,1,0,0:0:0:40:soft-hitclap.wav
320,192,74214,1,0,0:0:0:0:
64,192,74672,1,0,0:0:0:40:soft-hitwhistle.wav
448,192,75130,1,0,0:0:0:40:soft-hitclap.wav
192,192,75130,1,0,0:0:0:0:
320,192,75588,1,0,0:0:0:40:soft-hitwhistle.wav
192,192,76046,1,0,0:0:0:40:soft-hitclap.wav
448,192,76046,1,0,0:0:0:0:
320,192,76275,1,0,0:0:0:40:soft-hitwhistle.wav
192,192,76390,1,0,0:0:0:0:
64,192,76504,1,0,0:0:0:40:soft-hitwhistle.wav
192,192,76733,1,0,0:0:0:40:soft-hitwhistle.wav
320,192,76848,1,0,0:0:0:0:
448,192,76962,1,0,0:0:0:40:soft-hitclap.wav
192,192,77191,1,0,0:0:0:40:soft-hitwhistle.wav
320,192,77420,128,0,78336:0:0:0:40:soft-hitwhistle.wav
64,192,77878,1,0,0:0:0:40:soft-hitclap.wav
192,192,77878,1,0,0:0:0:0:
448,192,78336,128,0,78794:0:0:0:40:soft-hitwhistle.wav
320,192,78794,1,0,0:0:0:40:soft-hitclap.wav
64,192,78794,1,0,0:0:0:0:
448,192,79252,128,0,79710:0:0:0:40:soft-hitwhistle.wav
64,192,79710,128,0,80168:0:0:0:40:soft-hitclap.wav
320,192,80168,1,0,0:0:0:40:soft-hitwhistle.wav
320,192,80626,1,0,0:0:0:40:soft-hitclap.wav
64,192,80626,1,0,0:0:0:0:
320,192,81084,1,0,0:0:0:40:soft-hitwhistle.wav
448,192,81084,1,0,0:0:0:0:
64,192,81542,1,0,0:0:0:40:soft-hitclap.wav
192,192,81542,1,0,0:0:0:0:
192,192,82000,1,0,0:0:0:40:soft-hitwhistle.wav
320,192,82000,1,0,0:0:0:40:soft-hitclap.wav
448,192,82458,1,0,0:0:0:40:soft-hitwhistle.wav
64,192,82458,1,0,0:0:0:40:soft-hitclap.wav
192,192,82916,128,0,83832:0:0:0:60:soft-hitfinish2.wav
320,192,84061,128,0,84290:0:0:0:30:soft-hitwhistle2.wav
192,192,84061,1,0,0:0:0:0:
448,192,84290,1,0,0:0:0:30:soft-hitclap.wav
64,192,84290,1,0,0:0:0:0:
448,192,84748,1,0,0:0:0:30:soft-hitwhistle.wav
448,192,84977,1,0,0:0:0:30:soft-hitwhistle.wav
192,192,85206,1,0,0:0:0:30:soft-hitclap.wav
192,192,85435,1,0,0:0:0:30:soft-hitwhistle.wav
320,192,85664,128,0,86122:0:0:0:30:soft-hitwhistle.wav
192,192,86122,1,0,0:0:0:30:soft-hitclap.wav
64,192,86351,1,0,0:0:0:30:soft-hitwhistle.wav
64,192,86809,1,0,0:0:0:30:soft-hitwhistle.wav
192,192,87038,1,0,0:0:0:30:soft-hitclap.wav
320,192,87267,1,0,0:0:0:30:soft-hitwhistle.wav
448,192,87496,128,0,87954:0:0:0:30:soft-hitwhistle.wav
192,192,87954,1,0,0:0:0:30:soft-hitclap.wav
320,192,88412,1,0,0:0:0:30:soft-hitwhistle.wav
320,192,88641,1,0,0:0:0:30:soft-hitwhistle.wav
64,192,88870,1,0,0:0:0:30:soft-hitclap.wav
64,192,89099,1,0,0:0:0:30:soft-hitwhistle.wav
320,192,89328,128,0,89786:0:0:0:30:soft-hitwhistle.wav
192,192,89786,1,0,0:0:0:30:soft-hitclap.wav
448,192,90015,1,0,0:0:0:30:soft-hitwhistle.wav
448,192,90474,1,0,0:0:0:30:soft-hitwhistle.wav
192,192,90932,1,0,0:0:0:30:soft-hitwhistle.wav
320,192,91390,1,0,0:0:0:30:soft-hitwhistle.wav
64,192,91619,1,0,0:0:0:30:soft-hitwhistle.wav
192,192,91848,1,0,0:0:0:30:soft-hitwhistle.wav
320,192,92077,1,0,0:0:0:30:soft-hitfinish.wav
448,192,92077,1,0,0:0:0:0:
320,192,92306,1,0,0:0:0:30:soft-hitwhistle.wav
64,192,92535,1,0,0:0:0:30:soft-hitclap.wav
64,192,92764,1,0,0:0:0:30:soft-hitwhistle.wav
192,192,92993,128,0,93451:0:0:0:30:soft-hitwhistle.wav
320,192,93451,1,0,0:0:0:30:soft-hitclap.wav
448,192,93680,1,0,0:0:0:30:soft-hitwhistle.wav
448,192,94138,1,0,0:0:0:30:soft-hitwhistle.wav
320,192,94367,1,0,0:0:0:30:soft-hitclap.wav
192,192,94596,1,0,0:0:0:30:soft-hitwhistle.wav
448,192,94825,1,0,0:0:0:30:soft-hitwhistle.wav
64,192,95054,1,0,0:0:0:30:soft-hitwhistle.wav
192,192,95168,1,0,0:0:0:0:
320,192,95283,1,0,0:0:0:30:soft-hitclap.wav
448,192,95512,1,0,0:0:0:30:soft-hitwhistle.wav
192,192,95970,1,0,0:0:0:30:soft-hitwhistle.wav
448,192,96199,1,0,0:0:0:30:soft-hitclap.wav
64,192,96428,1,0,0:0:0:30:soft-hitwhistle.wav
320,192,96657,1,0,0:0:0:30:soft-hitwhistle.wav
192,192,96886,1,0,0:0:0:30:soft-hitwhistle.wav
448,192,97115,1,0,0:0:0:30:soft-hitclap.wav
64,192,97344,128,0,97573:0:0:0:30:kick DBS.wav
192,192,97802,128,0,98031:0:0:0:30:kick DBS.wav
320,192,98260,128,0,98489:0:0:0:30:kick DBS.wav
448,192,99405,128,0,99634:0:0:0:30:soft-hitwhistle.wav
192,192,99863,1,0,0:0:0:30:soft-hitclap.wav
64,192,99863,1,0,0:0:0:0:
448,192,100321,1,0,0:0:0:30:soft-hitwhistle.wav
64,192,100550,1,0,0:0:0:30:soft-hitwhistle.wav
192,192,100779,1,0,0:0:0:30:soft-hitclap.wav
320,192,100779,1,0,0:0:0:0:
64,192,101237,1,0,0:0:0:30:soft-hitwhistle.wav
192,192,101466,1,0,0:0:0:30:soft-hitwhistle.wav
320,192,101695,1,0,0:0:0:30:soft-hitclap.wav
448,192,101695,1,0,0:0:0:0:
64,192,102153,1,0,0:0:0:30:soft-hitwhistle.wav
192,192,102611,1,0,0:0:0:30:soft-hitclap.wav
320,192,102611,1,0,0:0:0:0:
448,192,103069,128,0,103298:0:0:0:0:
64,192,103527,1,0,0:0:0:30:soft-hitclap.wav
192,192,103527,1,0,0:0:0:0:
320,192,103985,1,0,0:0:0:30:soft-hitwhistle.wav
448,192,104214,1,0,0:0:0:30:soft-hitwhistle.wav
320,192,104443,1,0,0:0:0:30:soft-hitclap.wav
64,192,104443,1,0,0:0:0:0:
192,192,104901,1,0,0:0:0:30:soft-hitwhistle.wav
320,192,105130,1,0,0:0:0:30:soft-hitwhistle.wav
64,192,105359,1,0,0:0:0:30:soft-hitclap.wav
448,192,105359,1,0,0:0:0:0:
192,192,105817,1,0,0:0:0:30:soft-hitwhistle.wav
448,192,106046,1,0,0:0:0:0:
320,192,106275,1,0,0:0:0:30:soft-hitclap.wav
64,192,106275,1,0,0:0:0:0:
192,192,106504,1,0,0:0:0:0:
448,192,106733,128,0,106962:0:0:0:30:soft-hitwhistle.wav
192,192,107191,1,0,0:0:0:30:soft-hitclap.wav
64,192,107191,1,0,0:0:0:0:
448,192,107649,1,0,0:0:0:30:soft-hitwhistle.wav
320,192,107878,1,0,0:0:0:30:soft-hitwhistle.wav
192,192,108107,1,0,0:0:0:30:soft-hitclap.wav
64,192,108107,1,0,0:0:0:0:
320,192,108565,1,0,0:0:0:30:soft-hitwhistle.wav
448,192,108794,1,0,0:0:0:30:soft-hitwhistle.wav
192,192,109023,1,0,0:0:0:30:soft-hitclap.wav
64,192,109023,1,0,0:0:0:0:
320,192,109481,1,0,0:0:0:30:soft-hitwhistle.wav
64,192,109939,1,0,0:0:0:30:soft-hitclap.wav
448,192,109939,1,0,0:0:0:0:
320,192,110168,1,0,0:0:0:30:soft-hitwhistle.wav
192,192,110168,1,0,0:0:0:30:soft-hitfinish.wav
192,192,110626,1,0,0:0:0:30:soft-hitwhistle.wav
448,192,110855,128,0,111771:0:0:0:30:soft-hitwhistle.wav
64,192,110855,1,0,0:0:0:0:
320,192,111313,1,0,0:0:0:30:soft-hitwhistle.wav
64,192,111771,1,0,0:0:0:30:soft-hitwhistle.wav
192,192,112000,128,0,113145:0:0:0:30:soft-hitwhistle.wav
448,192,113145,1,0,0:0:0:30:soft-hitwhistle.wav
448,192,113374,1,0,0:0:0:30:soft-hitwhistle.wav
64,192,113603,1,0,0:0:0:30:soft-hitwhistle.wav
64,192,113832,1,0,0:0:0:30:soft-hitwhistle.wav
448,192,114061,128,0,114519:0:0:0:30:soft-hitwhistle.wav
192,192,114061,1,0,0:0:0:20:soft-hitfinish.wav
320,192,114519,1,0,0:0:0:30:soft-hitclap.wav
64,192,114977,1,0,0:0:0:30:soft-hitwhistle.wav
448,192,115435,1,0,0:0:0:30:soft-hitclap.wav
320,192,115435,1,0,0:0:0:0:
192,192,115893,1,0,0:0:0:30:soft-hitwhistle.wav
64,192,116122,1,0,0:0:0:30:soft-hitwhistle.wav
448,192,116351,1,0,0:0:0:30:soft-hitclap.wav
192,192,116351,1,0,0:0:0:0:
320,192,116809,128,0,117267:0:0:0:30:soft-hitwhistle.wav
64,192,117267,128,0,117725:0:0:0:30:soft-hitclap.wav
320,192,117725,128,0,118183:0:0:0:30:soft-hitwhistle.wav
64,192,118183,1,0,0:0:0:30:soft-hitclap.wav
320,192,118641,1,0,0:0:0:30:soft-hitwhistle.wav
448,192,119099,1,0,0:0:0:30:soft-hitclap.wav
192,192,119099,1,0,0:0:0:0:
64,192,119557,1,0,0:0:0:30:soft-hitwhistle.wav
320,192,119786,1,0,0:0:0:30:soft-hitwhistle.wav
64,192,120015,1,0,0:0:0:30:soft-hitclap.wav
320,192,120244,1,0,0:0:0:30:soft-hitwhistle.wav
192,192,120359,1,0,0:0:0:0:
64,192,120474,1,0,0:0:0:30:soft-hitwhistle.wav
320,192,120703,128,0,121390:0:0:0:30:soft-hitwhistle.wav
64,192,121390,1,0,0:0:0:30:soft-hitfinish.wav
448,192,121848,1,0,0:0:0:30:soft-hitclap.wav
192,192,121848,1,0,0:0:0:0:
448,192,122306,1,0,0:0:0:30:soft-hitwhistle.wav
192,192,122535,128,0,123222:0:0:0:30:soft-hitwhistle.wav
320,192,122764,1,0,0:0:0:30:soft-hitclap.wav
64,192,123222,128,0,124138:0:0:0:30:soft-hitwhistle.wav
320,192,123680,1,0,0:0:0:30:soft-hitclap.wav
448,192,124138,128,0,124596:0:0:0:30:soft-hitwhistle.wav
192,192,124596,1,0,0:0:0:30:soft-hitclap.wav
320,192,124825,1,0,0:0:0:30:soft-hitwhistle.wav
64,192,124825,1,0,0:0:0:30:soft-hitclap.wav
192,192,125283,1,0,0:0:0:30:soft-hitwhistle.wav
320,192,125512,1,0,0:0:0:30:soft-hitwhistle.wav
448,192,125741,1,0,0:0:0:30:soft-hitwhistle.wav
192,192,125970,128,0,126428:0:0:0:30:soft-hitwhistle.wav
64,192,126428,1,0,0:0:0:30:soft-hitwhistle.wav
448,192,126657,128,6,127573:0:0:0:0:
64,192,127802,1,0,0:0:0:20:bell_R.wav
448,192,128031,1,0,0:0:0:20:bell_L.wav
64,192,128260,1,0,0:0:0:20:bell.wav
448,192,128718,128,0,130550:0:0:0:40:soft-hitfinish.wav
320,192,128718,1,0,0:0:0:0:
64,192,129176,1,0,0:0:0:40:soft-hitclap.wav
192,192,129176,1,0,0:0:0:0:
64,192,129634,1,0,0:0:0:40:soft-hitwhistle.wav
320,192,130092,1,0,0:0:0:40:soft-hitclap.wav
192,192,130092,1,0,0:0:0:0:
192,192,130550,1,0,0:0:0:40:soft-hitwhistle.wav
320,192,131008,1,0,0:0:0:40:soft-hitclap.wav
64,192,131008,1,0,0:0:0:0:
192,192,131237,128,0,131695:0:0:0:35:soft-hitwhistle.wav
448,192,131695,1,0,0:0:0:0:
320,192,131924,1,0,0:0:0:40:soft-hitclap.wav
64,192,131924,1,0,0:0:0:0:
192,192,132153,1,0,0:0:0:40:soft-hitwhistle.wav
64,192,132382,128,0,133298:0:0:0:30:soft-hitwhistle.wav
192,192,132840,1,0,0:0:0:40:soft-hitclap.wav
320,192,132840,1,0,0:0:0:0:
448,192,133298,128,0,134214:0:0:0:30:soft-hitwhistle.wav
192,192,133756,1,0,0:0:0:40:soft-hitclap.wav
64,192,133756,1,0,0:0:0:0:
192,192,134214,1,0,0:0:0:35:soft-hitwhistle.wav
320,192,134214,1,0,0:0:0:0:
320,192,134557,1,0,0:0:0:35:soft-hitwhistle.wav
448,192,134557,1,0,0:0:0:0:
64,192,134901,1,0,0:0:0:35:soft-hitwhistle.wav
192,192,134901,1,0,0:0:0:0:
320,192,135130,1,0,0:0:0:40:soft-hitclap.wav
448,192,135130,1,0,0:0:0:0:
192,192,135359,1,0,0:0:0:0:
64,192,135588,1,0,0:0:0:40:soft-hitclap.wav
192,192,135588,1,0,0:0:0:0:
320,192,135817,1,0,0:0:0:0:
448,192,136046,1,0,0:0:0:40:soft-hitfinish.wav
64,192,136046,1,0,0:0:0:0:
448,192,136504,1,0,0:0:0:40:soft-hitclap.wav
192,192,136504,1,0,0:0:0:0:
320,192,136962,1,0,0:0:0:40:soft-hitwhistle.wav
64,192,137420,1,0,0:0:0:40:soft-hitclap.wav
320,192,137420,1,0,0:0:0:0:
192,192,137878,1,0,0:0:0:40:soft-hitwhistle.wav
320,192,138336,1,0,0:0:0:40:soft-hitclap.wav
64,192,138336,1,0,0:0:0:0:
448,192,138565,128,0,139023:0:0:0:35:soft-hitwhistle.wav
192,192,139023,1,0,0:0:0:0:
64,192,139252,1,0,0:0:0:40:soft-hitclap.wav
448,192,139252,1,0,0:0:0:0:
192,192,139481,1,0,0:0:0:40:soft-hitwhistle.wav
320,192,139710,128,0,140626:0:0:0:30:soft-hitwhistle.wav
192,192,140168,1,0,0:0:0:40:soft-hitclap.wav
64,192,140168,1,0,0:0:0:0:
192,192,140626,128,0,141542:0:0:0:30:soft-hitwhistle.wav
448,192,141084,1,0,0:0:0:40:soft-hitclap.wav
320,192,141084,1,0,0:0:0:0:
64,192,141542,128,0,142000:0:0:0:35:soft-hitwhistle.wav
320,192,141771,1,0,0:0:0:35:soft-hitwhistle.wav
448,192,142000,128,0,142458:0:0:0:35:soft-hitwhistle.wav
192,192,142000,1,0,0:0:0:40:soft-hitclap.wav
320,192,142229,1,0,0:0:0:35:soft-hitwhistle.wav
64,192,142458,1,0,0:0:0:40:soft-hitclap.wav
192,192,142687,1,0,0:0:0:35:soft-hitwhistle.wav
448,192,142916,1,0,0:0:0:40:soft-hitclap.wav
320,192,143145,1,0,0:0:0:35:soft-hitwhistle.wav
64,192,143374,128,0,145206:0:0:0:40:soft-hitfinish.wav
192,192,143374,1,0,0:0:0:0:
448,192,143832,1,0,0:0:0:40:soft-hitclap.wav
320,192,143832,1,0,0:0:0:0:
192,192,144290,1,0,0:0:0:40:soft-hitwhistle.wav
192,192,144748,1,0,0:0:0:40:soft-hitclap.wav
320,192,144748,1,0,0:0:0:0:
448,192,145206,1,0,0:0:0:40:soft-hitwhistle.wav
192,192,145664,1,0,0:0:0:40:soft-hitclap.wav
448,192,145664,1,0,0:0:0:0:
320,192,145893,128,0,146351:0:0:0:35:soft-hitwhistle.wav
64,192,146351,1,0,0:0:0:0:
192,192,146580,1,0,0:0:0:40:soft-hitclap.wav
448,192,146580,1,0,0:0:0:0:
320,192,146809,1,0,0:0:0:40:soft-hitwhistle.wav
448,192,147038,128,0,147954:0:0:0:30:soft-hitwhistle.wav
320,192,147496,1,0,0:0:0:40:soft-hitclap.wav
192,192,147496,1,0,0:0:0:0:
64,192,147954,128,0,148870:0:0:0:30:soft-hitwhistle.wav
320,192,148412,1,0,0:0:0:40:soft-hitclap.wav
192,192,148412,1,0,0:0:0:0:
320,192,148870,1,0,0:0:0:35:soft-hitwhistle.wav
448,192,148870,1,0,0:0:0:0:
64,192,149214,1,0,0:0:0:35:soft-hitwhistle.wav
192,192,149214,1,0,0:0:0:0:
320,192,149557,1,0,0:0:0:35:soft-hitwhistle.wav
448,192,149557,1,0,0:0:0:0:
192,192,149786,1,0,0:0:0:40:soft-hitclap.wav
64,192,149786,1,0,0:0:0:0:
448,192,150015,1,0,0:0:0:0:
192,192,150244,1,0,0:0:0:40:soft-hitclap.wav
64,192,150244,1,0,0:0:0:0:
320,192,150474,1,0,0:0:0:0:
448,192,150703,1,0,0:0:0:40:soft-hitfinish.wav
64,192,150703,1,0,0:0:0:0:
192,192,151161,1,0,0:0:0:40:soft-hitclap.wav
320,192,151161,1,0,0:0:0:0:
448,192,151619,1,0,0:0:0:40:soft-hitwhistle.wav
64,192,152077,1,0,0:0:0:40:soft-hitclap.wav
320,192,152077,1,0,0:0:0:0:
192,192,152535,1,0,0:0:0:40:soft-hitwhistle.wav
320,192,152993,1,0,0:0:0:40:soft-hitclap.wav
64,192,152993,1,0,0:0:0:0:
192,192,153222,1,0,0:0:0:40:soft-hitwhistle.wav
320,192,153336,1,0,0:0:0:0:
448,192,153451,1,0,0:0:0:40:soft-hitwhistle.wav
320,192,153680,1,0,0:0:0:40:soft-hitwhistle.wav
192,192,153794,1,0,0:0:0:0:
64,192,153909,1,0,0:0:0:40:soft-hitclap.wav
320,192,154138,1,0,0:0:0:40:soft-hitwhistle.wav
192,192,154367,128,0,155283:0:0:0:40:soft-hitwhistle.wav
64,192,154367,1,0,0:0:0:0:
448,192,154825,1,0,0:0:0:40:soft-hitclap.wav
320,192,154825,1,0,0:0:0:0:
64,192,155283,128,0,155741:0:0:0:40:soft-hitwhistle.wav
192,192,155741,1,0,0:0:0:40:soft-hitclap.wav
448,192,155741,1,0,0:0:0:0:
320,192,156199,128,0,156657:0:0:0:40:soft-hitwhistle.wav
64,192,156657,128,0,157115:0:0:0:40:soft-hitclap.wav
448,192,157115,1,0,0:0:0:40:soft-hitwhistle.wav
192,192,157573,1,0,0:0:0:40:soft-hitclap.wav
448,192,157573,1,0,0:0:0:0:
192,192,158031,1,0,0:0:0:40:soft-hitwhistle.wav
64,192,158031,1,0,0:0:0:0:
448,192,158489,1,0,0:0:0:40:soft-hitclap.wav
320,192,158489,1,0,0:0:0:0:
320,192,158947,1,0,0:0:0:40:soft-hitwhistle.wav
192,192,158947,1,0,0:0:0:40:soft-hitclap.wav
64,192,159405,1,0,0:0:0:40:soft-hitwhistle.wav
448,192,159405,1,0,0:0:0:40:soft-hitclap.wav
192,192,159863,1,0,0:0:0:60:soft-hitfinish2.wav
320,192,159863,1,0,0:0:0:40:soft-hitclap.wav
192,192,160550,128,0,161008:0:0:0:15:soft-hitwhistle2.wav
448,192,161008,1,0,0:0:0:15:soft-hitwhistle2.wav
64,192,161237,1,0,0:0:0:15:soft-hitwhistle2.wav
320,192,161466,1,0,0:0:0:15:soft-hitwhistle2.wav
192,192,161695,1,0,0:0:0:20:soft-hitwhistle2.wav
448,192,161924,1,0,0:0:0:15:soft-hitwhistle2.wav
192,192,162153,1,0,0:0:0:15:soft-hitwhistle2.wav
64,192,162382,1,0,0:0:0:15:soft-hitwhistle2.wav
64,192,162840,1,0,0:0:0:15:soft-hitwhistle2.wav
320,192,163069,1,0,0:0:0:15:soft-hitwhistle2.wav
192,192,163527,128,0,163985:0:0:0:15:soft-hitwhistle2.wav
448,192,163756,1,0,0:0:0:0:
320,192,163985,1,0,0:0:0:15:soft-hitwhistle2.wav
64,192,164214,1,0,0:0:0:15:soft-hitwhistle2.wav
448,192,164672,1,0,0:0:0:0:
320,192,164901,1,0,0:0:0:15:soft-hitwhistle2.wav
192,192,165130,128,0,166161:0:0:0:30:soft-hitwhistle.wav
320,192,166161,1,0,0:0:0:40:soft-hitfinish2.wav
448,192,166390,1,0,0:0:0:30:soft-hitwhistle.wav
320,192,166504,1,0,0:0:0:30:soft-hitwhistle.wav
192,192,166619,1,0,0:0:0:30:soft-hitwhistle.wav
64,192,166733,1,0,0:0:0:30:soft-hitwhistle.wav
448,192,166848,1,0,0:0:0:30:soft-hitwhistle.wav
320,192,166962,1,0,0:0:0:30:soft-hitwhistle.wav
192,192,167077,1,0,0:0:0:30:soft-hitwhistle.wav
64,192,167191,1,0,0:0:0:30:soft-hitwhistle.wav
448,192,167191,1,0,0:0:0:0:
320,192,167420,1,0,0:0:0:30:soft-hitwhistle.wav
64,192,167649,1,0,0:0:0:30:soft-hitclap.wav
192,192,167878,1,0,0:0:0:30:soft-hitwhistle.wav
320,192,168107,128,0,168565:0:0:0:30:soft-hitwhistle.wav
64,192,168565,1,0,0:0:0:30:soft-hitclap.wav
448,192,168794,1,0,0:0:0:30:soft-hitwhistle.wav
448,192,169252,1,0,0:0:0:30:soft-hitwhistle.wav
192,192,169481,1,0,0:0:0:30:soft-hitclap.wav
64,192,169710,1,0,0:0:0:30:soft-hitwhistle.wav
192,192,169939,128,0,170397:0:0:0:30:soft-hitwhistle.wav
448,192,170397,1,0,0:0:0:30:soft-hitclap.wav
320,192,170626,1,0,0:0:0:0:
64,192,170855,1,0,0:0:0:30:soft-hitwhistle.wav
448,192,171084,1,0,0:0:0:30:soft-hitwhistle.wav
64,192,171313,1,0,0:0:0:30:soft-hitclap.wav
192,192,171542,1,0,0:0:0:30:soft-hitwhistle.wav
320,192,171771,128,0,172229:0:0:0:30:soft-hitwhistle.wav
64,192,172229,1,0,0:0:0:30:soft-hitclap.wav
192,192,172458,1,0,0:0:0:30:soft-hitwhistle.wav
192,192,172916,1,0,0:0:0:30:soft-hitwhistle.wav
448,192,173374,1,0,0:0:0:30:soft-hitwhistle.wav
448,192,173832,1,0,0:0:0:30:soft-hitwhistle.wav
64,192,174061,1,0,0:0:0:30:soft-hitwhistle.wav
192,192,174176,1,0,0:0:0:30:soft-hitwhistle.wav
320,192,174290,1,0,0:0:0:30:soft-hitwhistle.wav
192,192,174519,1,0,0:0:0:30:soft-hitfinish.wav
64,192,174519,1,0,0:0:0:0:
64,192,174748,1,0,0:0:0:30:soft-hitwhistle.wav
320,192,174977,1,0,0:0:0:30:soft-hitclap.wav
320,192,175206,1,0,0:0:0:30:soft-hitwhistle.wav
448,192,175435,128,0,175893:0:0:0:30:soft-hitwhistle.wav
64,192,175893,1,0,0:0:0:30:soft-hitclap.wav
192,192,176122,1,0,0:0:0:30:soft-hitwhistle.wav
320,192,176580,1,0,0:0:0:30:soft-hitwhistle.wav
448,192,176809,1,0,0:0:0:30:soft-hitclap.wav
192,192,177038,1,0,0:0:0:30:soft-hitwhistle.wav
64,192,177267,128,0,177725:0:0:0:30:soft-hitwhistle.wav
320,192,177725,1,0,0:0:0:30:soft-hitclap.wav
192,192,177954,1,0,0:0:0:30:soft-hitwhistle.wav
448,192,178183,1,0,0:0:0:30:soft-hitwhistle.wav
448,192,178412,1,0,0:0:0:30:soft-hitwhistle.wav
192,192,178641,1,0,0:0:0:30:soft-hitclap.wav
192,192,178870,1,0,0:0:0:30:soft-hitwhistle.wav
64,192,179099,1,0,0:0:0:30:soft-hitwhistle.wav
448,192,179328,1,0,0:0:0:0:
192,192,179557,1,0,0:0:0:30:soft-hitwhistle.wav
320,192,179672,1,0,0:0:0:30:soft-hitwhistle.wav
192,192,179786,1,0,0:0:0:30:soft-hitwhistle.wav
64,192,180015,128,0,181848:0:0:0:40:soft-hitfinish.wav
192,192,180474,1,0,0:0:0:30:soft-hitclap.wav
448,192,180474,1,0,0:0:0:0:
320,192,180932,1,0,0:0:0:0:
448,192,181161,1,0,0:0:0:0:
320,192,181390,1,0,0:0:0:30:soft-hitclap.wav
192,192,181390,1,0,0:0:0:0:
448,192,181848,128,0,182764:0:0:0:40:soft-hitwhistle.wav
320,192,181848,1,0,0:0:0:0:
64,192,182306,1,0,0:0:0:30:soft-hitclap.wav
320,192,182306,1,0,0:0:0:0:
192,192,182535,1,0,0:0:0:40:soft-hitwhistle.wav
64,192,182764,128,0,183680:0:0:0:40:soft-hitwhistle.wav
448,192,183222,1,0,0:0:0:30:soft-hitclap.wav
192,192,183222,1,0,0:0:0:0:
320,192,183451,1,0,0:0:0:30:soft-hitwhistle.wav
448,192,183680,128,0,184596:0:0:0:40:soft-hitfinish.wav
320,192,184138,1,0,0:0:0:30:soft-hitclap.wav
192,192,184138,1,0,0:0:0:0:
192,192,184367,1,0,0:0:0:40:soft-hitwhistle.wav
64,192,184596,128,0,185512:0:0:0:40:soft-hitwhistle.wav
320,192,184596,1,0,0:0:0:0:
192,192,184939,1,0,0:0:0:40:soft-hitwhistle.wav
320,192,185283,1,0,0:0:0:40:soft-hitwhistle.wav
448,192,185512,128,0,186886:0:0:0:0:
64,192,185970,1,0,0:0:0:30:soft-hitclap.wav
192,192,185970,1,0,0:0:0:0:
192,192,186428,1,0,0:0:0:0:
192,192,186886,1,0,0:0:0:30:soft-hitclap.wav
64,192,186886,1,0,0:0:0:0:
320,192,187344,128,0,187458:0:0:0:30:soft-hitclap.wav
64,192,187687,128,0,187802:0:0:0:30:soft-hitclap.wav
448,192,188031,128,0,188145:0:0:0:30:soft-hitclap.wav
192,192,188374,128,0,188489:0:0:0:30:soft-hitclap.wav
448,192,188718,128,0,189176:0:0:0:30:soft-hitclap.wav
192,192,189176,1,0,0:0:0:15:soft-hitclap2.wav
192,192,191695,128,0,191924:0:0:0:15:soft-hitwhistle2.wav
320,192,192153,128,0,192382:0:0:0:0:
64,192,192840,128,0,193298:0:0:0:15:soft-hitfinish2.wav
448,192,193756,128,0,194099:0:0:0:15:soft-hitwhistle2.wav
192,192,194099,128,0,194443:0:0:0:15:soft-hitwhistle2.wav
64,192,194443,128,0,194672:0:0:0:15:soft-hitwhistle2.wav
320,192,194672,128,0,195015:0:0:0:15:soft-hitwhistle2.wav
64,192,195015,128,0,195359:0:0:0:15:soft-hitwhistle2.wav
448,192,195359,128,0,196161:0:0:0:15:soft-hitwhistle2.wav
192,192,196504,128,0,196962:0:0:0:20:soft-hitfinish2.wav
448,192,196962,1,0,0:0:0:20:soft-hitclap2.wav
320,192,197420,1,0,0:0:0:20:soft-hitwhistle2.wav
192,192,197878,1,0,0:0:0:20:soft-hitclap2.wav
64,192,198336,1,0,0:0:0:20:soft-hitwhistle2.wav
448,192,198794,1,0,0:0:0:20:soft-hitclap2.wav
192,192,199023,128,0,199481:0:0:0:25:soft-hitwhistle2.wav
448,192,199481,128,0,199710:0:0:0:0:
320,192,199710,128,0,199939:0:0:0:25:soft-hitwhistle2.wav
64,192,199939,128,0,200168:0:0:0:25:soft-hitwhistle2.wav
192,192,200168,128,0,201084:0:0:0:30:soft-hitfinish2.wav
448,192,201084,128,0,201771:0:0:0:0:
320,192,201771,128,0,202000:0:0:0:35:soft-hitwhistle.wav
64,192,202000,1,0,0:0:0:35:soft-hitclap.wav
192,192,202229,1,0,0:0:0:35:soft-hitwhistle.wav
64,192,202458,1,0,0:0:0:0:
448,192,202687,1,0,0:0:0:35:soft-hitwhistle.wav
192,192,202916,1,0,0:0:0:35:soft-hitwhistle.wav
320,192,203145,1,0,0:0:0:35:soft-hitclap.wav
320,192,203374,1,0,0:0:0:35:soft-hitclap.wav
448,192,203489,1,0,0:0:0:35:soft-hitclap.wav
192,192,203718,1,0,0:0:0:35:soft-hitclap.wav
64,192,203832,128,4,205664:0:0:0:0:
320,192,204290,1,0,0:0:0:40:soft-hitclap.wav
448,192,204290,1,0,0:0:0:0:
192,192,204748,1,0,0:0:0:40:soft-hitwhistle.wav
192,192,205206,1,0,0:0:0:40:soft-hitclap.wav
448,192,205206,1,0,0:0:0:0:
320,192,205664,1,0,0:0:0:40:soft-hitwhistle.wav
448,192,206122,1,0,0:0:0:40:soft-hitclap.wav
192,192,206122,1,0,0:0:0:0:
320,192,206351,1,0,0:0:0:35:soft-hitwhistle.wav
320,192,206809,1,0,0:0:0:0:
192,192,207038,1,0,0:0:0:40:soft-hitclap.wav
448,192,207038,1,0,0:0:0:0:
64,192,207267,1,0,0:0:0:40:soft-hitwhistle.wav
320,192,207496,128,0,208412:0:0:0:30:soft-hitwhistle.wav
192,192,207954,1,0,0:0:0:40:soft-hitclap.wav
64,192,207954,1,0,0:0:0:0:
192,192,208412,128,0,209328:0:0:0:30:soft-hitwhistle.wav
448,192,208870,1,0,0:0:0:40:soft-hitclap.wav
320,192,208870,1,0,0:0:0:0:
320,192,209328,1,0,0:0:0:35:soft-hitwhistle.wav
64,192,209328,1,0,0:0:0:0:
448,192,209672,1,0,0:0:0:35:soft-hitwhistle.wav
192,192,209672,1,0,0:0:0:0:
64,192,210015,1,0,0:0:0:35:soft-hitwhistle.wav
320,192,210015,1,0,0:0:0:0:
192,192,210244,1,0,0:0:0:40:soft-hitclap.wav
64,192,210244,1,0,0:0:0:0:
320,192,210474,1,0,0:0:0:0:
320,192,210703,1,0,0:0:0:40:soft-hitclap.wav
448,192,210703,1,0,0:0:0:0:
64,192,211161,128,0,212993:0:0:0:40:soft-hitfinish.wav
320,192,211161,1,0,0:0:0:0:
448,192,211619,1,0,0:0:0:40:soft-hitclap.wav
192,192,211619,1,0,0:0:0:0:
320,192,212077,1,0,0:0:0:40:soft-hitwhistle.wav
448,192,212535,1,0,0:0:0:40:soft-hitclap.wav
192,192,212535,1,0,0:0:0:0:
320,192,212993,1,0,0:0:0:40:soft-hitwhistle.wav
448,192,213451,1,0,0:0:0:40:soft-hitclap.wav
320,192,213680,1,0,0:0:0:40:soft-hitwhistle.wav
192,192,213794,1,0,0:0:0:0:
64,192,213909,1,0,0:0:0:40:soft-hitwhistle.wav
320,192,214138,1,0,0:0:0:40:soft-hitwhistle.wav
192,192,214367,1,0,0:0:0:40:soft-hitclap.wav
64,192,214596,1,0,0:0:0:40:soft-hitwhistle.wav
448,192,214825,128,0,215283:0:0:0:40:soft-hitfinish.wav
192,192,215283,1,0,0:0:0:40:soft-hitclap.wav
64,192,215283,1,0,0:0:0:0:
64,192,215741,128,0,216199:0:0:0:40:soft-hitwhistle.wav
448,192,216199,1,0,0:0:0:40:soft-hitclap.wav
320,192,216199,1,0,0:0:0:0:
192,192,216657,128,0,217115:0:0:0:40:soft-hitwhistle.wav
448,192,217115,128,0,217573:0:0:0:40:soft-hitclap.wav
320,192,217573,1,0,0:0:0:40:soft-hitwhistle.wav
64,192,218031,1,0,0:0:0:40:soft-hitclap.wav
448,192,218031,1,0,0:0:0:0:
192,192,218489,1,0,0:0:0:40:soft-hitwhistle.wav
320,192,218489,1,0,0:0:0:0:
64,192,218947,1,0,0:0:0:40:soft-hitclap.wav
448,192,218947,1,0,0:0:0:0:
192,192,219405,128,0,219634:0:0:0:0:
320,192,219863,128,0,220092:0:0:0:0:
448,192,220321,1,0,0:0:0:40:soft-hitwhistle.wav
64,192,220321,1,0,0:0:0:40:soft-hitclap.wav
64,192,222840,128,0,223527:0:0:0:0:
448,192,222840,128,0,223527:0:0:0:0:
192,192,223527,1,0,0:0:0:30:soft-hitwhistle.wav
320,192,223527,1,0,0:0:0:30:soft-hitclap.wav
320,192,223985,1,0,0:0:0:30:soft-hitwhistle.wav
64,192,224214,1,0,0:0:0:30:soft-hitwhistle.wav
448,192,224443,1,0,0:0:0:30:soft-hitclap.wav
192,192,224672,1,0,0:0:0:30:soft-hitwhistle.wav
448,192,224901,128,0,225359:0:0:0:30:soft-hitwhistle.wav
192,192,225359,1,0,0:0:0:30:soft-hitclap.wav
64,192,225588,1,0,0:0:0:30:soft-hitwhistle.wav
64,192,226046,1,0,0:0:0:30:soft-hitwhistle.wav
320,192,226275,1,0,0:0:0:30:soft-hitclap.wav
448,192,226504,1,0,0:0:0:30:soft-hitwhistle.wav
64,192,226733,128,0,227191:0:0:0:30:soft-hitwhistle.wav
320,192,227191,1,0,0:0:0:30:soft-hitclap.wav
192,192,227420,1,0,0:0:0:30:soft-hitwhistle.wav
64,192,227649,1,0,0:0:0:30:soft-hitwhistle.wav
320,192,227878,1,0,0:0:0:30:soft-hitwhistle.wav
192,192,228107,1,0,0:0:0:30:soft-hitclap.wav
448,192,228336,1,0,0:0:0:30:soft-hitwhistle.wav
64,192,228565,128,0,229023:0:0:0:30:soft-hitwhistle.wav
320,192,229023,1,0,0:0:0:30:soft-hitclap.wav
448,192,229252,1,0,0:0:0:30:soft-hitwhistle.wav
448,192,229710,1,0,0:0:0:30:soft-hitwhistle.wav
192,192,230168,1,0,0:0:0:30:soft-hitwhistle.wav
192,192,230626,1,0,0:0:0:30:soft-hitwhistle.wav
320,192,230855,1,0,0:0:0:30:soft-hitwhistle.wav
448,192,231084,1,0,0:0:0:30:soft-hitwhistle.wav
192,192,231313,1,0,0:0:0:30:soft-hitfinish.wav
64,192,231313,1,0,0:0:0:0:
320,192,231542,1,0,0:0:0:30:soft-hitwhistle.wav
448,192,231771,1,0,0:0:0:30:soft-hitclap.wav
192,192,232000,1,0,0:0:0:30:soft-hitwhistle.wav
320,192,232229,128,0,232687:0:0:0:30:soft-hitwhistle.wav
192,192,232687,1,0,0:0:0:30:soft-hitclap.wav
64,192,232687,1,0,0:0:0:0:
448,192,232916,1,0,0:0:0:30:soft-hitwhistle.wav
448,192,233374,1,0,0:0:0:30:soft-hitwhistle.wav
320,192,233603,1,0,0:0:0:30:soft-hitclap.wav
192,192,233832,1,0,0:0:0:30:soft-hitwhistle.wav
448,192,234061,1,0,0:0:0:30:soft-hitwhistle.wav
64,192,234290,1,0,0:0:0:30:soft-hitwhistle.wav
192,192,234405,1,0,0:0:0:0:
320,192,234519,1,0,0:0:0:30:soft-hitclap.wav
192,192,234748,1,0,0:0:0:30:soft-hitwhistle.wav
320,192,234977,1,0,0:0:0:30:soft-hitfinish.wav
64,192,234977,1,0,0:0:0:0:
192,192,235206,1,0,0:0:0:30:soft-hitwhistle.wav
448,192,235435,1,0,0:0:0:30:soft-hitclap.wav
192,192,235664,1,0,0:0:0:30:soft-hitwhistle.wav
64,192,235893,1,0,0:0:0:30:soft-hitwhistle.wav
320,192,236122,1,0,0:0:0:30:soft-hitwhistle.wav
448,192,236351,1,0,0:0:0:30:soft-hitclap.wav
320,192,236580,1,0,0:0:0:30:kick DBS.wav
64,192,236580,1,0,0:0:0:0:
448,192,237038,1,0,0:0:0:30:kick DBS.wav
192,192,237038,1,0,0:0:0:0:
192,192,237496,1,0,0:0:0:30:kick DBS.wav
320,192,237496,1,0,0:0:0:0:
64,192,237954,1,0,0:0:0:30:kick DBS.wav
448,192,237954,1,0,0:0:0:0:
320,192,238641,1,0,0:0:0:30:kick DBS.wav
448,192,238641,1,0,0:0:0:0:
192,192,238985,128,0,239214:0:0:0:0:
64,192,239443,128,0,239672:0:0:0:0:
448,192,239901,128,0,240130:0:0:0:0:
320,192,240359,128,0,240588:0:0:0:0:
192,192,240817,128,0,241046:0:0:0:0:
64,192,241275,128,0,241504:0:0:0:0:
320,192,241733,128,0,241962:0:0:0:0:
192,192,242191,128,0,242420:0:0:0:0:
320,192,242649,128,0,242878:0:0:0:0:
448,192,243107,128,0,243336:0:0:0:0:
192,192,243565,128,0,243794:0:0:0:0:
320,192,244023,128,0,244252:0:0:0:0:
64,192,244481,128,0,244710:0:0:0:0:
448,192,244939,128,0,245168:0:0:0:0:
192,192,245397,128,0,245626:0:0:0:0:
320,192,245741,1,0,0:0:0:40:soft-hitfinish.wav
