osu file format v14

[General]
AudioFilename: audio.mp3
AudioLeadIn: 0
PreviewTime: -1
Countdown: 1
SampleSet: None
StackLeniency: 0.7
Mode: 0
LetterboxInBreaks: 0
WidescreenStoryboard: 1

[Editor]
Bookmarks: 0,83294,167999,173647,179294,179470,179647,179823,179999,180176,180352,180529,180705,180882,181058,181235,181411,181588,181764,181941,182117,182294,182470,182647,182823,182999,183176,183352,183529,183705,183882,184058,184235,184411,184588,184764,184941,185117,185294,185470,185647,185823,185999,186176,186352,186529,186705,186882,187058,187235,187411,187588,187764,201882
DistanceSpacing: 1.6
BeatDivisor: 4
GridSize: 16
TimelineZoom: 1.1

[Metadata]
Title:Good Vibe
TitleUnicode:Good Vibe
Artist:Dona Cislene
ArtistUnicode:Dona Cislene
Creator:Akaeboshi
Version:AkaeBerto
Source:
Tags:
BeatmapID:2159352
BeatmapSetID:1032784

[Difficulty]
HPDrainRate:5
CircleSize:4
OverallDifficulty:9
ApproachRate:9.7
SliderMultiplier:1.4
SliderTickRate:1

[Events]
//Background and Video events
0,0,"wallhaven-39rzl9.png",0,0
//Break Periods
2,83494,85269
2,179494,187269
//Storyboard Layer 0 (Background)
//Storyboard Layer 1 (Fail)
//Storyboard Layer 2 (Pass)
//Storyboard Layer 3 (Foreground)
//Storyboard Layer 4 (Overlay)
//Storyboard Sound Samples

[TimingPoints]
0,352.941176470588,4,2,0,60,1,0
0,-58.8235294117647,4,2,0,60,0,0
176,-58.8235294117647,4,1,1,40,0,0
1058,-71.4285714285714,4,1,1,40,0,0
1411,-83.3333333333333,4,1,1,66,0,0
1764,-58.8235294117647,4,1,1,66,0,0
2117,-83.3333333333333,4,1,1,66,0,0
2470,-58.8235294117647,4,1,1,66,0,0
2823,-83.3333333333333,4,1,1,66,0,0
3176,-58.8235294117647,4,1,1,66,0,0
4235,-83.3333333333333,4,1,1,66,0,0
4588,-58.8235294117647,4,1,1,66,0,0
4941,-83.3333333333333,4,1,1,66,0,0
5294,-58.8235294117647,4,1,1,66,0,0
5647,-83.3333333333333,4,1,1,66,0,0
5999,-58.8235294117647,4,1,1,66,0,0
6352,-52.6315789473684,4,1,1,66,0,0
7411,-37.037037037037,4,1,1,66,0,0
7764,-83.3333333333333,4,1,1,66,0,0
8117,-58.8235294117647,4,1,1,66,0,0
8470,-83.3333333333333,4,1,1,66,0,0
8823,-58.8235294117647,4,1,1,66,0,0
9882,-83.3333333333333,4,1,1,66,0,0
10235,-58.8235294117647,4,1,1,66,0,0
10588,-83.3333333333333,4,1,1,66,0,0
10941,-58.8235294117647,4,1,1,66,0,0
11176,-58.8235294117647,4,1,1,22,0,0
11235,-58.8235294117647,4,1,1,44,0,0
11294,-58.8235294117647,4,1,1,66,0,0
11647,-83.3333333333333,4,1,1,66,0,0
11999,-58.8235294117647,4,1,1,66,0,0
12352,-83.3333333333333,4,1,1,66,0,0
13058,-37.037037037037,4,1,1,66,0,0
13411,-83.3333333333333,4,1,1,66,0,0
13764,-58.8235294117647,4,1,1,66,0,0
14117,-83.3333333333333,4,1,1,66,0,0
14470,-58.8235294117647,4,1,1,66,0,0
14823,-83.3333333333333,4,1,1,66,0,0
15176,-58.8235294117647,4,1,1,66,0,0
15529,-83.3333333333333,4,1,1,66,0,0
15882,-58.8235294117647,4,1,1,66,0,0
16235,-83.3333333333333,4,1,1,66,0,0
16588,-58.8235294117647,4,1,1,66,0,0
16941,-83.3333333333333,4,1,1,66,0,0
17294,-58.8235294117647,4,1,1,66,0,0
21176,-83.3333333333333,4,1,1,66,0,0
21529,-58.8235294117647,4,1,1,66,0,0
21882,-83.3333333333333,4,1,1,66,0,0
22235,-58.8235294117647,4,1,1,66,0,0
22588,-83.3333333333333,4,1,1,66,0,0
22941,-58.8235294117647,4,1,1,66,0,0
24352,-34.4827586206897,4,1,1,66,0,0
24705,-58.8235294117647,4,1,1,66,0,0
26117,-83.3333333333333,4,1,1,66,0,0
26470,-58.8235294117647,4,1,1,66,0,0
26823,-83.3333333333333,4,1,1,66,0,0
27176,-58.8235294117647,4,1,1,66,0,0
28941,-83.3333333333333,4,1,1,66,0,0
29294,-58.8235294117647,4,1,1,66,0,0
29647,-83.3333333333333,4,1,1,66,0,0
29999,-58.8235294117647,4,1,1,66,0,0
30352,-83.3333333333333,4,1,1,66,0,0
30705,-58.8235294117647,4,1,1,66,0,0
31058,-83.3333333333333,4,1,1,66,0,0
31411,-58.8235294117647,4,1,1,66,0,0
31764,-83.3333333333333,4,1,1,66,0,0
32117,-58.8235294117647,4,1,1,66,0,0
32470,-83.3333333333333,4,1,1,66,0,0
32823,-58.8235294117647,4,1,1,66,0,0
33176,-83.3333333333333,4,1,1,66,0,0
33529,-58.8235294117647,4,1,1,66,0,0
33882,-83.3333333333333,4,1,1,66,0,0
34235,-58.8235294117647,4,1,1,66,0,0
34588,-83.3333333333333,4,1,1,66,0,0
34941,-58.8235294117647,4,1,1,66,0,0
35294,-58.8235294117647,4,1,1,86,0,0
35470,-58.8235294117647,4,1,1,86,0,0
35823,-58.8235294117647,4,1,1,86,0,0
35999,-58.8235294117647,4,1,1,86,0,0
36352,-58.8235294117647,4,1,1,86,0,0
36529,-58.8235294117647,4,1,1,86,0,0
36882,-58.8235294117647,4,1,1,86,0,0
37058,-58.8235294117647,4,1,1,86,0,0
37941,-58.8235294117647,4,1,1,86,0,0
38041,-58.8235294117647,4,1,1,86,0,0
43588,-58.8235294117647,4,1,1,86,0,0
60705,-50,4,1,1,100,0,1
69529,-58.8235294117647,4,1,1,100,0,1
71999,-50,4,1,1,100,0,1
80823,-58.8235294117647,4,1,1,100,0,1
83294,-58.8235294117647,4,1,1,100,0,0
85764,-133.333333333333,4,1,1,60,0,0
86029,-133.333333333333,4,1,1,5,0,0
86117,-80,4,1,1,60,0,0
88941,-56.4971751412429,4,1,1,60,0,0
90352,-66.6666666666667,4,1,1,60,0,0
92117,-80,4,1,1,60,0,0
95764,-54.054054054054,4,1,1,60,0,0
97294,-117.647058823529,4,1,1,60,0,0
97647,-86.9565217391304,4,1,1,5,0,0
97764,-68.9655172413793,4,1,1,60,0,0
98117,-90.9090909090909,4,1,1,60,0,0
98470,-54.054054054054,4,1,1,60,0,0
98823,-74.0740740740741,4,1,1,60,0,0
99176,-54.054054054054,4,1,1,60,0,0
99529,-74.0740740740741,4,1,1,60,0,0
99882,-54.054054054054,4,1,1,60,0,0
100235,-74.0740740740741,4,1,1,60,0,0
100588,-54.054054054054,4,1,1,60,0,0
100941,-74.0740740740741,4,1,1,60,0,0
101294,-54.054054054054,4,1,1,60,0,0
101647,-74.0740740740741,4,1,1,60,0,0
101999,-54.054054054054,4,1,1,60,0,0
103411,-54.054054054054,4,1,1,60,0,0
103764,-74.0740740740741,4,1,1,60,0,0
104117,-54.054054054054,4,1,1,60,0,0
104470,-74.0740740740741,4,1,1,60,0,0
104823,-54.054054054054,4,1,1,60,0,0
105176,-74.0740740740741,4,1,1,60,0,0
105529,-54.054054054054,4,1,1,60,0,0
105882,-74.0740740740741,4,1,1,60,0,0
106235,-54.054054054054,4,1,1,60,0,0
106588,-74.0740740740741,4,1,1,60,0,0
106941,-54.054054054054,4,1,1,60,0,0
107294,-74.0740740740741,4,1,1,60,0,0
107647,-54.054054054054,4,1,1,60,0,0
109058,-54.054054054054,4,1,1,60,0,0
109411,-74.0740740740741,4,1,1,60,0,0
109764,-54.054054054054,4,1,1,60,0,0
110117,-74.0740740740741,4,1,1,60,0,0
110470,-54.054054054054,4,1,1,60,0,0
110823,-74.0740740740741,4,1,1,60,0,0
111176,-54.054054054054,4,1,1,60,0,0
111529,-74.0740740740741,4,1,1,60,0,0
111882,-54.054054054054,4,1,1,60,0,0
112235,-74.0740740740741,4,1,1,60,0,0
112588,-54.054054054054,4,1,1,60,0,0
112941,-74.0740740740741,4,1,1,60,0,0
113294,-54.054054054054,4,1,1,60,0,0
113647,-74.0740740740741,4,1,1,60,0,0
113999,-54.054054054054,4,1,1,60,0,0
114352,-74.0740740740741,4,1,1,60,0,0
114705,-54.054054054054,4,1,1,60,0,0
115058,-74.0740740740741,4,1,1,60,0,0
115411,-54.054054054054,4,1,1,60,0,0
115764,-74.0740740740741,4,1,1,60,0,0
116117,-54.054054054054,4,1,1,60,0,0
116470,-74.0740740740741,4,1,1,60,0,0
116823,-54.054054054054,4,1,1,60,0,0
117176,-74.0740740740741,4,1,1,60,0,0
117529,-54.054054054054,4,1,1,60,0,0
117882,-74.0740740740741,4,1,1,60,0,0
118235,-54.054054054054,4,1,1,60,0,0
118588,-74.0740740740741,4,1,1,60,0,0
118941,-54.054054054054,4,1,1,60,0,0
119294,-74.0740740740741,4,1,1,60,0,0
119647,-54.054054054054,4,1,1,60,0,0
119999,-66.6666666666667,4,1,1,100,0,0
122647,-40,4,1,1,100,0,0
137294,-50,4,1,1,100,0,0
142588,-50,4,1,1,100,0,0
142764,-50,4,1,1,100,0,0
142941,-50,4,1,1,100,0,0
143117,-50,4,1,1,100,0,0
143294,-50,4,1,1,100,0,0
143470,-50,4,1,1,100,0,0
143647,-50,4,1,1,100,0,0
143823,-50,4,1,1,100,0,0
143999,-50,4,1,1,100,0,0
144176,-50,4,1,1,100,0,0
144352,-50,4,1,1,100,0,0
144529,-50,4,1,1,100,0,0
144705,-50,4,1,1,100,0,0
144882,-50,4,1,1,100,0,0
145411,-50,4,1,1,100,0,1
165529,-50,4,1,1,100,0,1
167999,-58.8235294117647,4,1,1,100,0,0
190764,-40,4,1,1,100,0,0
201882,-50,4,1,1,100,0,0
202147,-50,4,1,1,30,0,0
202235,-50,4,1,1,100,0,0
202499,-50,4,1,1,30,0,0
202588,-50,4,1,1,100,0,0
202852,-50,4,1,1,30,0,0
202941,-50,4,1,1,100,0,0
203205,-50,4,1,1,30,0,0
203294,-50,4,1,1,100,0,0
203558,-50,4,1,1,30,0,0
203647,-50,4,1,1,100,0,0
203911,-50,4,1,1,30,0,0
203999,-50,4,1,1,100,0,0
204264,-50,4,1,1,30,0,0
204352,-50,4,1,1,100,0,0
204617,-50,4,1,1,30,0,0
204705,-50,4,1,1,50,0,0
205411,-50,4,1,1,60,0,0
206117,-50,4,1,1,70,0,0
206470,-50,4,1,1,80,0,0
206823,-50,4,1,1,90,0,0
207176,-50,4,1,1,100,0,0
207705,-50,4,1,1,30,0,0

[HitObjects]
365,42,0,5,12,0:0:0:0:
286,122,176,1,4,0:3:0:0:
295,143,264,1,4,0:3:0:0:
310,160,352,1,4,0:3:0:0:
464,192,588,1,8,0:0:0:0:
512,288,705,2,0,P|451:269|368:314,1,158.666669692993,8|8,0:0|0:3,0:0:0:0:
305,369,1058,2,4,P|237:382|187:347,1,130.666662679037,4|4,0:3|0:3,0:0:0:0:
0,384,1411,6,0,P|21:344|85:349,1,111.999996582031,6|0,0:3|0:0,0:0:0:0:
92,357,1764,2,0,P|128:294|108:212,1,158.666669692993,8|0,0:0|0:0,0:0:0:0:
0,88,2117,2,0,P|35:140|78:127,1,111.999996582031,4|0,0:3|0:0,0:0:0:0:
84,116,2470,2,0,P|125:72|234:72,1,158.666669692993,8|0,0:0|0:0,0:0:0:0:
416,60,2823,2,0,P|348:22|316:38,1,111.999996582031,4|0,0:3|0:0,0:0:0:0:
312,45,3176,2,0,P|333:123|284:224,1,158.666669692993,8|0,0:0|0:0,0:0:0:0:
212,276,3529,2,0,L|337:287,1,119.000002269745,4|0,0:3|0:0,0:0:0:0:
224,262,3764,1,8,0:0:0:0:
130,320,3882,2,0,L|5:331,1,119.000002269745,8|0,0:0|0:0,0:0:0:0:
3,341,4117,1,4,0:3:0:0:
74,255,4235,6,0,P|54:193|-1:190,1,111.999996582031,4|0,0:3|0:0,0:0:0:0:
0,193,4588,2,0,P|9:115|96:63,1,158.666669692993,8|0,0:0|0:0,0:0:0:0:
166,0,4941,2,0,P|172:58|148:110,1,111.999996582031,4|0,0:3|0:0,0:0:0:0:
138,116,5294,2,0,P|225:167|265:124,1,158.666669692993,8|0,0:0|0:0,0:0:0:0:
355,54,5647,2,0,P|421:48|452:84,1,111.999996582031,4|0,0:3|0:0,0:0:0:0:
450,93,5999,2,0,P|396:162|388:234,1,158.666669692993,8|0,0:0|0:0,0:0:0:0:
357,356,6352,6,0,B|379:326|379:326|256:331,1,132.999996448517,4|0,0:3|0:0,0:0:0:0:
199,378,6588,1,8,0:0:0:0:
105,303,6705,2,0,B|118:215|118:215|172:220,1,132.999996448517,8|0,0:0|0:0,0:0:0:0:
171,228,6941,1,4,0:3:0:0:
180,238,7411,6,0,P|265:195|136:151,1,315.00000120163,12|0,0:0|0:0,0:0:0:0:
1,199,7764,6,0,P|54:225|52:290,1,111.999996582031,4|0,0:3|0:0,0:0:0:0:
52,286,8117,2,0,P|151:341|239:304,1,158.666669692993,8|0,0:0|0:0,0:0:0:0:
313,384,8470,2,0,P|302:316|265:283,1,111.999996582031,4|0,0:3|0:0,0:0:0:0:
258,295,8823,2,0,P|323:219|307:171,1,158.666669692993,8|0,0:0|0:0,0:0:0:0:
143,97,9176,2,0,P|177:71|259:90,1,119.000002269745,4|0,0:3|0:0,0:0:0:0:
174,59,9411,1,8,0:0:0:0:
317,131,9529,2,0,P|355:149|432:115,1,119.000002269745,8|0,0:0|0:0,0:0:0:0:
418,114,9764,1,4,0:3:0:0:
511,211,9882,6,0,P|451:216|411:262,1,111.999996582031,4|0,0:3|0:0,0:0:0:0:
411,266,10235,2,0,P|349:231|355:147,1,158.666669692993,8|0,0:0|0:0,0:0:0:0:
349,40,10588,2,0,P|311:67|246:64,1,111.999996582031,4|0,0:3|0:0,0:0:0:0:
234,56,10941,2,0,P|184:122|207:170,1,119.000002269745,8|0,0:0|0:0,0:0:0:0:
207,173,11176,5,8,0:0:0:0:
247,205,11235,5,8,0:0:0:0:
255,256,11294,6,0,L|137:267,1,119.000002269745,8|0,0:0|0:0,0:0:0:0:
128,281,11529,1,8,0:3:0:0:
292,328,11647,2,0,L|193:337,1,83.9999974365235,4|0,0:3|0:0,0:0:0:0:
305,318,11882,1,8,0:0:0:0:
64,384,11999,6,0,B|104:374|104:374|118:288,1,119.000002269745,8|0,0:0|0:0,0:0:0:0:
110,288,12235,1,4,0:3:0:0:
58,220,12352,2,0,B|17:205|17:205|60:189,1,83.9999974365235,4|0,0:3|0:0,0:0:0:0:
212,158,12588,1,4,0:3:0:0:
203,167,13058,6,0,P|281:135|157:75,1,315.00000120163,4|0,0:0|0:0,0:0:0:0:
5,148,13411,6,0,P|68:160|91:202,1,111.999996582031,4|0,0:3|0:0,0:0:0:0:
80,210,13764,2,0,P|75:266|162:308,1,158.666669692993,8|0,0:0|0:0,0:0:0:0:
324,384,14117,2,0,P|294:355|217:360,1,111.999996582031,4|0,0:3|0:0,0:0:0:0:
215,365,14470,2,0,P|246:326|247:214,1,158.666669692993,8|0,0:0|0:0,0:0:0:0:
158,114,14823,2,0,P|218:130|272:106,1,111.999996582031,4|0,0:3|0:0,0:0:0:0:
273,101,15176,2,0,P|342:141|325:259,1,158.666669692993,8|0,0:0|0:0,0:0:0:0:
393,370,15529,6,0,P|370:316|315:287,1,111.999996582031,4|0,0:3|0:0,0:0:0:0:
312,297,15882,2,0,P|259:340|173:320,1,158.666669692993,8|0,0:0|0:0,0:0:0:0:
90,382,16235,2,0,P|88:314|47:281,1,111.999996582031,4|0,0:3|0:0,0:0:0:0:
43,291,16588,2,0,P|155:276|183:239,1,158.666669692993,8|0,0:0|0:0,0:0:0:0:
117,91,16941,2,0,P|85:151|88:206,1,111.999996582031,4|0,0:3|0:0,0:0:0:0:
88,204,17294,2,0,P|172:200|250:247,1,158.666669692993,8|0,0:0|0:0,0:0:0:0:
289,316,17647,6,0,B|373:287|373:287|363:320,1,119.000002269745,4|0,0:3|0:0,0:0:0:0:
274,313,17882,1,8,0:0:0:0:
442,359,17999,2,0,B|470:348|470:348|456:251,1,119.000002269745,8|0,0:0|0:0,0:0:0:0:
448,250,18235,1,8,0:3:0:0:
391,172,18588,5,0,0:0:0:0:
473,158,18705,2,0,P|379:97|320:129,1,158.666669692993,8|0,0:0|0:0,0:0:0:0:
140,187,19058,2,0,P|234:126|293:158,1,158.666669692993,4|0,0:3|0:0,0:0:0:0:
225,216,19411,2,0,P|183:274|211:350,1,158.666669692993,8|0,0:0|0:0,0:0:0:0:
137,384,19764,2,0,P|90:323|13:329,1,158.666669692993,4|0,0:3|0:0,0:0:0:0:
32,232,20117,2,0,P|114:230|134:160,1,158.666669692993,8|0,0:0|0:0,0:0:0:0:
79,48,20470,2,0,P|51:147|56:157,1,119.000002269745,4|0,0:3|0:0,0:0:0:0:
59,160,20705,1,8,0:0:0:0:
139,97,20823,2,0,L|262:94,1,119.000002269745,8|0,0:0|0:0,0:0:0:0:
263,99,21058,1,4,0:3:0:0:
364,21,21176,6,0,P|370:78|349:131,1,111.999996582031,4|0,0:3|0:0,0:0:0:0:
337,136,21529,2,0,P|402:162|426:249,1,158.666669692993,8|0,0:0|0:0,0:0:0:0:
508,320,21882,2,0,P|402:338|372:308,1,111.999996582031,4|0,0:3|0:0,0:0:0:0:
396,327,22235,2,0,P|279:312|237:341,1,158.666669692993,8|0,0:0|0:0,0:0:0:0:
149,382,22588,2,0,P|122:334|141:278,1,111.999996582031,4|0,0:3|0:0,0:0:0:0:
146,269,22941,2,0,P|57:241|15:290,1,158.666669692993,8|0,0:0|0:0,0:0:0:0:
44,131,23294,6,0,B|65:113|65:113|166:123,1,119.000002269745,4|0,0:3|0:0,0:0:0:0:
35,139,23529,1,8,0:0:0:0:
250,171,23647,2,0,B|271:189|271:189|372:179,1,119.000002269745,8|0,0:0|0:0,0:0:0:0:
368,175,23882,1,4,0:3:0:0:
382,163,24176,1,0,0:0:0:0:
396,151,24352,6,0,P|416:197|308:197,1,203.000006195069,12|0,0:0|0:0,0:0:0:0:
313,133,24705,2,0,P|253:105|196:118,1,119.000002269745,4|0,0:3|0:0,0:0:0:0:
127,197,25058,1,8,0:0:0:0:
0,210,25235,1,0,0:0:0:0:
71,267,25411,1,4,0:3:0:0:
58,140,25588,1,0,0:0:0:0:
0,316,25764,1,8,0:0:0:0:
146,301,25941,1,0,0:0:0:0:
225,384,26117,2,0,P|268:312|259:276,1,111.999996582031,4|0,0:3|0:0,0:0:0:0:
257,274,26470,2,0,P|309:238|403:260,1,158.666669692993,8|0,0:0|0:0,0:0:0:0:
407,267,26823,5,4,0:3:0:0:
499,309,26999,1,0,0:0:0:0:
460,128,27176,2,0,P|397:128|347:166,1,119.000002269745,8|0,0:0|0:0,0:0:0:0:
188,66,27529,2,0,P|251:66|301:104,1,119.000002269745,4|0,0:3|0:0,0:0:0:0:
327,210,27882,5,8,0:0:0:0:
189,193,28058,1,0,0:0:0:0:
136,292,28235,1,4,0:3:0:0:
358,318,28411,1,0,0:0:0:0:
270,125,28588,1,8,0:0:0:0:
238,384,28764,1,0,0:0:0:0:
108,370,28941,2,0,P|75:348|63:267,1,111.999996582031,4|0,0:3|0:0,0:0:0:0:
63,265,29294,2,0,P|51:173|0:136,1,158.666669692993,8|0,0:0|0:0,0:0:0:0:
50,3,29647,6,0,P|82:75|122:79,1,111.999996582031,4|0,0:3|0:0,0:0:0:0:
118,77,29999,2,0,P|186:121|179:196,1,158.666669692993,8|0,0:0|0:0,0:0:0:0:
145,306,30352,2,0,P|208:271|255:288,1,111.999996582031,4|0,0:3|0:0,0:0:0:0:
249,294,30705,2,0,P|314:346|384:328,1,158.666669692993,8|0,0:0|0:0,0:0:0:0:
511,361,31058,2,0,P|461:309|466:271,1,111.999996582031,4|0,0:3|0:0,0:0:0:0:
473,260,31411,2,0,P|460:167|392:123,1,158.666669692993,8|0,0:0|0:0,0:0:0:0:
419,0,31764,2,0,P|384:44|322:35,1,111.999996582031,4|0,0:3|0:0,0:0:0:0:
319,32,32117,2,0,P|290:112|221:126,1,158.666669692993,8|0,0:0|0:0,0:0:0:0:
187,31,32470,6,0,P|142:48|128:134,1,111.999996582031,4|0,0:3|0:0,0:0:0:0:
122,119,32823,2,0,P|43:166|0:126,1,158.666669692993,8|0,0:0|0:0,0:0:0:0:
0,248,33176,2,0,P|62:259|83:304,1,111.999996582031,4|0,0:3|0:0,0:0:0:0:
81,314,33529,2,0,P|154:346|225:308,1,158.666669692993,8|0,0:0|0:0,0:0:0:0:
319,379,33882,2,0,P|311:284|298:274,1,111.999996582031,4|0,0:3|0:0,0:0:0:0:
290,272,34235,2,0,P|293:151|326:137,1,158.666669692993,8|0,0:0|0:0,0:0:0:0:
488,233,34588,2,0,P|407:233|363:217,1,111.999996582031,4|0,0:3|0:0,0:0:0:0:
364,214,34941,2,0,P|416:142|398:71,1,158.666669692993,8|0,0:0|0:0,0:0:0:0:
310,3,35294,5,12,0:0:0:0:
263,103,35470,1,4,0:3:0:0:
173,40,35647,1,4,0:3:0:0:
65,222,35823,5,12,0:0:0:0:
57,62,35999,1,4,0:3:0:0:
181,164,36176,1,4,0:3:0:0:
68,355,36352,5,12,0:0:0:0:
310,316,36529,1,0,0:0:0:0:
97,141,36705,1,0,0:0:0:0:
201,384,36882,5,12,0:0:0:0:
265,50,37058,1,4,0:3:0:0:
502,290,37235,1,4,0:3:0:0:
77,240,37411,5,8,0:0:0:0:
451,164,37588,1,4,0:3:0:0:
92,50,37764,5,8,0:0:0:0:
360,111,37941,2,0,B|331:153|345:225|360:225|374:225|388:282|360:339,1,238.00000453949,4|0,0:0|0:0,0:0:0:0:
226,381,38470,5,8,0:0:0:0:
243,255,38647,1,4,0:3:0:0:
60,335,38823,5,8,0:0:0:0:
77,209,39000,1,4,0:3:0:0:
314,326,39176,5,8,0:0:0:0:
331,200,39353,1,4,0:3:0:0:
148,280,39529,5,8,0:0:0:0:
165,154,39705,1,4,0:3:0:0:
285,59,39882,5,8,0:0:0:0:
411,76,40058,1,4,0:3:0:0:
339,190,40235,5,8,0:0:0:0:
465,207,40412,1,4,0:3:0:0:
129,121,40588,5,8,0:0:0:0:
255,138,40765,1,4,0:3:0:0:
0,214,40941,5,12,0:0:0:0:
47,314,41117,1,4,0:3:0:0:
137,251,41294,1,4,0:3:0:0:
233,376,41470,5,12,0:0:0:0:
291,260,41646,1,4,0:3:0:0:
393,384,41823,1,4,0:3:0:0:
447,183,41999,5,12,0:0:0:0:
204,297,42176,1,4,0:3:0:0:
219,84,42352,1,4,0:3:0:0:
75,226,42529,5,12,0:0:0:0:
395,292,42705,1,4,0:3:0:0:
299,15,42882,1,4,0:3:0:0:
237,347,43058,5,12,0:0:0:0:
346,83,43235,1,4,0:3:0:0:
119,157,43411,5,8,0:0:0:0:
459,242,43588,2,0,B|429:163|429:163|453:103|453:103|420:21,1,238.00000453949,4|0,0:0|0:0,0:0:0:0:
322,119,44117,5,8,0:0:0:0:
183,157,44294,2,4,P|165:229|166:273,1,119.000002269745,4|4,0:3|0:3,0:0:0:0:
194,344,44647,1,4,0:3:0:0:
67,272,44823,1,8,0:0:0:0:
273,230,44999,6,4,P|326:234|385:260,1,119.000002269745,4|4,0:3|0:3,0:0:0:0:
435,315,45352,1,4,0:3:0:0:
267,317,45529,1,8,0:0:0:0:
168,191,45705,2,4,P|208:156|268:133,1,119.000002269745,4|4,0:3|0:3,0:0:0:0:
346,117,46058,1,4,0:3:0:0:
476,6,46235,2,0,L|466:126,1,119.000002269745,8|4,0:0|0:3,0:0:0:0:
375,261,46588,5,12,0:0:0:0:
296,380,46764,1,4,0:3:0:0:
221,257,46941,1,4,0:3:0:0:
413,351,47117,5,12,0:0:0:0:
300,166,47294,1,4,0:3:0:0:
182,345,47470,1,4,0:3:0:0:
451,148,47647,5,12,0:0:0:0:
174,89,47823,1,4,0:3:0:0:
390,55,47999,1,4,0:3:0:0:
257,262,48176,5,12,0:0:0:0:
49,52,48352,1,4,0:3:0:0:
47,344,48529,1,4,0:3:0:0:
189,92,48705,5,12,0:0:0:0:
314,352,48882,1,4,0:3:0:0:
303,38,49058,5,8,0:0:0:0:
200,341,49235,2,0,B|155:386|155:386|167:208,1,238.00000453949,4|0,0:0|0:0,0:0:0:0:
90,62,49764,5,8,0:0:0:0:
216,79,49940,1,4,0:3:0:0:
276,203,50117,5,8,0:0:0:0:
402,220,50293,1,4,0:3:0:0:
123,257,50470,5,8,0:0:0:0:
144,96,50646,1,4,0:3:0:0:
348,156,50823,5,8,0:0:0:0:
370,2,50999,1,4,0:3:0:0:
238,213,51176,5,8,0:0:0:0:
261,377,51352,1,4,0:3:0:0:
83,163,51529,5,8,0:0:0:0:
31,384,51706,1,4,0:3:0:0:
172,56,51882,5,8,0:0:0:0:
199,291,52059,1,4,0:3:0:0:
371,148,52235,5,4,0:0:0:0:
325,37,52411,2,0,P|270:57|236:106,1,119.000002269745,4|8,0:3|0:0,0:0:0:0:
251,211,52764,1,0,0:0:0:0:
157,263,52941,2,0,P|203:296|264:305,1,119.000002269745,0|4,0:0|0:3,0:0:0:0:
395,233,53294,1,8,0:0:0:0:
339,378,53470,1,4,0:3:0:0:
441,326,53647,1,4,0:3:0:0:
284,200,53823,2,0,B|255:180|255:180|174:201,1,119.000002269745,4|8,0:3|0:0,0:0:0:0:
74,253,54176,5,4,0:3:0:0:
170,317,54352,1,4,0:3:0:0:
195,132,54529,1,4,0:3:0:0:
72,36,54705,2,0,L|84:167,1,119.000002269745,8|4,0:0|0:3,0:0:0:0:
251,51,55058,6,0,B|284:48|284:48|334:70|334:70|367:68,1,119.000002269745,4|4,0:0|0:3,0:0:0:0:
511,94,55411,1,8,0:0:0:0:
440,220,55588,1,4,0:3:0:0:
353,138,55764,2,0,P|290:136|223:170,1,119.000002269745,4|4,0:3|0:3,0:0:0:0:
148,257,56117,1,8,0:0:0:0:
212,334,56294,6,4,P|255:280|247:224,1,119.000002269745,4|4,0:3|0:3,0:0:0:0:
454,230,56647,1,4,0:3:0:0:
382,150,56823,2,0,P|339:204|347:260,1,119.000002269745,8|4,0:0|0:3,0:0:0:0:
395,342,57176,1,4,0:3:0:0:
484,203,57352,1,4,0:3:0:0:
399,56,57529,1,8,0:0:0:0:
257,121,57705,1,4,0:3:0:0:
257,121,57794,1,4,0:3:0:0:
257,121,57882,5,8,0:0:0:0:
256,208,58058,1,4,0:3:0:0:
268,111,58235,5,4,0:3:0:0:
244,217,58411,1,4,0:3:0:0:
284,95,58588,5,4,0:3:0:0:
228,219,58764,1,4,0:3:0:0:
307,80,58941,5,4,0:3:0:0:
206,217,59117,1,4,0:3:0:0:
336,68,59294,5,4,0:3:0:0:
177,208,59470,1,4,0:3:0:0:
372,73,59647,5,4,0:3:0:0:
141,203,59823,1,4,0:3:0:0:
404,103,59999,5,8,0:0:0:0:
310,127,60176,1,4,0:3:0:0:
112,184,60352,5,8,0:0:0:0:
206,160,60529,1,4,0:3:0:0:
481,286,60705,6,0,B|431:320|346:303|346:286|346:269|279:252|211:286,1,280,4|8,0:0|0:0,0:0:0:0:
284,371,61235,1,8,0:0:0:0:
81,318,61411,1,0,0:0:0:0:
223,203,61588,1,4,0:3:0:0:
172,384,61764,1,8,0:0:0:0:
107,201,61941,1,4,0:3:0:0:
303,173,62117,1,4,0:3:0:0:
243,0,62294,1,0,0:0:0:0:
188,109,62470,5,8,0:0:0:0:
365,72,62647,1,8,0:0:0:0:
226,254,62823,1,0,0:0:0:0:
414,219,63000,1,4,0:3:0:0:
338,354,63176,1,8,0:0:0:0:
273,56,63352,1,4,0:3:0:0:
159,361,63529,6,0,B|126:298|126:298|163:160|163:160|133:96,1,280,4|8,0:0|0:0,0:0:0:0:
41,223,64058,1,8,0:0:0:0:
284,64,64235,1,0,0:0:0:0:
257,346,64411,1,4,0:3:0:0:
184,38,64588,1,8,0:0:0:0:
403,255,64764,1,4,0:3:0:0:
126,359,64941,1,4,0:3:0:0:
362,68,65117,1,0,0:0:0:0:
365,353,65294,5,8,0:0:0:0:
205,141,65470,1,8,0:0:0:0:
217,312,65647,1,0,0:0:0:0:
364,215,65823,1,4,0:3:0:0:
121,55,65999,1,8,0:0:0:0:
126,358,66176,1,4,0:3:0:0:
300,41,66352,6,0,B|355:2|355:2|364:232,1,280,4|8,0:0|0:0,0:0:0:0:
368,357,66882,1,8,0:0:0:0:
167,157,67058,1,0,0:0:0:0:
114,350,67235,1,4,0:3:0:0:
306,128,67411,1,8,0:0:0:0:
91,28,67588,1,4,0:3:0:0:
260,300,67764,1,4,0:3:0:0:
240,7,67941,1,0,0:0:0:0:
54,214,68117,5,8,0:0:0:0:
383,220,68294,1,8,0:0:0:0:
20,98,68470,1,0,0:0:0:0:
168,376,68647,1,4,0:3:0:0:
366,79,68823,1,8,0:0:0:0:
16,293,68999,1,4,0:3:0:0:
156,84,69176,6,0,B|203:81|203:81|235:85|235:85|377:78,1,210,4|0,0:0|0:0,0:0:0:0:
373,84,69529,2,8,L|372:204,1,119.000002269745,8|8,0:0|0:0,0:0:0:0:
336,291,69882,1,0,0:0:0:0:
157,218,70058,2,0,P|220:211|285:219,1,119.000002269745,4|8,0:3|0:0,0:0:0:0:
246,338,70411,1,4,0:3:0:0:
63,180,70588,6,0,L|56:307,1,119.000002269745,0|0,0:0|0:0,0:0:0:0:
218,97,70941,2,8,L|225:224,1,119.000002269745,8|8,0:0|0:0,0:0:0:0:
170,305,71294,1,0,0:0:0:0:
311,36,71470,1,4,0:3:0:0:
273,316,71647,1,8,0:0:0:0:
507,70,71823,1,4,0:3:0:0:
469,350,71999,6,0,P|426:311|424:103,1,280,4|8,0:0|0:0,0:0:0:0:
493,215,72529,1,8,0:0:0:0:
253,138,72705,1,0,0:0:0:0:
390,303,72882,1,4,0:3:0:0:
217,253,73058,1,8,0:0:0:0:
401,115,73235,1,4,0:3:0:0:
289,337,73411,1,4,0:3:0:0:
134,126,73588,1,0,0:0:0:0:
427,167,73764,5,8,0:0:0:0:
142,326,73941,1,8,0:0:0:0:
419,308,74117,1,0,0:0:0:0:
75,227,74294,1,4,0:3:0:0:
264,58,74470,1,8,0:0:0:0:
266,358,74647,1,4,0:3:0:0:
471,181,74823,6,0,B|392:175|392:175|343:198|343:198|195:187,1,280,4|8,0:0|0:0,0:0:0:0:
331,104,75352,1,8,0:0:0:0:
345,313,75529,1,0,0:0:0:0:
465,91,75705,1,4,0:3:0:0:
216,271,75882,1,8,0:0:0:0:
393,22,76058,1,4,0:3:0:0:
339,325,76235,1,4,0:3:0:0:
494,5,76411,1,0,0:0:0:0:
133,64,76588,5,8,0:0:0:0:
418,264,76764,1,8,0:0:0:0:
338,0,76941,1,0,0:0:0:0:
114,261,77117,1,4,0:3:0:0:
470,146,77294,1,8,0:0:0:0:
186,9,77470,1,4,0:3:0:0:
259,336,77647,6,0,L|292:49,1,280,4|8,0:0|0:0,0:0:0:0:
150,170,78176,1,8,0:0:0:0:
403,242,78352,1,0,0:0:0:0:
142,323,78529,1,4,0:3:0:0:
259,41,78705,1,8,0:0:0:0:
308,346,78882,1,4,0:3:0:0:
74,245,79058,1,4,0:3:0:0:
387,109,79235,1,0,0:0:0:0:
90,74,79411,5,8,0:0:0:0:
412,267,79588,1,8,0:0:0:0:
162,331,79764,1,0,0:0:0:0:
247,29,79941,1,4,0:3:0:0:
20,181,80117,1,8,0:0:0:0:
329,363,80294,1,4,0:3:0:0:
351,47,80470,6,0,B|312:120|312:120|311:175|311:175|278:246,1,210,4|0,0:0|0:0,0:0:0:0:
279,256,80823,2,0,L|156:255,1,119.000002269745,8|8,0:0|0:0,0:0:0:0:
76,329,81176,1,0,0:0:0:0:
145,131,81352,2,0,L|148:271,1,119.000002269745,4|8,0:3|0:0,0:0:0:0:
121,119,81705,1,4,0:3:0:0:
318,79,81882,2,0,L|199:63,1,119.000002269745,4|0,0:3|0:0,0:0:0:0:
294,189,82235,2,0,L|413:173,1,119.000002269745,8|8,0:0|0:0,0:0:0:0:
187,164,82588,5,0,0:0:0:0:
56,242,82764,1,4,0:3:0:0:
199,324,82941,2,0,L|332:325,1,119.000002269745,8|4,0:0|0:3,0:0:0:0:
474,328,83294,1,6,0:3:0:0:
472,113,85764,6,0,B|429:148|429:148|423:170,1,78.7500030040742,0|0,0:0|0:0,0:0:0:0:
402,278,86117,6,0,P|374:268|354:247,1,58.3333333333333,6|0,0:3|0:0,0:0:0:0:
316,157,86352,1,0,0:0:0:0:
292,304,86470,2,0,P|279:277|279:248,1,58.3333333333333,8|0,0:0|0:0,0:0:0:0:
316,157,86705,1,0,0:0:0:0:
209,242,86823,6,0,P|143:256|118:234,1,58.3333333333333,4|0,0:3|0:0,0:0:0:0:
72,200,87058,1,0,0:0:0:0:
130,332,87176,2,0,P|77:290|78:257,1,58.3333333333333,8|0,0:0|0:0,0:0:0:0:
72,200,87411,1,0,0:0:0:0:
145,116,87529,6,0,L|189:77,1,58.3333333333333,4|0,0:3|0:0,0:0:0:0:
270,2,87764,1,0,0:0:0:0:
243,170,87882,2,0,L|254:112,1,58.3333333333333,8|0,0:0|0:0,0:0:0:0:
270,2,88117,1,0,0:0:0:0:
392,20,88235,6,0,B|426:26|426:26|457:59,1,58.3333333333333,4|0,0:3|0:0,0:0:0:0:
495,139,88470,1,8,0:0:0:0:
444,235,88588,1,8,0:0:0:0:
206,274,88823,1,4,0:3:0:0:
214,357,88941,6,0,L|206:274,1,82.600002678299,4|0,0:3|0:0,0:0:0:0:
194,153,89176,1,0,0:0:0:0:
28,273,89294,6,0,L|95:225,1,82.600002678299,8|0,0:0|0:0,0:0:0:0:
194,153,89529,1,0,0:0:0:0:
381,237,89647,6,0,L|305:202,1,82.600002678299,4|0,0:3|0:0,0:0:0:0:
194,153,89882,1,0,0:0:0:0:
7,70,89999,6,0,L|82:104,1,82.600002678299,8|0,0:0|0:0,0:0:0:0:
194,153,90235,1,0,0:0:0:0:
267,59,90352,6,0,P|296:40|330:32,1,70.0000026702882,4|0,0:3|0:0,0:0:0:0:
347,147,90588,1,0,0:0:0:0:
330,32,90705,6,0,P|364:34|397:46,1,70.0000026702882,8|0,0:0|0:0,0:0:0:0:
347,147,90941,1,0,0:0:0:0:
512,166,91058,6,0,P|478:161|442:176,1,70.0000026702882,4|0,0:3|0:0,0:0:0:0:
296,283,91294,1,8,0:0:0:0:
494,378,91411,1,8,0:0:0:0:
347,147,91647,5,4,0:3:0:0:
157,305,92117,6,0,P|135:324|108:336,1,58.3333333333333,12|0,0:0|0:0,0:0:0:0:
4,346,92352,1,0,0:0:0:0:
93,245,92470,6,0,P|114:225|141:213,1,58.3333333333333,4|0,0:3|0:0,0:0:0:0:
246,204,92705,1,0,0:0:0:0:
335,103,92823,2,0,P|356:83|383:71,1,58.3333333333333,8|0,0:0|0:0,0:0:0:0:
488,62,93058,1,0,0:0:0:0:
399,163,93176,6,0,P|377:182|350:194,1,58.3333333333333,4|0,0:3|0:0,0:0:0:0:
246,204,93411,1,0,0:0:0:0:
157,103,93529,2,0,P|135:83|108:71,1,58.3333333333333,8|0,0:0|0:0,0:0:0:0:
4,62,93764,1,0,0:0:0:0:
20,171,93882,6,0,B|36:188|36:188|70:194,1,58.3333333333333,4|0,0:3|0:0,0:0:0:0:
150,193,94117,1,8,0:0:0:0:
157,270,94235,1,8,0:0:0:0:
419,346,94470,1,4,0:3:0:0:
352,185,94588,5,4,0:3:0:0:
316,319,94705,1,0,0:0:0:0:
448,280,94823,1,0,0:0:0:0:
272,160,94941,5,8,0:0:0:0:
372,260,95058,1,0,0:0:0:0:
404,126,95176,1,0,0:0:0:0:
215,213,95294,5,4,0:3:0:0:
352,185,95411,1,0,0:0:0:0:
259,84,95529,1,0,0:0:0:0:
228,294,95647,5,8,0:0:0:0:
129,201,95764,2,0,P|93:206|79:213,1,43.75,0|0,0:0|0:0,0:0:0:0:
39,278,95882,1,8,0:0:0:0:
53,322,95999,5,8,0:0:0:0:
366,368,96235,5,8,0:3:0:0:
352,185,96470,5,0,0:0:0:0:
259,84,96588,5,8,0:0:0:0:
286,263,96705,5,8,0:0:0:0:
432,295,96823,5,0,0:0:0:0:
487,184,96941,1,4,0:3:0:0:
433,113,97058,1,4,0:3:0:0:
159,255,97294,6,0,P|81:245|48:206,1,119.000002269745,4|0,0:3|0:0,0:0:0:0:
137,33,97764,6,0,B|162:115|162:115|130:173,1,152.250004646301,4|0,0:0|0:0,0:0:0:0:
198,116,98117,2,0,P|247:142|267:195,1,115.50000352478,4|0,0:3|0:0,0:0:0:0:
316,383,98470,6,0,L|265:186,1,194.249999258995,8|0,0:0|0:0,0:0:0:0:
399,168,98823,2,0,P|337:200|267:195,1,141.750000540733,4|0,0:3|0:0,0:0:0:0:
194,276,99176,6,0,L|0:276,1,194.249999258995,8|0,0:0|0:0,0:0:0:0:
67,212,99529,2,0,P|90:275|63:341,1,141.750000540733,4|0,0:3|0:0,0:0:0:0:
138,177,99882,6,0,P|169:267|144:359,1,194.249999258995,8|0,0:0|0:0,0:0:0:0:
257,298,100235,2,0,P|213:350|143:359,1,141.750000540733,4|0,0:3|0:0,0:0:0:0:
378,177,100588,6,0,B|285:204|285:204|255:303,1,194.249999258995,8|0,0:0|0:0,0:0:0:0:
383,284,100941,2,0,P|298:316|239:278,1,141.750000540733,4|0,0:3|0:0,0:0:0:0:
257,123,101294,6,0,B|217:212|217:212|269:249|251:330,1,194.249999258995,8|0,0:0|0:0,0:0:0:0:
349,384,101647,2,0,P|269:340|259:271,1,141.750000540733,4|0,0:3|0:0,0:0:0:0:
149,154,101999,6,0,P|73:68|-18:73,1,194.249999258995,8|0,0:0|0:0,0:0:0:0:
177,38,102352,6,0,P|268:50|275:47,1,86.3333330039978,4|0,0:3|0:0,0:0:0:0:
369,10,102588,1,8,0:0:0:0:
380,139,102705,2,0,P|408:73|448:58,1,86.3333330039978,8|0,0:0|0:0,0:0:0:0:
508,32,102941,1,8,0:3:0:0:
396,306,103411,6,0,P|329:350|227:333,1,172.666666007996,8|0,0:0|0:0,0:0:0:0:
223,260,103764,2,0,P|170:292|157:352,1,126.000000480652,4|0,0:3|0:0,0:0:0:0:
223,260,104117,6,0,P|193:185|100:140,1,172.666666007996,8|0,0:0|0:0,0:0:0:0:
55,197,104470,2,0,P|30:140|54:84,1,126.000000480652,4|0,0:3|0:0,0:0:0:0:
271,107,104823,6,0,P|204:151|101:134,1,172.666666007996,8|0,0:0|0:0,0:0:0:0:
97,62,105176,2,0,P|44:93|31:153,1,126.000000480652,4|8,0:3|0:0,0:0:0:0:
115,142,105529,6,0,P|190:181|223:260,1,172.666666007996,8|4,0:0|0:3,0:0:0:0:
157,350,105882,2,0,P|170:290|223:258,1,126.000000480652,4|0,0:3|0:0,0:0:0:0:
399,264,106235,6,0,P|487:233|512:143,1,194.249999258995,8|0,0:0|0:0,0:0:0:0:
411,75,106588,2,0,P|427:118|536:130,1,141.750000540733,4|0,0:3|0:0,0:0:0:0:
341,45,106941,6,0,B|222:-3|222:-3|142:39,1,194.249999258995,8|0,0:0|0:0,0:0:0:0:
306,110,107294,2,0,B|227:76|227:76|144:121,1,141.750000540733,4|0,0:3|0:0,0:0:0:0:
87,3,107647,6,0,L|120:197,1,194.249999258995,8|0,0:0|0:0,0:0:0:0:
134,301,107999,6,0,P|160:334|201:343,1,86.3333330039978,4|0,0:3|0:0,0:0:0:0:
301,255,108235,1,8,0:0:0:0:
384,324,108352,2,0,P|428:345|494:324,1,86.3333330039978,8|0,0:0|0:0,0:0:0:0:
438,249,108588,1,4,0:3:0:0:
137,55,109058,6,0,B|192:128|192:128|280:133,1,172.666666007996,12|0,0:0|0:0,0:0:0:0:
329,30,109411,2,0,B|277:76|277:76|273:147,1,126.000000480652,4|0,0:3|0:0,0:0:0:0:
410,210,109764,6,0,B|355:137|355:137|267:131,1,172.666666007996,8|0,0:0|0:0,0:0:0:0:
218,235,110117,2,0,B|270:189|270:189|274:118,1,126.000000480652,4|0,0:3|0:0,0:0:0:0:
406,60,110470,6,0,B|383:107|351:132|351:132|292:111|262:139,1,172.666666007996,8|0,0:0|0:0,0:0:0:0:
339,230,110823,2,0,P|280:175|279:96,1,126.000000480652,4|0,0:3|0:0,0:0:0:0:
139,204,111176,6,0,B|161:156|193:131|193:131|252:152|282:124,1,172.666666007996,8|0,0:0|0:0,0:0:0:0:
206,34,111529,2,0,P|264:88|265:167,1,126.000000480652,4|0,0:3|0:0,0:0:0:0:
278,274,111882,6,0,P|309:350|410:383,1,172.666666007996,8|0,0:0|0:0,0:0:0:0:
390,241,112235,2,0,P|359:283|412:289,1,126.000000480652,4|0,0:3|0:0,0:0:0:0:
498,273,112588,6,0,P|467:349|366:382,1,172.666666007996,8|0,0:0|0:0,0:0:0:0:
390,241,112941,2,0,P|420:283|367:289,1,126.000000480652,4|0,0:3|0:0,0:0:0:0:
314,197,113294,6,0,P|248:192|197:279,1,172.666666007996,8|0,0:0|0:0,0:0:0:0:
83,271,113647,2,0,P|137:249|211:296,1,126.000000480652,4|0,0:3|0:0,0:0:0:0:
78,369,113999,6,0,P|11:317|0:234,1,172.666666007996,8|0,0:0|0:0,0:0:0:0:
43,131,114352,2,0,P|49:172|-5:235,1,126.000000480652,4|0,0:3|0:0,0:0:0:0:
87,183,114705,6,0,P|156:98|147:17,1,172.666666007996,8|0,0:0|0:0,0:0:0:0:
15,44,115058,2,0,P|75:98|60:109,1,126.000000480652,4|0,0:3|0:0,0:0:0:0:
218,154,115411,6,0,B|310:173|310:173|401:136,1,172.666666007996,8|0,0:0|0:0,0:0:0:0:
325,28,115764,2,0,B|309:96|309:96|369:72,1,126.000000480652,4|0,0:3|0:0,0:0:0:0:
457,0,116117,6,0,B|497:100|497:100|483:163,1,172.666666007996,8|0,0:0|0:0,0:0:0:0:
431,277,116470,2,0,B|423:222|423:222|461:260|510:243,1,126.000000480652,4|0,0:3|0:0,0:0:0:0:
343,304,116823,6,0,P|259:304|171:252,1,172.666666007996,8|0,0:0|0:0,0:0:0:0:
152,193,117176,2,0,P|150:272|94:301,1,126.000000480652,4|0,0:3|0:0,0:0:0:0:
36,152,117529,6,0,P|-25:207|12:284,1,172.666666007996,8|0,0:0|0:0,0:0:0:0:
47,224,117882,2,0,P|102:190|86:102,1,126.000000480652,4|0,0:3|0:0,0:0:0:0:
202,73,118235,6,0,P|263:128|226:205,1,172.666666007996,8|0,0:0|0:0,0:0:0:0:
191,145,118588,2,0,P|136:111|152:23,1,126.000000480652,4|0,0:3|0:0,0:0:0:0:
319,30,118941,6,0,P|396:54|397:135,1,172.666666007996,8|0,0:0|0:0,0:0:0:0:
365,202,119294,2,0,P|323:157|334:97,1,126.000000480652,4|0,0:3|0:0,0:0:0:0:
447,223,119647,6,0,P|369:282|285:244,1,172.666666007996,8|0,0:0|0:0,0:0:0:0:
109,82,119999,5,12,0:0:0:0:
371,357,120176,1,4,0:3:0:0:
365,202,120352,1,4,0:3:0:0:
51,143,120529,5,12,0:0:0:0:
429,292,120706,1,4,0:3:0:0:
327,99,120882,1,4,0:3:0:0:
29,233,121058,5,12,0:0:0:0:
456,209,121235,1,0,0:0:0:0:
256,64,121411,1,0,0:0:0:0:
29,332,121588,5,12,0:0:0:0:
445,123,121765,1,4,0:3:0:0:
173,56,121941,1,4,0:3:0:0:
136,373,122117,5,8,0:0:0:0:
391,46,122294,1,4,0:3:0:0:
376,373,122470,5,8,0:0:0:0:
92,23,122647,1,4,0:0:0:0:
92,23,122999,5,0,0:0:0:0:
240,271,123176,2,0,P|205:348|127:384,1,175,8|4,0:0|0:3,0:0:0:0:
170,96,123529,2,0,P|224:29|309:16,1,175,8|4,0:0|0:3,0:0:0:0:
163,275,123882,2,0,P|83:309|0:291,1,175,8|4,0:0|0:3,0:0:0:0:
336,81,124235,2,0,P|415:46|499:66,1,175,8|4,0:0|0:3,0:0:0:0:
92,187,124588,2,0,P|23:135|0:53,1,175,8|4,0:0|0:3,0:0:0:0:
418,183,124941,2,0,P|487:235|512:318,1,175,8|4,0:0|0:3,0:0:0:0:
185,160,125294,2,0,P|143:85|155:0,1,175,8|4,0:0|0:3,0:0:0:0:
373,321,125647,5,12,0:0:0:0:
281,30,125823,1,4,0:3:0:0:
444,94,125999,1,4,0:3:0:0:
139,321,126176,5,12,0:0:0:0:
231,30,126352,1,4,0:3:0:0:
68,94,126528,1,4,0:3:0:0:
208,368,126705,5,12,0:0:0:0:
354,73,126882,1,4,0:3:0:0:
435,200,127058,1,4,0:3:0:0:
304,368,127235,5,12,0:0:0:0:
158,73,127412,1,4,0:3:0:0:
77,200,127588,1,4,0:3:0:0:
383,313,127764,5,12,0:0:0:0:
30,84,127941,1,4,0:3:0:0:
466,281,128117,5,8,0:0:0:0:
97,364,128294,1,4,0:0:0:0:
288,76,128647,5,0,0:0:0:0:
48,124,128823,2,0,P|122:169|205:151,1,175,8|4,0:0|0:3,0:0:0:0:
324,0,129176,1,4,0:3:0:0:
385,223,129352,1,4,0:3:0:0:
168,247,129529,6,0,P|136:166|151:81,1,175,8|4,0:0|0:3,0:0:0:0:
365,15,129882,1,4,0:3:0:0:
93,26,130058,1,4,0:3:0:0:
288,208,130235,6,0,P|442:247|488:202,1,175,8|4,0:0|0:3,0:0:0:0:
510,85,130588,1,4,0:3:0:0:
248,112,130764,1,4,0:3:0:0:
413,372,130941,1,8,0:0:0:0:
379,104,131117,1,4,0:3:0:0:
493,334,131294,5,12,0:0:0:0:
303,47,131470,1,4,0:3:0:0:
242,256,131647,1,4,0:3:0:0:
475,134,131823,5,12,0:0:0:0:
137,65,131999,1,4,0:3:0:0:
242,256,132176,1,4,0:3:0:0:
321,5,132352,5,12,0:0:0:0:
33,195,132528,1,4,0:3:0:0:
242,256,132705,1,4,0:3:0:0:
121,23,132882,5,12,0:0:0:0:
51,360,133058,1,4,0:3:0:0:
242,256,133235,1,4,0:3:0:0:
338,42,133411,5,12,0:0:0:0:
214,323,133588,1,4,0:3:0:0:
28,133,133764,5,8,0:0:0:0:
448,277,133941,1,4,0:0:0:0:
7,306,134294,5,0,0:0:0:0:
355,123,134470,1,8,0:0:0:0:
141,358,134647,5,4,0:3:0:0:
361,26,134823,1,8,0:0:0:0:
92,219,134999,5,4,0:3:0:0:
383,199,135176,1,8,0:0:0:0:
145,324,135352,5,4,0:3:0:0:
275,63,135529,1,8,0:0:0:0:
323,357,135705,5,4,0:3:0:0:
159,71,135882,1,8,0:0:0:0:
252,368,136058,5,4,0:3:0:0:
210,4,136235,1,8,0:0:0:0:
354,384,136411,5,4,0:3:0:0:
470,33,136588,1,8,0:0:0:0:
158,384,136764,5,4,0:3:0:0:
42,33,136941,6,0,B|88:162|88:162|168:189|168:189|217:334,1,350,4|8,0:0|0:0,0:0:0:0:
97,250,137470,1,0,0:0:0:0:
155,98,137647,1,0,0:0:0:0:
88,272,137823,1,4,0:3:0:0:
229,19,137999,5,8,0:0:0:0:
332,162,138176,1,4,0:3:0:0:
216,0,138352,1,4,0:3:0:0:
350,185,138529,1,4,0:3:0:0:
499,35,138705,5,8,0:0:0:0:
453,246,138882,1,4,0:3:0:0:
503,14,139058,1,4,0:3:0:0:
448,266,139235,1,4,0:3:0:0:
281,90,139411,5,8,0:0:0:0:
98,231,139588,1,4,0:3:0:0:
359,34,139764,5,4,0:0:0:0:
160,67,139941,1,4,0:3:0:0:
390,345,140117,5,8,0:0:0:0:
282,196,140294,1,4,0:3:0:0:
403,363,140470,1,4,0:3:0:0:
268,177,140647,1,4,0:3:0:0:
27,307,140823,5,8,0:0:0:0:
92,121,140999,1,4,0:3:0:0:
16,337,141176,1,4,0:3:0:0:
102,90,141352,1,4,0:3:0:0:
391,188,141529,5,8,0:0:0:0:
205,37,141705,1,4,0:3:0:0:
425,216,141882,1,4,0:3:0:0:
170,8,142058,1,4,0:3:0:0:
169,336,142235,5,8,0:0:0:0:
455,312,142411,1,4,0:3:0:0:
256,192,142588,5,8,0:0:0:0:
192,128,142764,1,4,0:3:0:0:
176,240,142941,1,4,0:3:0:0:
304,288,143117,1,4,0:3:0:0:
288,112,143294,1,4,0:3:0:0:
112,192,143470,1,4,0:3:0:0:
256,368,143647,1,4,0:3:0:0:
432,192,143823,1,4,0:3:0:0:
240,16,143999,1,4,0:3:0:0:
96,336,144176,1,4,0:3:0:0:
464,112,144352,1,4,0:3:0:0:
92,3,144529,1,4,0:3:0:0:
318,384,144705,1,8,0:0:0:0:
320,16,144882,5,4,0:3:0:0:
96,384,145058,1,8,0:0:0:0:
192,16,145235,5,4,0:3:0:0:
416,384,145411,1,4,0:0:0:0:
30,56,145764,5,8,0:0:0:0:
215,239,145941,2,0,P|333:252|395:226,1,140,8|0,0:0|0:0,0:0:0:0:
450,55,146294,1,4,0:3:0:0:
205,88,146470,2,0,P|222:154|313:178,1,140,8|4,0:0|0:3,0:0:0:0:
506,124,146823,1,4,0:3:0:0:
286,99,146999,1,0,0:0:0:0:
332,347,147176,1,8,0:0:0:0:
156,186,147352,2,0,P|132:120|141:52,1,140,8|0,0:0|0:0,0:0:0:0:
321,7,147705,1,4,0:3:0:0:
145,255,147882,1,8,0:0:0:0:
422,134,148058,1,4,0:3:0:0:
55,0,148235,1,4,0:0:0:0:
108,332,148588,5,8,0:0:0:0:
383,325,148764,2,0,P|448:300|492:247,1,140,8|0,0:0|0:0,0:0:0:0:
437,4,149117,1,4,0:3:0:0:
278,227,149294,2,0,P|348:256|425:228,1,140,8|4,0:0|0:3,0:0:0:0:
511,72,149647,1,4,0:3:0:0:
349,171,149823,1,0,0:0:0:0:
232,28,149999,1,8,0:0:0:0:
198,243,150176,2,0,P|246:294|310:323,1,140,8|0,0:0|0:0,0:0:0:0:
512,176,150529,1,4,0:3:0:0:
176,176,150705,1,8,0:0:0:0:
346,384,150882,1,4,0:3:0:0:
512,0,151058,1,4,0:0:0:0:
235,274,151411,5,8,0:0:0:0:
10,132,151588,2,0,P|-12:50|27:-29,1,140,8|0,0:0|0:0,0:0:0:0:
260,172,151941,1,4,0:3:0:0:
23,268,152117,2,0,P|54:205|113:170,1,140,8|4,0:0|0:3,0:0:0:0:
354,110,152470,1,4,0:3:0:0:
133,277,152647,1,0,0:0:0:0:
167,19,152823,1,8,0:0:0:0:
236,262,152999,2,0,P|225:330|177:378,1,140,8|0,0:0|0:0,0:0:0:0:
0,203,153352,1,4,0:3:0:0:
288,47,153529,1,8,0:0:0:0:
133,277,153705,1,4,0:3:0:0:
4,0,153882,1,4,0:0:0:0:
306,280,154235,5,8,0:0:0:0:
475,16,154411,2,0,B|441:83|441:83|329:95,1,140,8|0,0:0|0:0,0:0:0:0:
111,108,154764,5,4,0:3:0:0:
409,351,154941,1,8,0:0:0:0:
327,176,155117,1,4,0:3:0:0:
182,296,155294,1,0,0:0:0:0:
378,286,155470,1,0,0:0:0:0:
258,31,155647,5,8,0:0:0:0:
409,351,155823,1,8,0:0:0:0:
7,128,156176,5,4,0:3:0:0:
481,187,156352,1,8,0:0:0:0:
7,246,156529,5,4,0:3:0:0:
481,187,156705,1,4,0:0:0:0:
105,95,157058,5,8,0:0:0:0:
280,384,157235,1,8,0:0:0:0:
281,168,157411,1,0,0:0:0:0:
145,294,157588,1,4,0:3:0:0:
512,307,157764,1,8,0:0:0:0:
363,180,157941,1,4,0:3:0:0:
157,384,158117,1,4,0:3:0:0:
432,214,158294,1,0,0:0:0:0:
99,132,158470,5,8,0:0:0:0:
292,350,158647,1,8,0:0:0:0:
328,171,158823,1,0,0:0:0:0:
87,278,158999,1,4,0:3:0:0:
440,122,159176,1,8,0:0:0:0:
169,12,159352,1,4,0:3:0:0:
418,317,159529,6,0,B|366:246|366:246|359:152|359:152,1,140,4|0,0:0|0:0,0:0:0:0:
376,2,159882,5,8,0:0:0:0:
226,270,160058,1,8,0:0:0:0:
98,131,160235,1,0,0:0:0:0:
308,126,160411,1,4,0:3:0:0:
0,293,160588,1,8,0:0:0:0:
15,85,160764,1,4,0:3:0:0:
162,344,160941,1,4,0:3:0:0:
7,190,161117,1,0,0:0:0:0:
275,22,161294,5,8,0:0:0:0:
264,326,161470,1,8,0:0:0:0:
114,213,161647,1,0,0:0:0:0:
353,186,161823,1,4,0:3:0:0:
28,373,161999,1,8,0:0:0:0:
187,70,162176,1,4,0:3:0:0:
445,54,162352,6,0,B|388:109|388:109|327:109,1,140,4|0,0:0|0:0,0:0:0:0:
61,67,162705,5,8,0:0:0:0:
403,275,162882,1,8,0:0:0:0:
189,366,163058,1,0,0:0:0:0:
187,145,163235,1,4,0:3:0:0:
509,114,163411,1,8,0:0:0:0:
319,225,163588,1,4,0:3:0:0:
206,16,163764,1,4,0:3:0:0:
453,52,163941,1,0,0:0:0:0:
315,321,164117,5,8,0:0:0:0:
358,34,164294,1,8,0:0:0:0:
456,185,164470,1,0,0:0:0:0:
171,143,164647,1,4,0:3:0:0:
512,0,164823,1,8,0:0:0:0:
407,359,164999,1,4,0:3:0:0:
216,22,165176,6,0,B|234:95|234:95|293:153,1,140,4|0,0:0|0:0,0:0:0:0:
408,259,165529,5,8,0:0:0:0:
146,65,165705,1,8,0:0:0:0:
0,160,165882,1,0,0:0:0:0:
157,89,166058,1,4,0:3:0:0:
61,369,166235,1,8,0:0:0:0:
53,222,166411,1,4,0:3:0:0:
57,295,166588,1,4,0:3:0:0:
61,369,166764,1,0,0:0:0:0:
235,95,166941,5,8,0:0:0:0:
151,384,167117,1,8,0:0:0:0:
53,222,167294,1,0,0:0:0:0:
298,364,167470,1,4,0:3:0:0:
96,4,167647,1,8,0:0:0:0:
196,18,167823,1,4,0:3:0:0:
184,191,167999,6,0,L|187:257,1,59.5000011348725,4|0,0:0|0:0,0:0:0:0:
163,321,168176,1,0,0:0:0:0:
271,164,168352,2,0,L|277:298,1,119.000002269745,8|0,0:0|0:0,0:0:0:0:
298,79,168705,1,4,0:3:0:0:
357,138,168882,2,0,L|363:272,1,119.000002269745,4|8,0:3|0:0,0:0:0:0:
255,154,169235,6,0,P|246:97|84:95,1,238.00000453949,4|4,0:3|0:3,0:0:0:0:
163,140,169764,2,0,L|149:258,1,119.000002269745,8|0,0:0|0:0,0:0:0:0:
333,79,170117,1,4,0:3:0:0:
341,167,170294,1,4,0:3:0:0:
349,255,170470,1,8,0:0:0:0:
347,64,170647,1,4,0:3:0:0:
73,306,170823,5,6,0:3:0:0:
207,298,170999,1,0,0:0:0:0:
128,123,171176,1,8,0:0:0:0:
136,257,171352,1,4,0:3:0:0:
136,257,171441,1,4,0:3:0:0:
136,257,171529,1,4,0:3:0:0:
240,176,171705,1,4,0:3:0:0:
28,189,171882,1,8,0:0:0:0:
241,77,172058,6,0,P|281:91|338:156,1,119.000002269745,4|0,0:3|0:0,0:0:0:0:
440,280,172411,1,4,0:3:0:0:
348,284,172588,2,0,L|226:290,1,119.000002269745,8|4,0:0|0:3,0:0:0:0:
229,289,172852,1,4,0:3:0:0:
229,289,172941,1,4,0:3:0:0:
376,155,173117,1,4,0:3:0:0:
296,205,173294,6,0,L|174:211,1,119.000002269745,8|0,0:0|0:0,0:0:0:0:
12,27,173647,6,0,B|75:35|75:35|143:86,1,119.000002269745,6|0,0:3|0:0,0:0:0:0:
394,91,173999,2,0,B|331:83|331:83|263:32,1,119.000002269745,8|4,0:0|0:3,0:0:0:0:
46,117,174352,1,4,0:3:0:0:
229,0,174529,1,4,0:3:0:0:
174,201,174705,6,0,L|129:339,1,119.000002269745,8|4,0:0|0:3,0:0:0:0:
350,35,175058,1,0,0:0:0:0:
166,209,175235,1,4,0:3:0:0:
225,46,175411,5,8,0:0:0:0:
327,264,175588,1,4,0:3:0:0:
115,72,175764,5,4,0:3:0:0:
426,157,175941,1,4,0:3:0:0:
116,193,176117,5,8,0:0:0:0:
363,0,176294,1,0,0:0:0:0:
156,363,176470,5,6,0:3:0:0:
225,46,176647,1,0,0:0:0:0:
285,384,176823,1,8,0:0:0:0:
159,84,177000,1,4,0:3:0:0:
403,340,177176,1,4,0:3:0:0:
100,149,177353,1,4,0:3:0:0:
470,227,177529,1,8,0:0:0:0:
76,246,177706,5,4,0:0:0:0:
395,46,177882,1,0,0:0:0:0:
325,279,178058,1,4,0:3:0:0:
173,42,178235,1,8,0:0:0:0:
371,172,178411,5,4,0:3:0:0:
392,212,178499,1,4,0:3:0:0:
395,250,178588,1,4,0:3:0:0:
230,364,178764,5,4,0:3:0:0:
317,75,178941,1,8,0:0:0:0:
250,297,179117,1,0,0:0:0:0:
338,4,179294,1,4,0:0:0:0:
256,192,187764,5,0,0:0:0:0:
192,160,187941,5,4,0:3:0:0:
208,256,188117,5,4,0:3:0:0:
320,224,188294,5,4,0:3:0:0:
240,96,188470,5,4,0:3:0:0:
128,224,188647,5,4,0:3:0:0:
304,320,188823,5,4,0:3:0:0:
368,96,188999,5,4,0:3:0:0:
96,144,189176,5,8,0:0:0:0:
224,352,189352,5,8,0:0:0:0:
416,184,189529,5,8,0:0:0:0:
144,48,189705,5,8,0:0:0:0:
304,320,189882,5,4,0:0:0:0:
377,342,189970,1,8,0:0:0:0:
445,321,190058,1,8,0:0:0:0:
489,264,190147,1,8,0:0:0:0:
495,187,190235,1,8,0:0:0:0:
456,120,190323,1,8,0:0:0:0:
378,115,190411,1,8,0:0:0:0:
337,187,190499,1,8,0:0:0:0:
389,259,190588,5,4,0:0:0:0:
197,280,190764,2,0,P|115:253|69:180,1,175,8|0,0:0|0:0,0:0:0:0:
113,4,191029,1,4,0:3:0:0:
140,24,191117,2,0,P|144:68|121:112,1,87.5,8|0,0:0|0:0,0:0:0:0:
0,220,191294,1,4,0:3:0:0:
193,75,191470,2,0,P|299:59|399:133,1,175,8|0,0:0|0:0,0:0:0:0:
441,236,191735,1,4,0:3:0:0:
468,215,191823,2,0,P|471:171|448:127,1,87.5,8|0,0:0|0:0,0:0:0:0:
272,11,192000,5,4,0:3:0:0:
130,167,192176,2,0,P|114:272|166:356,1,175,8|0,0:0|0:0,0:0:0:0:
339,319,192441,1,4,0:3:0:0:
336,288,192529,2,0,P|300:260|258:251,1,87.5,8|0,0:0|0:0,0:0:0:0:
55,348,192705,1,4,0:3:0:0:
253,113,192882,1,8,0:0:0:0:
8,196,193058,2,0,P|32:237|126:262,1,87.5,4|4,0:3|0:3,0:0:0:0:
268,328,193235,1,8,0:0:0:0:
239,0,193411,5,4,0:3:0:0:
441,81,193588,2,0,P|505:170|510:253,1,175,8|0,0:0|0:0,0:0:0:0:
355,384,193852,1,4,0:3:0:0:
324,355,193941,2,0,P|332:252|347:236,1,87.5,8|0,0:0|0:0,0:0:0:0:
459,164,194117,1,4,0:3:0:0:
237,266,194294,2,0,P|151:258|85:202,1,175,8|0,0:0|0:0,0:0:0:0:
82,23,194558,1,4,0:3:0:0:
105,0,194647,2,0,P|153:57|139:95,1,87.5,8|0,0:0|0:0,0:0:0:0:
140,298,194823,5,4,0:3:0:0:
249,101,194999,2,0,P|398:61|465:108,1,175,8|0,0:0|0:0,0:0:0:0:
442,231,195264,1,4,0:3:0:0:
433,261,195352,2,0,P|394:240|367:206,1,87.5,8|0,0:0|3:0,0:0:0:0:
310,14,195529,1,4,0:3:0:0:
509,131,195705,1,8,0:0:0:0:
288,341,195882,2,0,P|252:287|249:220,1,87.5,4|4,0:3|0:3,0:0:0:0:
211,7,196058,1,8,0:0:0:0:
512,208,196235,5,4,0:3:0:0:
362,382,196411,2,0,P|290:346|246:262,1,175,8|0,0:0|0:0,0:0:0:0:
268,100,196676,1,4,0:3:0:0:
293,81,196764,2,0,P|341:161|330:199,1,87.5,8|0,0:0|3:0,0:0:0:0:
260,373,196941,1,4,0:3:0:0:
85,263,197117,2,0,P|43:186|41:100,1,175,8|0,0:0|0:0,0:0:0:0:
181,10,197382,1,4,0:3:0:0:
204,42,197470,2,0,P|172:117|131:125,1,87.5,8|0,0:0|0:0,0:0:0:0:
5,208,197647,5,4,0:3:0:0:
130,57,197823,1,8,0:0:0:0:
243,275,197999,2,0,P|219:275|161:231,1,87.5,4|4,0:3|0:3,0:0:0:0:
67,0,198176,1,8,0:0:0:0:
361,135,198352,1,4,0:3:0:0:
121,173,198529,1,8,0:0:0:0:
337,43,198705,2,0,P|380:42|420:59,1,87.5,4|4,0:3|0:3,0:0:0:0:
485,337,198882,1,8,0:0:0:0:
236,196,199058,5,4,0:3:0:0:
64,325,199235,2,0,P|71:228|157:156,1,175,8|0,0:0|0:0,0:0:0:0:
304,152,199499,1,4,0:3:0:0:
319,177,199588,2,0,P|319:221|294:256,1,87.5,8|0,0:0|0:0,0:0:0:0:
107,251,199764,1,4,0:3:0:0:
268,76,199941,2,0,P|408:33|496:62,1,175,8|0,0:0|0:0,0:0:0:0:
449,254,200205,1,4,0:3:0:0:
430,280,200294,2,0,P|401:247|396:204,1,87.5,8|0,0:0|0:0,0:0:0:0:
325,0,200470,6,0,P|293:79|218:122,1,175,4|8,0:3|0:0,0:0:0:0:
52,125,200823,2,0,P|103:64|183:64,1,87.5,4|0,0:3|0:0,0:0:0:0:
389,115,200999,1,8,0:0:0:0:
207,312,201176,1,4,0:3:0:0:
6,9,201352,1,8,0:0:0:0:
260,57,201529,1,4,0:3:0:0:
0,273,201705,1,8,0:0:0:0:
83,38,201882,6,0,P|93:173|74:246,1,210,6|0,0:3|0:0,0:0:0:0:
200,345,202235,2,0,B|206:290|210:210|191:137,1,210,6|0,0:3|0:0,0:0:0:0:
310,32,202588,2,0,P|320:167|301:240,1,210,6|0,0:3|0:0,0:0:0:0:
427,339,202941,2,0,B|433:284|437:204|418:131,1,210,6|0,0:3|0:0,0:0:0:0:
61,43,203294,6,0,P|267:0|297:3,1,210,6|0,0:3|0:0,0:0:0:0:
449,157,203647,2,0,P|243:114|213:117,1,210,6|0,0:3|0:0,0:0:0:0:
37,270,203999,2,0,P|243:227|273:230,1,210,6|0,0:3|0:0,0:0:0:0:
425,384,204352,2,0,P|219:341|189:344,1,210,6|0,0:3|0:0,0:0:0:0:
100,370,204705,5,6,0:3:0:0:
76,229,204882,1,4,0:3:0:0:
301,173,205058,5,6,0:3:0:0:
114,293,205235,1,4,0:3:0:0:
127,131,205411,5,6,0:3:0:0:
281,339,205588,1,4,0:3:0:0:
251,86,205764,5,6,0:3:0:0:
64,325,205941,1,4,0:3:0:0:
153,40,206117,5,6,0:3:0:0:
395,360,206294,1,4,0:3:0:0:
17,251,206470,5,6,0:3:0:0:
472,76,206647,1,4,0:3:0:0:
135,384,206823,5,6,0:3:0:0:
367,0,206999,1,4,0:3:0:0:
0,38,207176,5,6,0:3:0:0:
512,306,207352,1,4,0:3:0:0:
0,384,207529,5,6,0:3:0:0:
256,192,207705,12,0,214588,0:3:0:0:
