osu file format v14

[General]
AudioFilename: audio.mp3
AudioLeadIn: 0
PreviewTime: -1
Countdown: 1
SampleSet: None
StackLeniency: 0.7
Mode: 0
LetterboxInBreaks: 0
WidescreenStoryboard: 0

[Editor]
DistanceSpacing: 1.5
BeatDivisor: 4
GridSize: 16
TimelineZoom: 1.1

[Metadata]
Title:Take Her Place | Official Music Video
TitleUnicode:Take Her Place | Official Music Video
Artist:Don Diablo ft. A R I Z O N A
ArtistUnicode:Don Diablo ft. A R I Z O N A
Creator:sivix-
Version:Kurama's Medium
Source:Don Diablo
Tags:Don DIablo Take her place
BeatmapID:1487309
BeatmapSetID:702943

[Difficulty]
HPDrainRate:5
CircleSize:5
OverallDifficulty:5
ApproachRate:5
SliderMultiplier:1.5
SliderTickRate:1

[Events]
//Background and Video events
Video,0,"Don Diablo ft. A R I Z O N A - Take Her Place Official Music Video.mp4"
0,0,"don-diablo-ft-a-r-i-z-o-n-a-take-her-place-original-mix.jpg",0,0
//Break Periods
2,43358,46630
//Storyboard Layer 0 (Background)
//Storyboard Layer 1 (Fail)
//Storyboard Layer 2 (Pass)
//Storyboard Layer 3 (Foreground)
//Storyboard Sound Samples

[TimingPoints]
367.659636145542,602.703278688524,4,1,0,21,1,0

[Colours]
Combo1 : 4,251,41
Combo2 : 0,0,255
Combo3 : 250,5,214
Combo4 : 255,255,0

[HitObjects]
64,56,66,6,0,L|368:320,2,375
112,72,5038,1,0,0:0:0:0:
312,88,5490,1,0,0:0:0:0:
272,208,5942,1,0,0:0:0:0:
104,208,6394,1,0,0:0:0:0:
352,144,7298,1,0,0:0:0:0:
160,192,7901,1,0,0:0:0:0:
272,56,8202,1,0,0:0:0:0:
120,136,10312,5,0,0:0:0:0:
160,248,10613,1,0,0:0:0:0:
248,160,10764,1,0,0:0:0:0:
192,24,11969,2,0,L|392:304,1,337.5
232,96,14983,1,0,0:0:0:0:
144,96,15133,5,0,0:0:0:0:
368,120,15435,1,0,0:0:0:0:
224,232,15736,1,0,0:0:0:0:
96,136,16640,1,0,0:0:0:0:
216,136,16791,1,0,0:0:0:0:
152,224,17243,1,0,0:0:0:0:
304,240,17695,1,0,0:0:0:0:
224,304,17816,1,0,0:0:0:0:
160,48,19654,5,0,0:0:0:0:
184,144,20256,1,0,0:0:0:0:
160,176,21462,1,0,0:0:0:0:
296,144,21763,1,0,0:0:0:0:
192,96,22064,1,0,0:0:0:0:
256,264,22215,1,0,0:0:0:0:
352,184,22366,1,0,0:0:0:0:
104,152,22818,1,0,0:0:0:0:
256,64,24023,1,0,0:0:0:0:
192,120,24325,1,0,0:0:0:0:
184,192,24626,1,0,0:0:0:0:
352,176,24777,1,0,0:0:0:0:
312,112,24927,1,0,0:0:0:0:
256,192,25530,12,0,27338,0:0:0:0:
80,80,28242,5,0,0:0:0:0:
176,208,28544,1,0,0:0:0:0:
432,80,29297,1,0,0:0:0:0:
384,184,29749,1,0,0:0:0:0:
104,184,30502,1,0,0:0:0:0:
168,112,30653,1,0,0:0:0:0:
264,200,30804,1,0,0:0:0:0:
168,256,31105,1,0,0:0:0:0:
240,160,31406,1,0,0:0:0:0:
168,176,31708,1,0,0:0:0:0:
336,232,32009,1,0,0:0:0:0:
256,192,32612,12,0,33667,0:0:0:0:
184,104,35023,5,0,0:0:0:0:
104,168,35324,1,0,0:0:0:0:
368,136,35625,1,0,0:0:0:0:
256,192,36981,12,0,37735,0:0:0:0:
128,112,38488,5,0,0:0:0:0:
160,200,38639,1,0,0:0:0:0:
288,152,38789,1,0,0:0:0:0:
304,224,39091,1,0,0:0:0:0:
184,200,39543,1,0,0:0:0:0:
184,136,39694,1,0,0:0:0:0:
80,96,40748,2,0,L|328:264,2,300
160,112,47830,5,0,0:0:0:0:
272,80,48131,1,0,0:0:0:0:
376,168,48433,1,0,0:0:0:0:
248,208,48734,1,0,0:0:0:0:
200,232,50241,5,0,0:0:0:0:
200,232,50542,1,0,0:0:0:0:
200,232,50844,1,0,0:0:0:0:
200,232,51145,1,0,0:0:0:0:
200,232,51446,1,0,0:0:0:0:
200,232,51748,1,0,0:0:0:0:
256,192,52953,12,0,53706,0:0:0:0:
256,96,54912,5,0,0:0:0:0:
152,184,55213,1,0,0:0:0:0:
336,200,55816,1,0,0:0:0:0:
128,96,57323,1,0,0:0:0:0:
128,96,57624,1,0,0:0:0:0:
128,96,57925,1,0,0:0:0:0:
128,96,58227,1,0,0:0:0:0:
128,96,58528,1,0,0:0:0:0:
320,256,59583,5,0,0:0:0:0:
320,256,59884,1,0,0:0:0:0:
320,256,60185,1,0,0:0:0:0:
320,256,60487,1,0,0:0:0:0:
320,256,60788,1,0,0:0:0:0:
320,256,61090,1,0,0:0:0:0:
88,96,62144,2,0,L|304:248,1,262.5
168,112,64103,5,0,0:0:0:0:
168,112,64404,1,0,0:0:0:0:
168,112,64706,1,0,0:0:0:0:
168,112,65007,1,0,0:0:0:0:
112,104,65760,6,0,L|184:120,3,37.5
128,112,66665,1,0,0:0:0:0:
296,112,66966,1,0,0:0:0:0:
248,208,67569,1,0,0:0:0:0:
136,208,67870,1,0,0:0:0:0:
160,160,69075,1,0,0:0:0:0:
160,160,69377,1,0,0:0:0:0:
160,160,69678,1,0,0:0:0:0:
160,160,69979,1,0,0:0:0:0:
160,160,70281,1,0,0:0:0:0:
160,160,70582,1,0,0:0:0:0:
200,208,71787,5,0,0:0:0:0:
200,208,72089,1,0,0:0:0:0:
200,208,72390,1,0,0:0:0:0:
200,208,72541,1,0,0:0:0:0:
200,208,72842,1,0,0:0:0:0:
80,104,73746,2,0,L|312:272,1,262.5
256,192,75554,12,0,77212,0:0:0:0:
144,120,77815,5,0,0:0:0:0:
144,120,77965,1,0,0:0:0:0:
288,136,78417,5,0,0:0:0:0:
288,136,78719,1,0,0:0:0:0:
216,208,78869,5,0,0:0:0:0:
216,208,79171,1,0,0:0:0:0:
256,192,80677,12,0,81883,0:0:0:0:
176,120,82636,5,0,0:0:0:0:
328,144,82787,1,0,0:0:0:0:
240,232,83239,1,0,0:0:0:0:
344,248,83540,1,0,0:0:0:0:
120,96,85198,5,0,0:0:0:0:
112,192,85499,1,0,0:0:0:0:
248,104,85800,1,0,0:0:0:0:
280,216,86102,1,0,0:0:0:0:
176,264,87307,1,0,0:0:0:0:
176,256,87910,1,0,0:0:0:0:
176,240,88513,1,0,0:0:0:0:
88,48,88965,2,0,L|264:208,2,225
96,104,91375,1,0,0:0:0:0:
232,112,91978,1,0,0:0:0:0:
136,104,94088,5,0,0:0:0:0:
144,208,94389,1,0,0:0:0:0:
280,112,95142,5,0,0:0:0:0:
272,216,95594,1,0,0:0:0:0:
240,128,96348,5,0,0:0:0:0:
240,128,96498,1,0,0:0:0:0:
240,128,96649,1,0,0:0:0:0:
240,128,96950,1,0,0:0:0:0:
240,128,97252,1,0,0:0:0:0:
240,128,97553,1,0,0:0:0:0:
240,128,97854,1,0,0:0:0:0:
112,80,98758,2,0,L|272:216,2,187.5
144,96,100868,1,0,0:0:0:0:
288,80,101169,1,0,0:0:0:0:
240,184,101471,1,0,0:0:0:0:
192,96,102977,1,0,0:0:0:0:
256,192,103731,12,0,105539,0:0:0:0:
128,112,106744,5,0,0:0:0:0:
280,104,107046,1,0,0:0:0:0:
136,208,107347,1,0,0:0:0:0:
336,224,107648,1,0,0:0:0:0:
224,208,109004,5,0,0:0:0:0:
224,208,109306,1,0,0:0:0:0:
224,208,109607,1,0,0:0:0:0:
224,208,110059,1,0,0:0:0:0:
224,208,110361,1,0,0:0:0:0:
328,136,111114,5,0,0:0:0:0:
168,144,111415,1,0,0:0:0:0:
288,224,111717,1,0,0:0:0:0:
136,216,112018,1,0,0:0:0:0:
224,144,112470,6,0,L|272:144,4,37.5
160,128,113826,1,0,0:0:0:0:
304,128,114579,1,0,0:0:0:0:
176,200,115031,1,0,0:0:0:0:
280,192,115634,1,0,0:0:0:0:
168,96,116086,2,0,L|216:192,4,75
136,160,118798,1,0,0:0:0:0:
136,160,118949,1,0,0:0:0:0:
312,168,119401,5,0,0:0:0:0:
312,168,119552,1,0,0:0:0:0:
160,176,120757,1,0,0:0:0:0:
360,168,121058,1,0,0:0:0:0:
208,248,121360,1,0,0:0:0:0:
320,248,121812,5,0,0:0:0:0:
256,192,121963,12,0,122565,0:0:0:0:
208,152,123168,5,0,0:0:0:0:
288,144,123469,1,0,0:0:0:0:
232,224,123771,1,0,0:0:0:0:
296,224,124072,1,0,0:0:0:0:
160,200,125579,1,0,0:0:0:0:
160,200,126181,1,0,0:0:0:0:
160,200,126784,1,0,0:0:0:0:
152,168,127839,5,0,0:0:0:0:
152,168,128140,1,0,0:0:0:0:
152,168,128442,1,0,0:0:0:0:
152,168,128743,1,0,0:0:0:0:
152,168,129044,1,0,0:0:0:0:
336,184,129948,5,0,0:0:0:0:
336,184,130099,1,0,0:0:0:0:
336,184,130250,1,0,0:0:0:0:
336,184,130400,1,0,0:0:0:0:
336,184,130551,1,0,0:0:0:0:
336,184,130702,1,0,0:0:0:0:
336,184,130852,1,0,0:0:0:0:
336,184,131003,1,0,0:0:0:0:
192,128,131455,6,0,L|240:200,1,75
144,112,132359,6,0,L|368:256,2,262.5
96,144,134770,2,0,P|248:96|384:176,1,300
208,160,137633,5,0,0:0:0:0:
208,160,137784,1,0,0:0:0:0:
208,160,137934,1,0,0:0:0:0:
320,216,138236,5,0,0:0:0:0:
320,216,138386,1,0,0:0:0:0:
320,216,138537,1,0,0:0:0:0:
256,192,139592,12,0,140797,0:0:0:0:
128,120,141249,6,0,L|328:128,1,187.5
176,176,142605,1,0,0:0:0:0:
176,176,142756,1,0,0:0:0:0:
336,176,143208,5,0,0:0:0:0:
336,176,143359,1,0,0:0:0:0:
304,192,144413,1,0,0:0:0:0:
216,200,145016,1,0,0:0:0:0:
128,176,145468,6,0,L|288:192,2,150
152,272,147879,2,0,L|280:80,1,225
192,224,149687,5,0,0:0:0:0:
192,224,150290,5,0,0:0:0:0:
192,224,151043,5,0,0:0:0:0:
192,224,151495,5,0,0:0:0:0:
192,224,151947,5,0,0:0:0:0:
192,224,152550,5,0,0:0:0:0:
192,224,153152,5,0,0:0:0:0:
192,224,153755,5,0,0:0:0:0:
192,224,154358,5,0,0:0:0:0:
160,176,155111,1,0,0:0:0:0:
256,192,155714,12,0,157221,0:0:0:0:
224,192,157371,5,0,0:0:0:0:
224,192,157673,1,0,0:0:0:0:
224,192,157974,1,0,0:0:0:0:
128,224,159632,6,0,L|304:112,1,187.5
160,160,160837,1,4,0:0:0:0:
160,160,161138,1,4,0:0:0:0:
160,160,161590,5,4,0:0:0:0:
160,192,162042,5,0,0:0:0:0:
256,256,163248,5,0,0:0:0:0:
256,256,163549,1,0,0:0:0:0:
256,256,163850,1,0,0:0:0:0:
256,256,164152,1,0,0:0:0:0:
256,256,164453,1,0,0:0:0:0:
256,256,164754,1,0,0:0:0:0:
48,160,165508,5,0,0:0:0:0:
384,224,166111,5,0,0:0:0:0:
192,256,166412,5,0,0:0:0:0:
272,112,166713,5,0,0:0:0:0:
160,192,167617,1,0,0:0:0:0:
160,208,167919,1,0,0:0:0:0:
160,208,168220,1,0,0:0:0:0:
160,208,168521,1,0,0:0:0:0:
160,208,168823,1,0,0:0:0:0:
128,192,169275,2,0,L|208:160,2,75
128,288,170179,2,0,L|304:144,2,225
144,208,172590,5,0,0:0:0:0:
208,160,172891,1,0,0:0:0:0:
192,224,173192,1,0,0:0:0:0:
160,192,173494,1,0,0:0:0:0:
240,192,173795,1,0,0:0:0:0:
224,240,174096,1,0,0:0:0:0:
208,240,175302,5,0,0:0:0:0:
208,240,175452,1,0,0:0:0:0:
256,240,175754,5,0,0:0:0:0:
256,240,175904,1,0,0:0:0:0:
256,240,176055,1,0,0:0:0:0:
80,256,177411,6,0,L|128:224,9,37.5
160,192,179069,5,0,0:0:0:0:
240,192,179822,5,0,0:0:0:0:
240,192,179973,1,0,0:0:0:0:
240,192,180123,1,0,0:0:0:0:
240,192,180274,1,0,0:0:0:0:
240,192,180425,1,0,0:0:0:0:
240,192,180726,1,0,0:0:0:0:
240,192,180877,1,0,0:0:0:0:
304,288,182082,5,0,0:0:0:0:
304,288,182233,1,0,0:0:0:0:
208,288,182685,5,0,0:0:0:0:
208,288,182836,1,0,0:0:0:0:
352,224,183288,5,0,0:0:0:0:
368,224,183438,1,0,0:0:0:0:
144,240,184342,5,0,0:0:0:0:
144,240,184493,1,0,0:0:0:0:
144,240,184644,1,0,0:0:0:0:
144,240,184945,1,0,0:0:0:0:
144,240,185096,1,0,0:0:0:0:
144,240,185246,1,0,0:0:0:0:
144,240,185548,1,0,0:0:0:0:
272,240,186452,5,0,0:0:0:0:
272,240,186602,1,0,0:0:0:0:
272,240,186753,1,0,0:0:0:0:
272,240,186904,1,0,0:0:0:0:
272,240,187055,1,0,0:0:0:0:
272,240,187205,1,0,0:0:0:0:
272,240,187356,1,0,0:0:0:0:
112,256,187808,6,0,L|144:224,3,37.5
256,192,189164,12,0,190972,0:0:0:0:
144,272,191424,5,0,0:0:0:0:
240,224,191725,1,0,0:0:0:0:
240,272,192027,1,0,0:0:0:0:
144,224,192328,1,0,0:0:0:0:
272,160,192630,1,0,0:0:0:0:
352,256,192931,1,0,0:0:0:0:
160,208,194136,5,0,0:0:0:0:
160,208,194287,1,0,0:0:0:0:
272,208,194438,5,0,0:0:0:0:
272,208,194739,1,0,0:0:0:0:
192,304,195040,5,0,0:0:0:0:
192,304,195191,1,0,0:0:0:0:
256,192,196246,12,0,197150,0:0:0:0:
144,272,197903,6,0,L|336:128,2,225
160,288,200163,6,0,L|320:160,3,187.5
192,304,202725,6,0,L|368:160,2,225
192,304,204985,6,0,L|192:64,2,225
