osu file format v14

[General]
AudioFilename: audio.mp3
AudioLeadIn: 0
PreviewTime: 53058
Countdown: 1
SampleSet: Soft
StackLeniency: 0.4
Mode: 0
LetterboxInBreaks: 0
WidescreenStoryboard: 0

[Editor]
DistanceSpacing: 0.4
BeatDivisor: 4
GridSize: 8
TimelineZoom: 2.699999

[Metadata]
Title:Children Of A Miracle
TitleUnicode:Children Of A Miracle
Artist:Don Diablo & Marnik
ArtistUnicode:Don Diablo & Marnik
Creator:M P I
Version:MIRACLE
Source:
Tags:
BeatmapID:1971159
BeatmapSetID:943860

[Difficulty]
HPDrainRate:5
CircleSize:4
OverallDifficulty:8
ApproachRate:9
SliderMultiplier:2
SliderTickRate:1

[Events]
//Background and Video events
0,0,"Don-Diablo-Marnik-Children-of-a-Miracle-2017-2480x2480.jpg",0,0
//Break Periods
//Storyboard Layer 0 (Background)
//Storyboard Layer 1 (Fail)
//Storyboard Layer 2 (Pass)
//Storyboard Layer 3 (Foreground)
//Storyboard Sound Samples

[TimingPoints]
93,413.793103448276,4,2,0,100,1,0
93,-100,4,2,0,60,0,0
1748,-100,4,2,0,75,0,0
7127,-133.333333333333,4,2,0,75,0,0
13334,-100,4,2,0,75,0,0
26575,-200,4,2,0,75,0,0
39817,-66.6666666666667,4,2,0,75,0,0
42093,-133.333333333333,4,2,0,75,0,0
42299,-133.333333333333,4,2,0,75,0,0
46437,-200,4,2,0,75,0,0
46851,-133.333333333333,4,2,0,75,0,0
47265,-100,4,2,0,75,0,0
47679,-66.6666666666667,4,2,0,75,0,0
48093,-66.6666666666667,4,2,0,60,0,0
49748,-66.6666666666667,4,2,0,80,0,0
51403,-133.333333333333,4,2,0,75,0,0
52644,-50,4,2,0,75,0,0
53058,-50,4,2,0,85,0,1
53265,-66.6666666666667,4,2,0,85,0,1
55541,-50,4,2,0,85,0,1
56368,-66.6666666666667,4,2,0,85,0,1
62161,-50,4,2,0,85,0,1
63196,-66.6666666666667,4,2,0,85,0,1
66299,-133.333333333333,4,2,0,50,0,1
66713,-100,4,2,0,60,0,1
67127,-66.6666666666667,4,2,0,70,0,1
67541,-50,4,2,0,80,0,1
76230,-100,4,2,0,90,0,1
79541,-133.333333333333,4,2,0,75,0,0
94437,-200,4,2,0,75,0,0
114299,-100,4,2,0,75,0,0
115541,-66.6666666666667,4,2,0,75,0,0
125886,-200,4,2,0,75,0,0
126299,-100,4,2,0,75,0,0
126713,-66.6666666666667,4,2,0,75,0,0
127127,-50,4,2,0,75,0,0
129196,-50,4,2,0,80,0,0
130851,-400,4,2,0,75,0,0
132093,-33.3333333333333,4,2,0,75,0,0
132506,-33.3333333333333,4,2,0,85,0,1
148230,-50,4,2,0,85,0,1
157334,-200,4,2,0,75,0,0
178851,-400,4,2,0,75,0,0

[Colours]
Combo1 : 0,128,255
Combo2 : 255,128,0
Combo3 : 255,255,0

[HitObjects]
90,178,93,6,0,L|205:137,1,100
288,112,506,1,0,0:0:0:0:
422,206,713,2,0,L|307:247,1,100
224,272,1126,1,0,0:0:0:0:
160,320,1334,2,0,P|152:240|184:200,1,100
368,64,1748,1,4,0:0:0:0:
248,144,1955,1,4,0:0:0:0:
368,64,2368,1,4,0:0:0:0:
248,144,2575,1,4,0:0:0:0:
96,64,3403,6,0,B|112:120|112:120|160:144,1,100
264,152,3817,1,0,0:0:0:0:
416,320,4024,6,0,B|400:264|400:264|352:240,1,100
248,232,4438,1,0,0:0:0:0:
264,152,4644,2,0,P|216:160|176:200,1,100
96,336,5058,1,4,0:0:0:0:
48,168,5265,1,4,0:0:0:0:
96,336,5679,1,4,0:0:0:0:
48,168,5886,1,4,0:0:0:0:
128,72,6713,5,4,0:3:0:0:
128,72,7127,2,0,P|176:96|224:96,2,75.0000028610231
320,112,7955,1,4,0:3:0:0:
352,200,8368,5,0,0:0:0:0:
296,264,8575,1,0,0:0:0:0:
272,184,8782,1,0,0:0:0:0:
96,192,9610,5,0,0:0:0:0:
187,228,9817,1,0,0:0:0:0:
96,192,10024,2,0,B|160:168|187:232|187:232|224:176|384:184,1,300.000011444092
232,56,11265,5,0,0:0:0:0:
349,183,11472,1,0,0:0:0:0:
256,192,11575,12,0,12920,0:0:0:0:
104,104,13334,6,0,P|176:104|320:184,1,200,8|0,0:3|0:0,0:0:0:0:
168,208,13955,1,0,0:0:0:0:
288,32,14161,2,0,P|328:72|368:152,1,100,8|0,0:0|0:0,0:0:0:0:
368,184,14575,1,0,0:0:0:0:
168,208,14782,1,0,0:0:0:0:
264,200,15403,5,8,0:0:0:0:
264,200,15817,1,8,0:0:0:0:
208,72,16644,6,0,P|160:120|128:176,1,100,8|0,0:3|0:0,0:0:0:0:
224,224,17058,1,0,0:0:0:0:
432,192,17265,2,0,P|400:232|352:240,1,100,8|0,0:0|0:0,0:0:0:0:
328,72,17679,1,0,0:0:0:0:
240,152,17886,1,0,0:0:0:0:
152,232,18093,1,0,0:0:0:0:
352,184,18299,2,0,L|312:280,1,100,8|0,0:3|0:0,0:0:0:0:
432,192,18713,2,0,L|472:96,1,100,8|0,0:3|0:0,0:0:0:0:
264,56,19127,2,8,P|248:96|168:160,2,100,8|0|8,0:3|0:3|0:3,0:3:0:0:
264,56,19955,6,0,B|224:112|160:64|160:64|88:88|80:136,1,200,8|0,0:3|0:0,0:0:0:0:
256,192,20575,1,0,0:0:0:0:
408,128,20782,2,0,L|376:240,1,100,8|0,0:0|0:0,0:0:0:0:
456,240,21196,1,0,0:0:0:0:
480,144,21403,1,0,0:0:0:0:
112,192,22024,5,8,0:0:0:0:
112,192,22437,1,8,0:0:0:0:
293,64,23265,6,0,P|231:161|231:161,1,100,8|0,0:3|0:0,0:0:0:0:
69,191,23679,1,0,0:0:0:0:
137,129,23886,2,0,L|195:234,1,100,8|8,0:0|0:0,0:0:0:0:
266,222,24299,1,0,0:0:0:0:
69,191,24506,1,0,0:0:0:0:
203,59,24713,1,0,0:0:0:0:
158,219,24920,6,0,L|245:124,1,100,8|0,0:3|0:0,0:0:0:0:
128,123,25334,2,0,L|166:248,1,100,8|0,0:3|0:0,0:0:0:0:
203,59,25748,1,0,0:0:0:0:
312,83,25955,1,8,0:3:0:0:
312,83,26058,1,8,0:3:0:0:
312,83,26162,1,8,0:3:0:0:
416,160,26575,6,0,P|320:288|224:208,1,300,4|0,0:0|0:0,0:0:0:0:
320,192,28230,6,0,P|224:320|128:240,1,300,4|0,0:0|0:0,0:0:0:0:
224,224,29886,6,0,P|320:96|416:176,1,300,4|0,0:0|0:0,0:0:0:0:
320,192,31541,6,0,P|224:320|128:240,1,300,4|0,0:0|0:0,0:0:0:0:
16,144,33196,2,0,P|128:208|184:368,1,300,4|0,0:0|0:0,0:0:0:0:
139,118,34851,2,0,B|192:144|232:232|232:232|240:136|288:96,1,300,4|0,0:0|0:0,0:0:0:0:
400,112,36506,2,0,P|312:192|376:352,1,300,4|0,0:0|0:0,0:0:0:0:
112,272,38161,2,0,P|200:192|136:32,1,300,4|0,0:0|0:0,0:0:0:0:
312,64,39817,6,0,L|208:216,1,150.000005722046
448,40,40230,1,0,0:0:0:0:
384,144,40437,1,0,0:0:0:0:
320,248,40644,1,0,0:0:0:0:
264,352,40851,1,0,0:0:0:0:
312,64,41058,6,0,L|208:216,1,150.000005722046,2|0,0:0|0:0,0:0:0:0:
184,32,41472,1,8,0:3:0:0:
144,96,41679,1,8,0:3:0:0:
312,64,42093,2,8,L|256:152,1,75.0000028610231,8|8,0:3|0:3,0:3:0:0:
184,320,43127,5,8,0:3:0:0:
312,184,43334,1,8,0:3:0:0:
248,248,43748,1,8,0:3:0:0:
376,120,43955,1,8,0:3:0:0:
432,64,44368,1,0,0:0:0:0:
192,152,44575,1,0,0:0:0:0:
432,64,44782,5,8,0:3:0:0:
192,152,44989,1,8,0:3:0:0:
192,152,45403,1,8,0:3:0:0:
472,272,45610,1,0,0:0:0:0:
432,224,45817,1,0,0:0:0:0:
488,184,46024,1,0,0:0:0:0:
432,136,46230,1,0,0:0:0:0:
104,272,46437,6,2,L|160:232,1,50,2|0,0:0|0:0,0:0:0:0:
248,232,46851,2,0,L|192:160,1,75.0000028610231
72,176,47265,2,0,L|168:104,1,100,2|0,0:0|0:0,0:0:0:0:
296,168,47679,2,0,L|192:40,1,150.000005722046
70,173,48093,5,8,0:3:0:0:
192,120,48299,1,8,0:3:0:0:
81,95,48506,5,8,0:3:0:0:
233,193,48713,1,8,0:3:0:0:
70,173,48920,5,8,0:3:0:0:
256,88,49127,1,8,0:3:0:0:
81,95,49334,5,8,0:3:0:0:
296,232,49541,1,8,0:3:0:0:
70,173,49748,5,8,0:3:0:0:
320,64,49955,1,8,0:3:0:0:
81,95,50161,5,8,0:3:0:0:
360,264,50368,1,8,0:3:0:0:
70,173,50575,5,8,0:3:0:0:
384,32,50782,1,8,0:3:0:0:
81,95,50989,5,8,0:3:0:0:
424,296,51196,1,8,0:3:0:0:
264,192,51403,6,8,P|224:232|192:240,1,75.0000028610231,0|0,0:3|0:3,0:3:0:0:
192,160,51817,2,8,P|232:120|264:112,1,75.0000028610231,0|0,0:3|0:3,0:3:0:0:
336,224,52230,2,8,P|296:264|264:272,1,75.0000028610231,0|0,0:3|0:3,0:3:0:0:
264,192,52644,2,8,B|104:272|104:272|120:192,1,200,4|0,0:3|0:3,0:3:0:0:
392,48,53058,5,8,0:3:0:0:
264,192,53265,2,8,B|336:240|336:240|416:240,1,150.000005722046,0|0,0:3|0:3,0:3:0:0:
32,112,53679,5,8,0:3:0:0:
312,312,53886,2,8,B|240:264|240:264|160:264,1,150.000005722046,0|0,0:3|0:3,0:3:0:0:
264,192,54299,1,8,0:3:0:0:
312,312,54506,1,8,0:3:0:0:
96,192,54713,6,2,L|88:104,1,75.0000028610231
168,104,54920,2,2,L|112:16,1,75.0000028610231
56,48,55127,1,2,0:0:0:0:
240,192,55334,1,8,0:3:0:0:
456,40,55541,2,0,B|456:216|456:216|512:168,1,200,4|0,0:3|0:0,0:0:0:0:
64,192,56368,5,8,0:3:0:0:
272,56,56575,2,0,P|336:96|368:168,1,150.000005722046
64,192,56989,5,8,0:3:0:0:
336,96,57196,2,0,P|371:162|363:240,1,150.000005722046
64,192,57610,1,8,0:3:0:0:
368,240,57817,1,8,0:3:0:0:
272,48,58024,5,2,0:0:0:0:
224,80,58230,1,2,0:0:0:0:
288,120,58437,1,2,0:0:0:0:
224,168,58644,1,2,0:0:0:0:
296,216,58851,5,4,0:3:0:0:
160,120,59058,1,4,0:3:0:0:
352,72,59265,1,4,0:3:0:0:
160,120,59472,1,4,0:3:0:0:
96,344,59679,5,8,0:3:0:0:
72,224,59886,2,0,P|160:240|224:344,1,150.000005722046
96,344,60299,1,8,0:3:0:0:
112,136,60506,2,0,P|200:152|264:256,1,150.000005722046
96,344,60920,1,8,0:3:0:0:
160,48,61127,1,8,0:3:0:0:
368,192,61334,6,2,B|328:168|328:168|304:128,1,75.0000028610231
328,72,61541,6,2,B|368:96|368:96|392:136,1,75.0000028610231
440,176,61748,5,2,0:0:0:0:
184,312,61955,1,0,0:0:0:0:
136,56,62161,2,0,P|72:56|144:72,1,200,4|0,0:3|0:0,0:0:0:0:
256,48,62989,5,8,0:3:0:0:
104,192,63196,2,0,L|264:192,1,150.000005722046
256,48,63610,1,8,0:3:0:0:
404,192,63817,2,0,L|254:192,1,150.000005722046
256,336,64230,5,0,0:0:0:0:
256,192,64437,1,0,0:0:0:0:
256,48,64644,1,4,0:3:0:0:
256,336,64851,1,0,0:0:0:0:
256,192,65058,1,0,0:3:0:0:
256,336,65265,1,0,0:0:0:0:
256,48,65472,1,4,0:3:0:0:
256,192,65679,1,4,0:3:0:0:
256,336,65886,1,4,0:3:0:0:
147,88,66299,6,0,B|179:88|179:88|195:112|195:112|219:112,1,75.0000028610231,2|0,0:2|0:0,0:0:0:0:
395,144,66713,2,0,B|363:144|363:144|347:168|347:168|307:168,1,100,2|0,0:0|0:0,0:0:0:0:
88,232,67127,2,0,B|144:232|144:232|168:256|168:256|240:256,1,150.000005722046,2|0,0:0|0:0,0:0:0:0:
443,312,67541,2,0,B|379:312|379:312|363:336|363:336|243:336,1,200,2|0,0:0|0:0,0:0:0:0:
304,48,67955,2,2,L|216:168,1,100
288,192,68161,2,2,L|144:232,1,100
176,152,68368,1,2,0:0:0:0:
344,136,68575,1,0,0:0:0:0:
504,128,68782,2,0,B|480:152|496:184|496:184|448:160|360:216,1,200,4|0,0:3|0:0,0:0:0:0:
72,288,69610,5,8,0:3:0:0:
216,144,69817,1,0,0:0:0:0:
160,272,70024,1,0,0:0:0:0:
72,288,70230,5,8,0:3:0:0:
312,48,70437,1,0,0:0:0:0:
184,208,70644,1,0,0:0:0:0:
448,128,70851,6,2,P|432:176|376:224,1,100
320,216,71058,2,2,P|336:168|392:120,1,100
408,64,71265,5,2,0:0:0:0:
369,132,71472,1,0,0:0:0:0:
472,120,71679,1,2,0:0:0:0:
256,80,71886,1,2,0:0:0:0:
432,192,72093,5,4,0:3:0:0:
328,208,72300,1,4,0:3:0:0:
496,248,72507,1,4,0:3:0:0:
288,144,72714,1,4,0:3:0:0:
120,352,72920,5,8,0:3:0:0:
120,72,73127,2,0,B|120:240|120:240|152:208|192:216,1,200
184,288,73541,1,8,0:3:0:0:
240,24,73748,2,0,B|240:192|240:192|272:160|312:168,1,200
408,32,74161,1,8,0:3:0:0:
304,240,74368,1,8,0:3:0:0:
456,192,74575,5,2,0:0:0:0:
448,224,74679,1,2,0:0:0:0:
440,256,74782,1,2,0:0:0:0:
432,288,74886,1,2,0:0:0:0:
424,320,74989,1,2,0:0:0:0:
408,32,75196,5,0,0:0:0:0:
416,352,75403,2,0,L|464:144,1,200,4|0,0:3|0:0,0:0:0:0:
104,256,76230,5,8,0:3:0:0:
96,136,76437,2,0,B|144:128|144:128|200:72,1,100
104,256,76851,1,8,0:3:0:0:
296,120,77058,2,0,B|248:128|248:128|192:184,1,100
136,256,77472,1,2,0:0:0:0:
152,256,77575,1,2,0:0:0:0:
168,256,77679,1,2,0:0:0:0:
184,256,77782,1,2,0:0:0:0:
200,256,77886,1,2,0:0:0:0:
256,192,77989,12,0,79127,0:0:0:0:
256,192,79541,5,4,0:3:0:0:
256,192,80368,1,4,0:0:0:0:
256,192,81610,1,2,0:2:0:0:
256,192,82024,1,4,0:0:0:0:
424,56,82851,5,4,0:3:0:0:
304,168,83472,1,8,0:3:0:0:
424,56,83679,1,4,0:0:0:0:
304,168,84093,1,4,0:3:0:0:
424,56,84920,1,2,0:0:0:0:
192,288,85334,1,4,0:0:0:0:
128,104,86161,6,0,L|208:56,1,75.0000028610231,2|0,0:0|0:0,0:0:0:0:
272,104,86575,2,0,L|310:168,1,75.0000028610231,2|0,0:0|0:0,0:0:0:0:
296,256,86989,2,0,L|231:294,1,75.0000028610231,2|0,0:0|0:0,0:0:0:0:
144,264,87403,2,0,L|105:199,1,75.0000028610231,2|0,0:0|0:0,0:0:0:0:
128,104,87817,5,2,0:0:0:0:
136,104,87920,1,0,0:0:0:0:
144,104,88024,1,0,0:0:0:0:
160,104,88127,1,0,0:0:0:0:
176,104,88230,1,2,0:0:0:0:
192,104,88334,1,0,0:0:0:0:
216,104,88437,1,0,0:0:0:0:
240,104,88541,1,0,0:0:0:0:
272,104,88644,1,2,0:0:0:0:
304,104,88748,1,0,0:0:0:0:
344,104,88851,1,0,0:0:0:0:
384,104,88955,1,0,0:0:0:0:
432,104,89058,1,2,0:0:0:0:
480,104,89161,1,0,0:0:0:0:
472,152,89265,1,0,0:0:0:0:
456,200,89368,1,0,0:0:0:0:
432,256,89472,2,2,L|440:264,60,9.37500035762788
256,192,91127,12,4,92782,0:1:0:0:
120,304,94437,6,0,B|208:272|176:184|176:184|240:120|272:200|328:160,1,300,4|0,0:0|0:0,0:0:0:0:
112,224,96093,2,4,P|24:88|128:24,1,300,4|0,0:0|0:0,0:0:0:0:
120,128,97748,2,4,B|192:176|296:72|424:128,1,300,4|0,0:0|0:0,0:0:0:0:
384,208,99403,2,4,B|312:160|208:264|80:208,1,300,4|0,0:0|0:0,0:0:0:0:
248,72,101058,2,4,P|144:184|216:312,1,300,4|0,0:0|0:0,0:0:0:0:
312,152,102713,2,4,P|224:200|336:184,1,300,4|0,0:0|0:0,0:0:0:0:
280,200,104368,6,4,B|232:192|216:240|216:240|160:208|176:152|176:152|96:152|88:232,1,300,4|0,0:0|0:0,0:0:0:0:
384,72,106024,5,4,0:3:0:0:
257,192,106644,1,4,0:3:0:0:
134,306,107679,1,4,0:3:0:0:
254,194,108299,1,4,0:3:0:0:
134,78,109334,1,4,0:3:0:0:
256,192,109955,1,4,0:3:0:0:
384,312,110989,1,4,0:3:0:0:
256,192,111610,1,4,0:3:0:0:
112,160,112644,6,0,L|136:112,1,50,4|0,0:3|0:0,0:0:0:0:
376,184,113265,2,0,L|352:232,1,50,4|0,0:3|0:0,0:0:0:0:
160,200,114299,2,0,P|152:144|176:96,1,100,4|0,0:3|0:0,0:0:0:0:
352,184,114920,2,0,P|360:240|336:288,1,100,4|0,0:3|0:0,0:0:0:0:
80,120,115955,6,0,B|208:120|208:120|272:144,1,150.000005722046,8|0,0:3|0:0,0:0:0:0:
184,368,116368,2,0,B|184:240|184:240|208:176,1,150.000005722046,8|0,0:3|0:0,0:0:0:0:
432,264,116782,2,0,B|304:264|304:264|240:240,1,150.000005722046,8|0,0:3|0:0,0:0:0:0:
328,16,117196,2,0,B|328:144|328:144|304:208,1,150.000005722046,8|0,0:3|0:0,0:0:0:0:
256,308,117610,5,8,0:3:0:0:
139,191,117817,1,8,0:3:0:0:
256,75,118024,1,8,0:3:0:0:
372,192,118230,1,8,0:3:0:0:
416,80,118437,5,2,0:3:0:0:
240,176,118644,1,8,0:3:0:0:
208,208,118748,1,8,0:3:0:0:
192,224,118851,1,8,0:3:0:0:
416,80,119058,1,2,0:3:0:0:
160,256,119265,5,8,0:0:0:0:
120,168,119472,1,8,0:0:0:0:
240,256,119679,1,8,0:0:0:0:
288,168,119886,1,8,0:0:0:0:
208,168,120093,5,8,0:0:0:0:
336,88,120299,1,8,0:0:0:0:
208,168,120506,1,8,0:0:0:0:
80,80,120713,1,8,0:0:0:0:
208,80,120920,5,8,0:0:0:0:
144,128,121127,1,8,0:0:0:0:
208,80,121334,1,8,0:0:0:0:
272,128,121541,1,8,0:0:0:0:
208,176,121748,5,8,0:0:0:0:
136,248,121955,1,8,0:0:0:0:
208,176,122161,1,8,0:0:0:0:
280,248,122368,1,8,0:0:0:0:
320,208,122472,1,8,0:0:0:0:
352,176,122575,5,8,0:0:0:0:
280,104,122782,1,8,0:0:0:0:
352,176,122989,1,8,0:0:0:0:
280,248,123196,1,8,0:0:0:0:
208,312,123403,5,8,0:0:0:0:
280,248,123610,1,8,0:0:0:0:
136,248,123817,1,8,0:0:0:0:
208,176,124024,1,8,0:0:0:0:
136,248,124230,5,8,0:0:0:0:
280,248,124437,1,8,0:0:0:0:
176,144,124644,1,8,0:0:0:0:
328,144,124851,1,8,0:0:0:0:
248,32,125058,5,8,0:0:0:0:
112,248,125265,1,8,0:0:0:0:
248,32,125472,1,8,0:0:0:0:
384,248,125679,1,8,0:0:0:0:
96,104,125886,6,0,L|152:104,1,50,2|0,0:0|0:0,0:0:0:0:
144,184,126299,2,0,L|272:184,1,100,2|0,0:0|0:0,0:0:0:0:
416,104,126713,6,0,L|224:104,1,150.000005722046,2|0,0:0|0:0,0:0:0:0:
368,184,127127,2,0,L|128:184,1,200,2|0,0:0|0:0,0:0:0:0:
112,80,127541,5,8,0:3:0:0:
168,128,127748,1,8,0:3:0:0:
184,56,127955,1,8,0:3:0:0:
152,200,128161,1,8,0:3:0:0:
96,152,128368,1,8,0:3:0:0:
256,32,128575,1,8,0:3:0:0:
40,104,128782,1,8,0:3:0:0:
208,248,128989,1,8,0:3:0:0:
32,176,129196,5,8,0:3:0:0:
304,72,129403,1,8,0:3:0:0:
104,120,129610,5,8,0:3:0:0:
328,288,129817,1,8,0:3:0:0:
112,208,130024,5,8,0:3:0:0:
400,48,130230,1,8,0:3:0:0:
72,80,130437,5,8,0:3:0:0:
464,336,130644,1,8,0:3:0:0:
192,232,130851,6,0,L|173:251,1,25
256,120,131265,6,0,L|256:87,1,25
320,232,131679,6,0,L|339:251,1,25
256,192,132093,2,0,B|304:208|240:296|152:184|168:88|320:32|368:-16,1,300.000011444092,4|0,0:3|0:0,0:0:0:0:
200,184,132507,5,2,0:0:0:0:
284,268,132714,1,2,0:0:0:0:
168,299,132921,1,2,0:0:0:0:
235,184,133128,5,2,0:0:0:0:
266,298,133335,1,2,0:0:0:0:
150,267,133542,1,2,0:0:0:0:
248,203,133749,5,2,0:0:0:0:
211,339,133956,1,2,0:0:0:0:
112,239,134161,1,8,0:3:0:0:
84,200,134265,1,8,0:3:0:0:
76,163,134368,1,8,0:3:0:0:
79,126,134472,1,8,0:3:0:0:
95,92,134575,1,8,0:3:0:0:
211,339,134782,1,0,0:0:0:0:
120,64,134989,1,4,0:0:0:0:
152,182,135817,5,2,0:0:0:0:
315,106,136024,1,2,0:0:0:0:
299,286,136230,1,2,0:0:0:0:
153,210,136437,5,2,0:0:0:0:
291,94,136644,1,2,0:0:0:0:
322,271,136850,1,2,0:0:0:0:
161,235,137058,5,2,0:0:0:0:
265,88,137265,1,2,0:0:0:0:
341,251,137471,5,10,0:0:0:0:
168,120,137679,1,10,0:0:0:0:
288,336,137886,1,10,0:0:0:0:
184,40,138093,1,10,0:0:0:0:
432,72,138299,5,4,0:3:0:0:
144,240,138506,1,4,0:3:0:0:
248,48,138713,1,4,0:3:0:0:
392,360,138920,1,4,0:3:0:0:
225,244,139127,5,2,0:0:0:0:
225,139,139334,1,2,0:0:0:0:
316,192,139541,1,2,0:0:0:0:
203,222,139748,5,2,0:0:0:0:
256,131,139955,1,2,0:0:0:0:
308,222,140162,1,2,0:0:0:0:
195,192,140368,5,2,0:0:0:0:
286,139,140575,1,2,0:0:0:0:
288,248,140782,5,8,0:3:0:0:
357,272,140885,1,8,0:3:0:0:
424,244,140988,1,8,0:3:0:0:
456,178,141092,1,8,0:3:0:0:
435,107,141195,1,8,0:3:0:0:
288,248,141403,1,0,0:0:0:0:
368,80,141610,1,4,0:0:0:0:
288,48,142437,5,2,0:0:0:0:
224,144,142643,1,2,0:0:0:0:
160,248,142850,1,2,0:0:0:0:
400,72,143058,5,2,0:0:0:0:
312,192,143265,1,2,0:0:0:0:
224,320,143472,5,2,0:0:0:0:
240,112,143679,1,8,0:3:0:0:
104,192,143886,1,8,0:3:0:0:
384,192,144093,1,8,0:3:0:0:
152,112,144299,1,8,0:3:0:0:
328,112,144506,1,8,0:3:0:0:
240,32,144713,1,8,0:3:0:0:
128,320,144920,5,2,0:3:0:0:
416,64,145127,1,2,0:3:0:0:
200,200,145334,1,2,0:3:0:0:
328,320,145748,5,2,0:0:0:0:
392,272,145955,1,2,0:0:0:0:
272,264,146161,5,2,0:0:0:0:
352,200,146368,1,2,0:0:0:0:
216,216,146575,5,2,0:0:0:0:
304,136,146782,1,2,0:0:0:0:
144,176,146989,5,2,0:0:0:0:
240,72,147196,1,2,0:0:0:0:
240,72,147299,1,2,0:0:0:0:
240,72,147403,5,8,0:3:0:0:
225,112,147506,1,8,0:3:0:0:
224,154,147609,1,8,0:3:0:0:
237,195,147713,1,8,0:3:0:0:
262,230,147816,1,8,0:3:0:0:
72,144,148024,1,0,0:0:0:0:
296,256,148230,2,0,B|440:201|440:201|408:193|400:161,1,200,4|0,0:0|0:0,0:0:0:0:
168,232,149058,5,2,0:0:0:0:
320,152,149265,1,2,0:0:0:0:
376,256,149472,1,2,0:0:0:0:
168,232,149679,5,2,0:0:0:0:
481,57,149886,1,2,0:0:0:0:
411,189,150093,1,2,0:0:0:0:
340,322,150299,5,8,0:3:0:0:
376,256,150402,1,8,0:3:0:0:
411,189,150506,1,8,0:3:0:0:
446,123,150609,1,8,0:3:0:0:
481,57,150712,1,10,0:3:0:0:
368,88,150920,1,10,0:0:0:0:
289,57,151127,1,10,0:0:0:0:
176,88,151335,1,10,0:0:0:0:
19,45,151541,5,4,0:3:0:0:
176,88,151749,1,4,0:3:0:0:
289,57,151956,1,4,0:3:0:0:
444,88,152161,1,4,0:3:0:0:
176,289,152368,5,2,0:0:0:0:
176,88,152575,1,2,0:0:0:0:
349,189,152782,1,2,0:0:0:0:
151,270,152989,5,2,0:0:0:0:
204,76,153196,1,2,0:0:0:0:
344,218,153403,1,2,0:0:0:0:
135,241,153610,5,2,0:0:0:0:
235,66,153817,1,2,0:0:0:0:
336,240,154024,1,8,0:3:0:0:
277,297,154127,1,8,0:3:0:0:
197,315,154230,1,8,0:3:0:0:
120,287,154334,1,8,0:3:0:0:
70,222,154437,1,8,0:3:0:0:
336,240,154644,1,0,0:0:0:0:
62,141,154851,1,4,0:0:0:0:
104,288,155679,5,2,0:0:0:0:
408,64,155886,1,2,0:0:0:0:
184,312,156093,1,2,0:0:0:0:
408,288,156299,5,2,0:0:0:0:
104,64,156506,1,2,0:0:0:0:
328,312,156713,1,2,0:0:0:0:
104,192,156920,5,8,0:3:0:0:
136,160,157023,1,8,0:3:0:0:
176,192,157126,1,8,0:3:0:0:
208,160,157230,1,8,0:3:0:0:
248,192,157334,2,0,L|360:192,1,100,4|0,0:0|0:0,0:0:0:0:
472,112,158161,2,0,L|360:112,1,100,4|0,0:0|0:0,0:0:0:0:
256,192,158989,5,4,0:1:0:0:
256,192,159610,1,4,0:3:0:0:
160,144,159817,1,4,0:0:0:0:
256,192,160230,1,4,0:3:0:0:
256,192,161265,1,4,0:3:0:0:
464,56,161472,1,4,0:0:0:0:
256,192,161886,1,4,0:3:0:0:
256,192,162299,5,4,0:1:0:0:
256,192,162920,1,4,0:3:0:0:
72,320,163127,1,4,0:0:0:0:
256,192,163541,1,4,0:3:0:0:
256,192,164575,1,4,0:3:0:0:
432,96,164782,1,4,0:0:0:0:
256,192,165196,1,4,0:3:0:0:
256,192,165610,5,4,0:1:0:0:
256,192,166230,1,4,0:3:0:0:
72,48,166437,1,4,0:0:0:0:
256,192,166851,1,4,0:3:0:0:
256,192,167886,1,4,0:3:0:0:
408,288,168093,1,4,0:0:0:0:
256,192,168506,1,4,0:3:0:0:
256,192,168920,5,4,0:1:0:0:
256,192,169541,1,4,0:3:0:0:
416,112,169748,1,4,0:0:0:0:
256,192,170161,1,4,0:3:0:0:
256,192,170575,12,0,171817,0:0:0:0:
80,208,172230,5,2,0:0:0:0:
288,32,172437,1,0,0:0:0:0:
184,120,172644,2,0,L|232:168,1,50
432,208,173058,5,2,0:0:0:0:
224,32,173265,1,0,0:0:0:0:
328,120,173472,2,0,L|292:155,1,50
80,128,173886,5,2,0:0:0:0:
288,304,174093,1,0,0:0:0:0:
184,216,174300,2,0,L|219:180,1,50
432,128,174713,5,2,0:0:0:0:
224,304,174920,1,0,0:0:0:0:
328,216,175127,2,0,L|292:180,1,50
256,209,175541,5,2,0:0:0:0:
238,192,175748,1,0,0:0:0:0:
256,174,175955,1,0,0:0:0:0:
273,192,176161,1,0,0:0:0:0:
256,298,176368,5,2,0:0:0:0:
149,191,176575,1,0,0:0:0:0:
256,85,176782,1,0,0:0:0:0:
362,192,176989,1,0,0:0:0:0:
416,40,177196,5,2,0:0:0:0:
88,328,177610,1,2,0:0:0:0:
96,40,178024,5,2,0:0:0:0:
424,328,178438,1,2,0:0:0:0:
176,192,178851,6,0,B|176:80|176:80|256:160|256:160|336:80|336:80|336:192,1,450,4|0,0:0|0:0,0:0:0:0:
