osu file format v14

[General]
AudioFilename: audio.mp3
AudioLeadIn: 0
PreviewTime: -1
Countdown: 1
SampleSet: Normal
StackLeniency: 0.7
Mode: 0
LetterboxInBreaks: 0
WidescreenStoryboard: 0

[Editor]
Bookmarks: 12920,24214,35508,46802,55272,60935,61640,72214,77861,89155,100449,111743,123037,131508,137155,148449,154096,164684,173861,176684,196449,199273,210567,221861,227508,238802
DistanceSpacing: 1.1
BeatDivisor: 4
GridSize: 16
TimelineZoom: 1.65

[Metadata]
Title:Melt
TitleUnicode:メルト
Artist:Domyoji Cocoa
ArtistUnicode:道明寺ここあ
Creator:Titovare
Version:Melted Feelings
Source:
Tags:
BeatmapID:1950321
BeatmapSetID:934162

[Difficulty]
HPDrainRate:5
CircleSize:4
OverallDifficulty:7
ApproachRate:9
SliderMultiplier:1.4
SliderTickRate:1

[Events]
//Background and Video events
0,0,"Domyouji.Kokoa.full.2384380.jpg",0,0
//Break Periods
//Storyboard Layer 0 (Background)
//Storyboard Layer 1 (Fail)
//Storyboard Layer 2 (Pass)
//Storyboard Layer 3 (Foreground)
//Storyboard Sound Samples

[TimingPoints]
12935,352.941486510316,4,1,0,100,1,0
18567,-79.9999999999999,4,1,0,100,0,0
19272,-86.9565217391304,4,1,0,100,0,0
19890,-80,4,1,0,100,0,0
20508,-86.9565217391304,4,1,0,100,0,0
24743,-74.0740740740741,4,1,0,100,0,0
25287,-133.333333333333,4,1,0,100,0,0
25817,-74.0740740740741,4,1,0,100,0,0
26787,-133.333333333333,4,1,0,100,0,0
27229,-133.333333333333,4,1,0,100,0,0
30229,-133.333333333333,4,1,0,100,0,0
30405,-133.333333333333,4,1,0,100,0,0
30582,-133.333333333333,4,1,0,100,0,0
33758,-74.074074074074,4,1,0,100,0,0
40729,-133.333333333333,4,1,0,100,0,0
50964,-133.333333333333,4,1,0,10,0,0
51052,-133.333333333333,4,1,0,100,0,0
52640,-105.263157894737,4,1,0,100,0,0
53523,-79.9999999999999,4,1,0,100,0,0
54229,-64.5161290322581,4,1,0,100,0,0
54670,-80,4,1,0,100,0,0
60935,-95.2380952380952,4,1,0,100,0,1
65876,-95.2380952380952,4,1,0,70,0,1
66229,-95.2380952380952,4,1,0,100,0,1
71523,-95.2380952380952,4,1,0,70,0,1
71876,-95.2380952380952,4,1,0,100,0,1
72229,-68.9655172413793,4,1,0,100,0,1
73464,-95.2380952380952,4,1,0,100,0,1
77876,-68.9655172413793,4,1,0,100,0,0

[HitObjects]
17,65,12935,6,0,P|43:135|120:137,1,140
210,40,13464,1,0,0:0:0:0:
318,86,13640,2,0,L|367:155,1,70
460,252,13993,2,0,L|407:306,1,70
223,180,14346,2,0,P|178:237|224:298,1,140
464,276,15052,1,0,0:0:0:0:
432,99,15229,1,0,0:0:0:0:
279,187,15405,1,0,0:0:0:0:
165,35,15758,6,0,P|75:58|67:112,1,140
149,304,16287,1,0,0:0:0:0:
356,250,16464,2,0,P|409:187|366:120,1,140
211,57,16993,1,0,0:0:0:0:
36,171,17170,2,0,L|92:232,1,70
240,77,17523,2,0,L|195:142,1,70
111,328,17876,1,0,0:0:0:0:
280,142,18052,1,0,0:0:0:0:
33,226,18229,1,0,0:0:0:0:
339,294,18582,6,0,P|396:262|410:160,1,175
222,58,19111,1,0,0:0:0:0:
87,153,19287,2,0,P|56:190|50:246,1,80.5000015354157
167,319,19640,2,0,P|222:305|238:271,1,80.5000015354157
348,134,19993,2,0,B|321:72|321:72|283:29|212:36,1,175
45,168,20699,1,0,0:0:0:0:
223,313,20876,1,0,0:0:0:0:
321,132,21052,1,0,0:0:0:0:
179,45,21229,2,0,P|125:62|104:102,1,80.5000015354157
256,192,21582,12,0,22817,0:0:0:0:
256,192,22993,12,0,24229,0:0:0:0:
110,53,24582,5,0,0:0:0:0:
180,214,24758,2,0,P|223:258|284:256,1,94.5000003604889
436,164,25111,1,0,0:0:0:0:
379,99,25287,1,0,0:0:0:0:
360,80,25376,1,0,0:0:0:0:
337,68,25464,1,0,0:0:0:0:
311,64,25552,1,0,0:0:0:0:
285,66,25640,1,0,0:0:0:0:
158,110,25817,2,0,P|122:147|119:206,1,94.5000003604889
242,290,26170,6,0,L|344:327,1,94.5000003604889
359,247,26523,2,0,L|239:213,1,94.5000003604889
227,212,26787,1,0,0:0:0:0:
203,201,26876,1,0,0:0:0:0:
183,184,26964,1,0,0:0:0:0:
169,161,27052,1,0,0:0:0:0:
157,24,27229,6,0,L|228:30,1,52.5000020027161
346,168,27582,1,0,0:0:0:0:
406,38,27758,1,0,0:0:0:0:
504,187,27935,1,0,0:0:0:0:
298,66,28111,2,0,P|278:105|221:130,1,105.000004005432
130,68,28817,6,0,P|68:103|70:153,1,105.000004005432
164,247,29346,1,0,0:0:0:0:
340,88,29523,1,0,0:0:0:0:
108,53,29699,1,0,0:0:0:0:
45,140,29876,6,0,P|62:227|82:244,1,105.000004005432
190,270,30405,1,0,0:0:0:0:
187,125,30582,2,0,B|226:64|226:64|277:58|325:42,1,157.500006008148
374,88,31287,2,0,P|463:121|474:199,1,157.500006008148
445,239,31993,2,0,B|407:237|366:205|366:205|322:232|278:226,1,157.500006008148
94,167,32699,5,0,0:0:0:0:
239,43,32876,1,0,0:0:0:0:
252,228,33052,1,0,0:0:0:0:
115,38,33229,1,0,0:0:0:0:
294,171,33405,1,0,0:0:0:0:
121,232,33582,1,0,0:0:0:0:
275,66,33758,2,0,P|351:61|390:80,1,94.5000003604889
401,84,34023,1,0,0:0:0:0:
405,89,34111,1,0,0:0:0:0:
409,263,34287,5,0,0:0:0:0:
512,119,34464,1,0,0:0:0:0:
309,102,34640,1,0,0:0:0:0:
512,228,34817,1,0,0:0:0:0:
325,102,34993,1,0,0:0:0:0:
410,206,35170,1,0,0:0:0:0:
411,252,35258,1,0,0:0:0:0:
385,291,35346,1,0,0:0:0:0:
343,310,35435,1,0,0:0:0:0:
297,301,35523,1,0,0:0:0:0:
119,217,35699,5,0,0:0:0:0:
161,112,35876,2,0,P|212:78|250:89,1,94.5000003604889
318,114,36229,1,0,0:0:0:0:
471,221,36405,1,0,0:0:0:0:
281,235,36582,1,0,0:0:0:0:
428,117,36758,1,0,0:0:0:0:
369,316,36935,2,0,P|291:311|268:286,1,94.5000003604889
250,238,37287,1,0,0:0:0:0:
233,194,37376,1,0,0:0:0:0:
192,174,37464,1,0,0:0:0:0:
157,169,37552,1,0,0:0:0:0:
115,183,37640,1,0,0:0:0:0:
89,295,37817,6,0,P|128:325|190:324,1,94.5000003604889
424,207,38170,2,0,P|381:162|333:158,1,94.5000003604889
167,273,38523,1,0,0:0:0:0:
245,128,38699,1,0,0:0:0:0:
341,282,38876,1,0,0:0:0:0:
141,160,39052,1,0,0:0:0:0:
43,288,39229,6,0,P|86:329|146:330,1,94.5000003604889
219,274,39582,2,0,P|187:232|135:209,1,94.5000003604889
40,171,39935,1,0,0:0:0:0:
173,39,40111,1,0,0:0:0:0:
307,152,40287,2,0,L|352:239,1,94.5000003604889
209,330,40640,1,0,0:0:0:0:
91,262,40817,6,0,P|46:212|58:160,1,105.000004005432
129,51,41346,1,0,0:0:0:0:
185,187,41523,1,0,0:0:0:0:
261,54,41699,1,0,0:0:0:0:
417,104,41876,2,0,P|462:157|460:209,1,105.000004005432
420,278,42405,1,0,0:0:0:0:
343,311,42582,2,0,P|289:319|270:266,1,105.000004005432
343,139,43111,1,0,0:0:0:0:
193,212,43287,2,0,P|143:197|136:144,1,105.000004005432
209,54,43817,5,0,0:0:0:0:
287,168,43993,1,0,0:0:0:0:
334,44,44170,1,0,0:0:0:0:
187,155,44346,1,0,0:0:0:0:
406,95,44523,1,0,0:0:0:0:
199,5,44699,1,0,0:0:0:0:
329,216,44876,1,0,0:0:0:0:
436,38,45052,1,0,0:0:0:0:
281,98,45229,5,0,0:0:0:0:
281,98,45317,1,0,0:0:0:0:
281,98,45405,1,0,0:0:0:0:
401,238,45582,1,0,0:0:0:0:
396,57,45758,1,0,0:0:0:0:
237,231,45935,1,0,0:0:0:0:
461,125,46111,1,0,0:0:0:0:
235,59,46287,1,0,0:0:0:0:
323,139,46464,1,0,0:0:0:0:
340,168,46552,1,0,0:0:0:0:
351,201,46640,1,0,0:0:0:0:
354,236,46729,1,0,0:0:0:0:
348,270,46817,2,0,B|321:310|321:310|261:321,1,105.000004005432
52,227,47346,5,0,0:0:0:0:
348,270,47523,2,0,B|321:310|321:310|261:321,1,105.000004005432
53,136,48052,1,0,0:0:0:0:
348,270,48229,2,0,B|321:310|321:310|261:321,1,105.000004005432
79,40,48758,1,0,0:0:0:0:
348,270,48935,2,0,B|321:310|321:310|261:321,1,105.000004005432
53,194,49464,1,0,0:0:0:0:
172,43,49640,1,0,0:0:0:0:
297,192,49817,1,0,0:0:0:0:
98,290,49993,6,0,P|145:318|198:315,1,105.000004005432
408,271,50523,1,0,0:0:0:0:
321,140,50699,2,0,P|265:101|224:93,1,105.000004005432
56,93,51229,1,0,0:0:0:0:
51,289,51405,1,0,0:0:0:0:
199,150,51582,1,0,0:0:0:0:
251,326,51758,1,0,0:0:0:0:
399,336,52111,5,0,0:0:0:0:
419,319,52199,1,0,0:0:0:0:
435,298,52287,1,0,0:0:0:0:
444,274,52376,1,0,0:0:0:0:
447,248,52464,1,0,0:0:0:0:
351,192,52817,5,0,0:0:0:0:
349,225,52905,1,0,0:0:0:0:
337,256,52993,1,0,0:0:0:0:
317,283,53082,1,0,0:0:0:0:
290,302,53170,1,0,0:0:0:0:
168,292,53523,5,0,0:0:0:0:
203,266,53611,1,0,0:0:0:0:
234,235,53699,1,0,0:0:0:0:
258,199,53787,1,0,0:0:0:0:
275,158,53876,1,0,0:0:0:0:
167,93,54229,5,0,0:0:0:0:
162,146,54317,1,0,0:0:0:0:
141,196,54405,1,0,0:0:0:0:
106,237,54493,1,0,0:0:0:0:
60,266,54582,1,0,0:0:0:0:
46,83,54935,6,0,L|138:67,1,87.5
267,96,55287,2,0,L|210:180,1,87.5
79,310,55640,1,0,0:0:0:0:
206,171,55817,1,0,0:0:0:0:
201,340,55993,1,0,0:0:0:0:
88,191,56170,1,0,0:0:0:0:
280,286,56346,1,0,0:0:0:0:
112,111,56523,1,0,0:0:0:0:
232,188,56699,6,0,P|273:224|321:227,1,87.5
456,122,57052,2,0,P|412:73|363:53,1,87.5
239,63,57405,1,0,0:0:0:0:
70,155,57582,1,0,0:0:0:0:
173,263,57758,6,0,P|226:290|274:280,1,87.5
443,177,58111,1,0,0:0:0:0:
291,118,58287,1,0,0:0:0:0:
343,233,58464,1,0,0:0:0:0:
411,75,58640,1,0,0:0:0:0:
208,185,58817,1,0,0:0:0:0:
310,21,58993,1,0,0:0:0:0:
415,216,59170,1,0,0:0:0:0:
190,56,59346,1,0,0:0:0:0:
468,88,59523,5,0,0:0:0:0:
98,289,59876,5,0,0:0:0:0:
437,282,60229,5,0,0:0:0:0:
71,87,60582,5,0,0:0:0:0:
132,208,60935,2,0,P|201:233|276:187,1,146.999995513916
288,176,61376,1,0,0:0:0:0:
305,144,61464,1,0,0:0:0:0:
334,121,61552,1,0,0:0:0:0:
369,112,61640,1,0,0:0:0:0:
458,182,61993,6,0,P|446:234|353:285,1,146.999995513916
161,152,62523,1,0,0:0:0:0:
322,19,62699,1,0,0:0:0:0:
361,198,62876,1,0,0:0:0:0:
196,47,63052,1,0,0:0:0:0:
196,47,63140,1,0,0:0:0:0:
196,47,63229,1,0,0:0:0:0:
126,137,63405,6,0,P|81:171|76:209,1,73.4999977569581
146,313,63758,1,0,0:0:0:0:
245,163,63935,1,0,0:0:0:0:
336,321,64111,1,0,0:0:0:0:
141,194,64287,1,0,0:0:0:0:
141,194,64376,1,0,0:0:0:0:
141,194,64464,1,0,0:0:0:0:
336,321,64640,1,0,0:0:0:0:
220,142,64817,1,0,0:0:0:0:
196,265,64993,1,0,0:0:0:0:
196,265,65082,1,0,0:0:0:0:
196,265,65170,1,0,0:0:0:0:
282,295,65523,6,0,P|377:277|392:205,1,146.999995513916
396,233,65876,2,0,P|296:239|240:189,1,146.999995513916
189,279,66405,1,0,0:0:0:0:
70,250,66582,2,0,B|-1:211|88:189|56:115,1,146.999995513916
149,26,67111,1,0,0:0:0:0:
245,133,67287,2,0,P|301:205|365:203,1,146.999995513916
470,92,67817,5,0,0:0:0:0:
285,46,67993,1,0,0:0:0:0:
285,46,68082,1,0,0:0:0:0:
285,46,68170,1,0,0:0:0:0:
238,157,68346,6,0,L|203:236,1,73.4999977569581
106,328,68699,1,0,0:0:0:0:
171,162,68876,1,0,0:0:0:0:
225,302,69052,1,0,0:0:0:0:
54,195,69229,1,0,0:0:0:0:
261,219,69405,1,0,0:0:0:0:
48,277,69582,1,0,0:0:0:0:
171,162,69758,1,0,0:0:0:0:
100,356,69935,1,0,0:0:0:0:
25,155,70111,1,0,0:0:0:0:
249,330,70287,1,0,0:0:0:0:
108,110,70464,1,0,0:0:0:0:
254,226,70640,2,0,P|298:253|333:255,1,73.4999977569581
316,53,71170,6,0,P|413:84|445:149,1,146.999995513916
436,117,71523,2,0,B|348:147|365:216|316:232,1,146.999995513916
336,219,71876,2,0,P|274:139|205:147,1,146.999995513916
240,168,72229,2,0,B|208:234|116:225|87:184|89:157|112:135|112:135|138:130|166:133|189:165|173:258|109:313,1,406.000012390137
206,328,73287,2,0,P|260:306|279:255,1,101.500003097534
168,72,73640,1,0,0:0:0:0:
307,116,73817,1,0,0:0:0:0:
263,249,73993,6,0,P|218:274|174:278,1,73.4999977569581
63,140,74346,1,0,0:0:0:0:
259,198,74523,1,0,0:0:0:0:
104,254,74699,1,0,0:0:0:0:
104,254,74787,1,0,0:0:0:0:
104,254,74876,1,0,0:0:0:0:
249,64,75052,1,0,0:0:0:0:
193,269,75229,1,0,0:0:0:0:
72,104,75405,1,0,0:0:0:0:
298,201,75582,1,0,0:0:0:0:
50,220,75758,1,0,0:0:0:0:
182,48,75935,1,0,0:0:0:0:
193,269,76111,1,0,0:0:0:0:
336,120,76288,1,0,0:0:0:0:
303,102,76376,1,0,0:0:0:0:
370,147,76464,2,0,P|394:180|403:226,1,73.4999977569581
342,340,76817,6,0,L|249:321,1,73.4999977569581
103,118,77170,2,0,L|133:216,1,73.4999977569581
245,225,77523,1,0,0:0:0:0:
269,205,77611,1,0,0:0:0:0:
283,189,77699,1,0,0:0:0:0:
288,179,77787,1,0,0:0:0:0:
291,174,77876,1,0,0:0:0:0:
