osu file format v14

[General]
AudioFilename: MP3 192KBPS.mp3
AudioLeadIn: 0
PreviewTime: 34373
Countdown: 0
SampleSet: Soft
StackLeniency: 0.3
Mode: 0
LetterboxInBreaks: 0
EpilepsyWarning: 1
WidescreenStoryboard: 1

[Editor]
Bookmarks: 420,68505,74178,79852,91200
DistanceSpacing: 1.5
BeatDivisor: 4
GridSize: 8
TimelineZoom: 1.7

[Metadata]
Title:Just 4 You (Nightcore Mix)
TitleUnicode:Just 4 You (Nightcore Mix)
Artist:Domino Brothers
ArtistUnicode:Domino Brothers
Creator:MkGuh
Version:Voli's Super Insane
Source:
Tags:remix electro short cut edit ver manga girl anime for techno trance dance rave lumael hoen xincrin marianna gero fcl voli
BeatmapID:1062037
BeatmapSetID:373744

[Difficulty]
HPDrainRate:6
CircleSize:3.8
OverallDifficulty:8
ApproachRate:9
SliderMultiplier:1.7
SliderTickRate:1

[Events]
//Background and Video events
0,0,"BG.jpg",0,0
//Break Periods
2,68705,73578
//Storyboard Layer 0 (Background)
//Storyboard Layer 1 (Fail)
//Storyboard Layer 2 (Pass)
//Storyboard Layer 3 (Foreground)
//Storyboard Sound Samples

[TimingPoints]
420,354.609929078014,4,2,10,20,1,0
11590,-100,4,2,10,5,0,0
11767,-133.333333333333,4,2,10,60,0,0
23115,-117.647058823529,4,1,1,70,0,0
33044,-117.647058823529,4,2,10,70,0,0
34285,-117.647058823529,4,2,10,5,0,0
34462,-100,4,1,2,80,0,1
35880,-83.3333333333333,4,1,2,80,0,1
36058,-100,4,1,2,80,0,1
37299,-83.3333333333333,4,1,2,80,0,1
37476,-100,4,1,2,80,0,1
41554,-83.3333333333333,4,1,2,80,0,1
41732,-100,4,1,2,80,0,1
42973,-83.3333333333333,4,1,2,80,0,1
43150,-100,4,1,2,80,0,1
45810,-100,4,1,2,80,0,1
47228,-83.3333333333333,4,1,2,80,0,1
47405,-100,4,1,2,80,0,1
48646,-83.3333333333333,4,1,2,80,0,1
48824,-100,4,1,2,80,0,1
52902,-83.3333333333333,4,1,2,80,0,1
53079,-100,4,1,2,80,0,1
54320,-83.3333333333333,4,1,2,80,0,1
54498,-100,4,1,2,80,0,1
57157,-76.9230769230769,4,1,2,80,0,0
57512,-100,4,1,2,80,0,0
62476,-133.333333333333,4,1,2,80,0,0
62742,-100,4,1,2,80,0,0
67086,-133.333333333333,4,1,2,60,0,0
67441,-133.333333333333,4,1,2,80,0,0
67529,-133.333333333333,4,1,2,60,0,0
68505,-133.333333333333,4,2,10,60,0,0
74178,-117.647058823529,4,1,2,60,0,0
78256,-133.333333333333,4,1,2,60,0,0
78434,-133.333333333333,4,2,10,70,0,0
79675,-111.111111111111,4,2,10,70,0,0
79852,-111.111111111111,4,1,2,70,0,0
85526,-83.3333333333333,4,1,2,70,0,0
86944,-71.4285714285714,4,1,2,70,0,0
88717,-100,4,1,2,70,0,0
88895,-100,4,1,2,60,0,0
89072,-100,4,1,2,50,0,0
89249,-100,4,1,2,40,0,0
89427,-100,4,1,2,30,0,0
89604,-100,4,1,2,20,0,0
89781,-100,4,2,10,20,0,0
91200,-100,4,1,2,60,0,0

[Colours]
Combo1 : 202,202,202
Combo2 : 227,184,68
Combo3 : 55,55,255
Combo4 : 128,0,64

[HitObjects]
256,192,10349,12,0,11590,0:0:0:0:
124,35,11767,6,0,L|103:153,1,95.6250036478044,6|2,0:0|0:0,0:0:0:0:
152,108,12122,2,0,L|141:170,1,63.7500024318696,8|2,0:0|0:0,0:0:0:0:
107,250,12476,2,0,P|139:258|189:240,1,63.7500024318696
315,220,12831,2,0,P|285:212|253:218,1,63.7500024318696,8|0,0:0|0:0,0:0:0:0:
383,276,13185,6,0,P|404:221|389:175,1,95.6250036478044,2|2,0:0|0:0,0:0:0:0:
424,149,13540,1,8,0:0:0:0:
352,64,13717,2,0,B|306:71|306:71|269:58|269:58|207:67,1,127.500004863739,2|0,0:0|0:0,0:0:0:0:
133,82,14249,1,8,0:0:0:0:
194,155,14427,1,0,0:0:0:0:
77,275,14604,6,0,P|81:322|139:331,1,95.6250036478044,2|2,0:0|0:0,0:0:0:0:
159,307,14959,1,8,0:0:0:0:
285,205,15136,2,0,B|243:189|211:203|211:203|189:143,1,127.500004863739,2|2,0:0|0:0,0:0:0:0:
244,284,15668,1,8,0:0:0:0:
340,284,15845,1,2,0:0:0:0:
431,155,16022,6,0,P|417:109|430:61,1,95.6250036478044,2|2,0:0|0:0,0:0:0:0:
407,20,16377,1,8,0:0:0:0:
504,126,16554,2,0,P|509:166|382:216,1,191.250007295609,2|8,0:0|0:0,0:0:0:0:
343,142,17263,1,0,0:0:0:0:
433,327,17441,6,0,P|392:317|320:340,1,95.6250036478044,6|2,0:0|0:0,0:0:0:0:
300,301,17795,2,0,L|227:284,1,63.7500024318696,8|2,0:0|0:0,0:0:0:0:
147,192,18150,2,0,P|153:229|140:262,1,63.7500024318696,0|0,0:0|0:0,0:0:0:0:
122,110,18505,1,8,0:0:0:0:
238,161,18682,6,0,P|249:223|237:286,1,127.500004863739,2|0,0:0|0:0,0:0:0:0:
78,221,19214,1,8,0:0:0:0:
238,161,19391,2,0,B|312:131|312:131|348:184|419:172,1,191.250007295609,2|8,0:0|0:0,0:0:0:0:
392,78,20100,1,0,0:0:0:0:
249,37,20278,6,0,P|187:50|124:35,1,127.500004863739,2|8,0:0|0:0,0:0:0:0:
58,135,20810,2,0,P|31:164|84:153,1,127.500004863739,2|0,0:0|0:0,0:0:0:0:
177,141,21341,1,8,0:0:0:0:
155,273,21519,6,0,P|146:303|119:333,1,63.7500024318696,2|2,0:0|0:0,0:0:0:0:
211,194,21873,2,0,P|189:171|177:132,1,63.7500024318696,2|8,0:0|0:0,0:0:0:0:
251,281,22228,2,0,P|281:273|320:282,1,63.7500024318696,2|0,0:0|0:0,0:0:0:0:
401,317,22583,1,0,0:0:0:0:
385,222,22760,1,8,0:0:0:0:
443,42,22937,5,0,1:0:0:0:
443,42,23026,1,0,1:0:0:0:
443,42,23115,2,0,L|430:116,1,72.2500013780594,12|0,0:0|2:0,0:0:0:0:
316,223,23469,2,0,P|353:213|398:231,1,72.2500013780594,8|0,0:0|2:0,0:0:0:0:
280,294,23824,2,0,P|240:249|268:160,1,144.500002756119,8|8,0:0|0:0,0:0:0:0:
337,100,24356,1,0,2:0:0:0:
182,42,24533,6,0,L|111:69,1,72.2500013780594,8|0,0:0|2:0,0:0:0:0:
40,159,24888,2,0,L|111:167,1,72.2500013780594,8|0,0:0|2:0,0:0:0:0:
192,256,25242,2,0,L|121:283,1,72.2500013780594,8|0,0:0|2:0,0:0:0:0:
263,185,25597,2,0,P|289:221|293:259,1,72.2500013780594,8|0,0:0|2:0,0:0:0:0:
432,224,25951,6,0,P|464:240|416:304,1,144.500002756119,8|8,0:0|0:0,0:0:0:0:
318,257,26483,1,0,0:0:0:0:
415,155,26661,2,0,P|417:194|441:234,1,72.2500013780594,8|0,0:0|0:0,0:0:0:0:
506,109,27015,1,8,0:0:0:0:
456,12,27193,1,0,2:0:0:0:
309,120,27370,6,0,P|313:67|296:31,1,72.2500013780594,8|0,0:0|2:0,0:0:0:0:
238,175,27724,2,0,P|281:204|321:208,1,72.2500013780594,8|0,0:0|2:0,0:0:0:0:
225,86,28079,2,0,P|177:109|154:141,1,72.2500013780594,8|0,0:0|0:0,0:0:0:0:
309,120,28434,1,8,0:0:0:0:
256,288,28611,5,0,0:0:0:0:
256,288,28700,1,0,0:0:0:0:
256,288,28788,1,12,0:0:0:0:
368,320,28966,1,0,0:0:0:0:
336,208,29143,1,8,0:0:0:0:
256,288,29320,1,0,0:0:0:0:
176,208,29498,1,8,0:0:0:0:
144,320,29675,1,0,0:0:0:0:
256,288,29852,1,8,0:0:0:0:
255,112,30029,5,0,0:0:0:0:
255,112,30118,1,0,0:0:0:0:
255,112,30207,2,0,L|271:64,3,36.1250006890297,12|0|0|0,0:0|0:0|0:0|0:0,0:0:0:0:
352,48,30561,1,8,0:0:0:0:
387,45,30649,1,0,0:0:0:0:
421,57,30738,1,0,0:0:0:0:
447,81,30826,1,0,0:0:0:0:
462,114,30916,2,0,L|473:148,3,36.1250006890297,8|0|0|0,0:0|0:0|0:0|0:0,0:0:0:0:
400,208,31271,2,0,L|388:242,3,36.1250006890297,8|0|0|0,0:0|0:0|0:0|0:0,0:0:0:0:
317,307,31625,5,12,0:0:0:0:
283,292,31713,1,0,0:0:0:0:
248,284,31802,1,0,0:0:0:0:
212,285,31890,1,0,0:0:0:0:
177,295,31979,1,8,0:0:0:0:
143,305,32068,1,0,0:0:0:0:
107,306,32156,1,0,0:0:0:0:
72,297,32245,1,0,0:0:0:0:
38,283,32334,6,0,L|28:244,1,36.1250006890297,12|0,0:0|0:0,0:0:0:0:
111,181,32512,2,0,L|121:141,1,36.1250006890297,0|0,0:0|0:0,0:0:0:0:
38,79,32689,2,0,L|27:39,1,36.1250006890297,8|0,0:0|0:0,0:0:0:0:
139,28,32866,5,0,0:0:0:0:
139,28,32955,1,0,0:0:0:0:
139,28,33044,2,0,B|180:37|180:37|239:22,1,72.2500013780594,4|2,0:0|3:0,0:0:0:0:
256,64,33310,1,6,3:0:0:0:
448,80,33576,6,0,P|460:118|448:168,1,72.2500013780594,4|0,3:0|0:0,0:0:0:0:
384,176,33841,2,0,P|371:214|384:264,1,72.2500013780594,6|6,3:0|3:0,0:0:0:0:
450,284,34107,2,0,P|466:300|434:300,1,72.2500013780594,6|0,3:0|2:0,0:0:0:0:
256,192,34462,5,4,0:0:0:0:
220,316,34639,1,0,0:0:0:0:
184,136,34817,2,0,P|164:184|168:220,1,85,8|2,0:0|0:3,0:0:0:0:
304,120,35171,2,0,P|324:77|320:32,1,85,2|0,0:2|0:0,0:0:0:0:
256,192,35526,1,8,0:0:0:0:
240,62,35703,1,0,0:0:0:0:
256,192,35880,6,0,B|302:205|302:205|356:191,1,101.999996887207,2|0,0:2|0:0,0:0:0:0:
261,301,36235,2,0,B|170:275,1,85,8|2,0:0|0:3,0:0:0:0:
96,148,36590,2,0,P|85:201|100:245,1,85,2|0,0:2|0:0,0:0:0:0:
150,50,36944,1,8,0:0:0:0:
176,192,37122,1,0,0:0:0:0:
150,50,37299,6,0,P|80:62|36:48,1,101.999996887207,2|0,0:2|0:0,0:0:0:0:
256,112,37654,1,8,0:0:0:0:
256,272,37831,1,2,0:3:0:0:
336,192,38008,1,2,0:2:0:0:
176,192,38185,1,0,0:0:0:0:
256,112,38363,1,8,0:0:0:0:
256,272,38540,1,0,0:0:0:0:
104,238,38717,6,0,P|88:190|104:142,1,85,2|0,0:3|0:0,0:0:0:0:
177,15,39072,2,0,P|183:56|168:96,1,85,8|0,0:0|0:0,0:0:0:0:
11,174,39427,2,0,B|94:157,1,85,2|0,0:3|0:0,0:0:0:0:
30,63,39781,1,8,0:0:0:0:
176,192,39959,5,0,0:0:0:0:
176,192,40047,1,0,0:0:0:0:
176,192,40136,1,4,0:0:0:0:
256,96,40313,1,0,0:0:0:0:
240,256,40490,2,0,L|336:272,1,85,8|2,0:0|0:3,0:0:0:0:
407,128,40845,2,0,P|386:167|414:234,1,85,2|0,0:2|0:0,0:0:0:0:
366,46,41200,1,8,0:0:0:0:
465,180,41377,1,0,0:0:0:0:
366,46,41554,6,0,B|313:57|313:57|248:41,1,101.999996887207,2|0,0:2|0:0,0:0:0:0:
128,112,41909,2,0,L|224:144,1,85,8|2,0:0|0:3,0:0:0:0:
116,37,42263,2,0,P|60:75|52:104,1,85,2|0,0:2|0:0,0:0:0:0:
208,224,42618,1,8,0:0:0:0:
69,301,42795,1,0,0:0:0:0:
271,275,42973,6,0,P|289:208|265:167,1,101.999996887207,2|0,0:2|0:0,0:0:0:0:
428,163,43327,1,8,0:0:0:0:
333,58,43505,1,0,0:0:0:0:
471,29,43682,1,2,0:2:0:0:
350,137,43859,1,0,0:0:0:0:
487,108,44037,1,8,0:0:0:0:
394,4,44214,1,0,0:0:0:0:
266,132,44391,6,0,P|275:173|303:205,2,85,2|2|8,0:2|0:3|0:0,0:0:0:0:
133,242,44923,2,0,P|161:210|169:162,1,85,2|0,0:3|0:0,0:0:0:0:
243,284,45278,1,2,0:3:0:0:
243,284,45366,1,0,0:0:0:0:
243,284,45455,2,0,L|273:364,1,85,8|0,0:0|0:0,0:0:0:0:
88,174,45810,5,4,0:0:0:0:
155,44,45987,1,0,0:0:0:0:
3,155,46164,2,0,P|8:207|39:244,1,85,8|0,0:0|0:0,0:0:0:0:
97,88,46519,2,0,P|118:51|119:9,1,85,2|0,0:2|0:0,0:0:0:0:
214,131,46873,1,8,0:0:0:0:
37,27,47051,1,0,0:0:0:0:
214,131,47228,6,0,B|265:123|265:123|338:135,1,101.999996887207,2|0,0:2|0:0,0:0:0:0:
179,214,47583,2,0,P|136:176|126:132,1,85,8|0,0:0|0:0,0:0:0:0:
273,212,47937,2,0,L|262:307,1,85,2|0,0:2|0:0,0:0:0:0:
214,131,48292,1,8,0:0:0:0:
373,203,48469,1,0,0:0:0:0:
214,131,48646,6,0,B|233:85|233:85|217:35,1,101.999996887207,2|0,0:2|0:0,0:0:0:0:
124,100,49001,2,0,B|108:137|108:137|121:179,1,85,8|0,0:0|0:0,0:0:0:0:
176,288,49356,1,2,0:2:0:0:
256,192,49533,1,0,0:0:0:0:
336,288,49710,1,8,0:0:0:0:
256,192,49888,1,0,0:0:0:0:
304,80,50065,6,0,B|336:96|336:96|368:112|400:96,1,85,2|0,0:3|0:0,0:0:0:0:
208,80,50419,2,0,B|176:96|176:96|144:112|112:96,1,85,8|0,0:0|0:0,0:0:0:0:
256,0,50774,1,2,0:3:0:0:
336,208,50951,1,0,0:0:0:0:
336,208,51040,1,0,0:0:0:0:
336,208,51129,1,8,0:0:0:0:
381,82,51306,1,0,0:0:0:0:
415,240,51483,6,0,P|367:288|319:288,1,85,4|0,0:0|0:0,0:0:0:0:
224,256,51838,2,0,B|181:242|181:242|140:256,1,85,8|0,0:0|0:0,0:0:0:0:
64,128,52193,2,0,B|102:140|102:140|144:126,1,85,0|0,0:0|0:0,0:0:0:0:
32,240,52547,1,8,0:0:0:0:
102,59,52724,1,0,0:0:0:0:
32,240,52902,6,0,P|45:292|15:362,1,101.999996887207,2|0,0:2|0:0,0:0:0:0:
144,224,53256,2,0,P|183:210|225:223,1,85,8|0,0:0|0:0,0:0:0:0:
329,323,53611,2,0,P|369:334|409:321,1,85,2|0,0:2|0:0,0:0:0:0:
439,103,53966,1,8,0:0:0:0:
368,258,54143,1,0,0:0:0:0:
511,133,54320,6,0,P|517:99|483:39,1,101.999996887207,2|0,0:2|0:0,0:0:0:0:
371,168,54675,1,8,0:0:0:0:
311,23,54852,1,0,0:0:0:0:
439,103,55029,1,2,0:2:0:0:
289,114,55207,1,0,0:0:0:0:
405,18,55384,1,8,0:0:0:0:
371,168,55561,1,0,0:0:0:0:
221,49,55739,5,2,0:2:0:0:
124,151,55916,1,4,0:3:0:0:
124,151,56005,1,4,0:3:0:0:
124,151,56093,2,0,P|131:200|120:236,1,85,8|6,0:0|0:3,0:0:0:0:
266,284,56448,2,0,P|290:286|323:281,1,42.5,0|6,0:0|0:3,0:0:0:0:
330,204,56625,1,14,0:3:0:0:
330,204,56714,1,6,0:3:0:0:
330,204,56802,2,0,P|289:214|249:205,1,85,14|4,0:3|0:3,0:0:0:0:
398,25,57157,6,0,B|397:70|415:100|415:100|395:152|395:152|430:197|394:263,1,220.999989883423,4|8,0:0|0:0,0:0:0:0:
320,96,57689,1,2,0:2:0:0:
320,96,57778,1,2,0:2:0:0:
320,96,57866,1,0,0:0:0:0:
192,96,58044,1,2,0:2:0:0:
256,192,58221,1,8,0:0:0:0:
256,32,58398,1,2,0:2:0:0:
183,248,58576,6,0,P|256:284|329:248,1,170,2|8,0:2|0:0,0:0:0:0:
405,119,59107,1,2,0:2:0:0:
329,246,59285,2,0,P|319:294|334:340,1,85,2|2,0:2|0:2,0:0:0:0:
256,192,59639,1,8,0:0:0:0:
422,288,59817,1,2,0:2:0:0:
256,192,59994,6,0,B|192:160|192:160|144:192|96:160,1,170,2|8,0:2|0:0,0:0:0:0:
80,272,60526,1,2,0:2:0:0:
144,96,60703,1,2,0:2:0:0:
224,272,60880,1,2,0:2:0:0:
144,80,61058,1,8,0:0:0:0:
80,272,61235,1,2,0:2:0:0:
144,64,61412,6,0,B|196:51|196:51|253:73|253:73|283:57|328:64,1,170,2|8,0:2|0:0,0:0:0:0:
431,148,61944,1,2,0:2:0:0:
431,148,62033,1,2,0:2:0:0:
431,148,62122,1,0,0:0:0:0:
296,148,62299,1,2,0:2:0:0:
488,96,62476,6,0,P|505:127|487:201,1,95.6250036478044,8|0,0:0|0:0,0:0:0:0:
429,254,62831,6,0,P|374:237|244:265,1,170,4|8,0:0|0:0,0:0:0:0:
128,320,63363,1,2,0:2:0:0:
128,320,63451,1,2,0:2:0:0:
128,320,63540,1,0,0:0:0:0:
64,192,63717,1,2,0:2:0:0:
264,253,63895,1,8,0:0:0:0:
200,125,64072,1,2,0:2:0:0:
328,210,64249,6,0,P|339:269|309:315,1,85,2|0,0:2|0:0,0:0:0:0:
200,125,64604,1,8,0:0:0:0:
328,40,64781,1,2,0:2:0:0:
183,40,64959,1,2,0:2:0:0:
312,125,65136,1,2,0:2:0:0:
183,210,65313,1,8,0:0:0:0:
330,290,65490,1,2,0:2:0:0:
116,249,65668,6,0,P|105:208|118:168,1,85,2|0,0:2|0:0,0:0:0:0:
183,40,66022,1,8,0:0:0:0:
256,192,66200,1,2,0:2:0:0:
329,40,66377,2,0,L|416:64,1,85,2|2,0:2|0:2,0:0:0:0:
183,40,66732,2,0,L|96:64,1,85,8|2,0:0|0:2,0:0:0:0:
256,192,67086,6,0,L|256:281,1,63.7500024318696,2|0,2:0|0:0,0:0:0:0:
302,132,67441,2,0,P|256:116|211:131,1,95.6250036478044,2|2,2:0|2:0,0:0:0:0:
160,190,67795,1,0,0:0:0:0:
200,302,67973,1,2,2:0:0:0:
312,302,68150,1,2,2:0:0:0:
352,190,68328,1,0,1:0:0:0:
352,190,68416,1,0,0:0:0:0:
352,190,68505,5,4,0:0:0:0:
256,160,74178,6,0,L|256:232,1,72.2500013780594,4|0,0:0|0:0,0:0:0:0:
138,114,74533,2,0,P|186:106|210:82,1,72.2500013780594,8|0,0:0|0:0,0:0:0:0:
307,90,74888,2,0,P|337:110|373:114,1,72.2500013780594,2|0,0:2|0:0,0:0:0:0:
467,59,75242,1,8,0:0:0:0:
364,38,75419,1,0,0:0:0:0:
447,171,75597,6,0,B|436:213|436:213|446:240|446:240|433:284,1,108.375002067089,2|2,0:0|0:0,0:0:0:0:
396,311,75951,1,8,0:0:0:0:
264,192,76129,2,0,P|235:131|255:44,2,144.500002756119,2|0|0,0:2|0:2|0:0,0:0:0:0:
341,113,77015,6,0,B|413:89|413:137|485:113,1,144.500002756119,2|8,0:2|0:0,0:0:0:0:
482,270,77547,2,0,B|413:247|413:295|341:271,1,144.500002756119,2|0,0:2|0:0,0:0:0:0:
264,192,78079,1,8,0:0:0:0:
144,248,78256,6,0,L|128:320,1,63.7500024318696,2|0,0:0|0:0,0:0:0:0:
144,136,78611,2,0,L|128:64,1,63.7500024318696,2|0,0:0|0:0,0:0:0:0:
256,140,78966,2,0,B|292:192|292:192|256:243,1,127.500004863739,2|0,0:0|0:0,0:0:0:0:
384,248,79498,1,10,0:0:0:0:
384,136,79675,1,0,0:0:0:0:
277,57,79852,6,0,P|229:58|189:89,1,76.4999976654053,4|0,0:0|0:0,0:0:0:0:
119,180,80207,2,0,P|71:179|31:148,1,76.4999976654053,8|0,0:0|0:0,0:0:0:0:
197,152,80561,2,0,P|201:203|126:263,1,152.999995330811,0|8,0:0|0:0,0:0:0:0:
280,288,81093,6,0,L|296:368,1,76.4999976654053,0|0,0:0|0:0,0:0:0:0:
424,288,81448,1,0,0:0:0:0:
280,288,81625,1,8,0:0:0:0:
424,288,81802,2,0,L|454:137,1,152.999995330811,0|0,0:0|0:0,0:0:0:0:
352,149,82334,2,0,L|336:224,1,76.4999976654053,8|0,0:0|0:0,0:0:0:0:
301,77,82689,6,0,P|343:60|388:68,1,76.4999976654053,0|0,0:0|0:0,0:0:0:0:
211,77,83044,2,0,P|176:61|138:62,1,76.4999976654053,8|0,0:0|0:0,0:0:0:0:
78,227,83398,2,0,B|113:218|147:220|147:220|135:173|165:131,1,152.999995330811,0|8,0:0|0:0,0:0:0:0:
300,215,83930,6,0,L|217:190,1,76.4999976654053,0|0,0:0|0:0,0:0:0:0:
138,61,84285,1,0,0:0:0:0:
278,13,84462,1,8,0:0:0:0:
370,173,84639,2,0,P|381:239|317:297,1,152.999995330811,0|0,0:0|0:0,0:0:0:0:
210,273,85171,2,0,P|174:264|102:278,1,76.4999976654053,8|0,0:0|0:0,0:0:0:0:
205,77,85526,6,0,L|306:77,1,101.999996887207,4|0,0:0|0:0,0:0:0:0:
370,173,85880,5,8,0:0:0:0:
400,296,86058,1,0,0:0:0:0:
256,192,86235,1,0,0:0:0:0:
256,320,86412,1,0,0:0:0:0:
142,173,86589,1,8,0:0:0:0:
112,296,86767,1,0,0:0:0:0:
196,57,86944,6,0,L|314:57,1,118.999996368408,4|0,0:0|0:0,0:0:0:0:
203,154,87299,5,8,0:0:0:0:
306,330,87476,1,0,0:0:0:0:
154,242,87654,1,0,0:0:0:0:
356,242,87831,1,0,0:0:0:0:
204,330,88008,1,8,0:0:0:0:
306,154,88185,1,0,0:0:0:0:
178,17,88363,5,4,0:0:0:0:
216,17,88451,1,0,0:0:0:0:
255,17,88540,1,0,0:0:0:0:
293,17,88628,1,0,0:0:0:0:
328,16,88717,6,0,L|390:16,3,42.5,8|0|0|0,0:0|0:0|0:0|0:0,0:0:0:0:
394,97,89072,2,0,L|455:115,3,42.5
426,194,89427,2,0,L|468:255,3,42.5,8|0|0|0,0:0|0:0|0:0|0:0,0:0:0:0:
374,301,89781,1,0,1:0:0:0:
374,301,91200,5,6,0:0:0:0:
