osu file format v14

[General]
AudioFilename: MP3 192KBPS.mp3
AudioLeadIn: 0
PreviewTime: 34373
Countdown: 0
SampleSet: Normal
StackLeniency: 0.3
Mode: 0
LetterboxInBreaks: 0
EpilepsyWarning: 1
WidescreenStoryboard: 1

[Editor]
Bookmarks: 420,68505,74178,91200
DistanceSpacing: 0.5
BeatDivisor: 4
GridSize: 4
TimelineZoom: 1.1

[Metadata]
Title:Just 4 You (Nightcore Mix)
TitleUnicode:Just 4 You (Nightcore Mix)
Artist:Domino Brothers
ArtistUnicode:Domino Brothers
Creator:MkGuh
Version:Gero's Promise
Source:
Tags:remix electro short cut edit ver manga girl anime for techno trance dance rave lumael hoen xincrin marianna gero fcl voli
BeatmapID:902873
BeatmapSetID:373744

[Difficulty]
HPDrainRate:8
CircleSize:4.5
OverallDifficulty:8
ApproachRate:9
SliderMultiplier:1.8
SliderTickRate:1

[Events]
//Background and Video events
0,0,"BG.jpg",0,0
//Break Periods
2,68705,73578
//Storyboard Layer 0 (Background)
//Storyboard Layer 1 (Fail)
//Storyboard Layer 2 (Pass)
//Storyboard Layer 3 (Foreground)
//Storyboard Sound Samples

[TimingPoints]
420,354.609929078014,4,2,10,20,1,0
420,-200,4,2,10,20,0,0
11767,-133.333333333333,4,2,10,60,0,0
23115,-100,4,1,1,70,0,0
33044,-133.333333333333,4,2,10,70,0,0
34462,-100,4,1,2,80,0,1
45721,-100,4,1,2,80,0,0
45810,-100,4,1,2,80,0,1
57157,-90.9090909090909,4,1,2,80,0,0
67086,-90.9090909090909,4,1,2,60,0,0
67441,-90.9090909090909,4,1,2,80,0,0
67529,-90.9090909090909,4,1,2,60,0,0
68505,-133.333333333333,4,2,10,60,0,0
74178,-133.333333333333,4,1,2,60,0,0
78434,-133.333333333333,4,2,10,70,0,0
79852,-100,4,1,2,70,0,0
88895,-100,4,1,2,60,0,0
89072,-100,4,1,2,50,0,0
89249,-100,4,1,2,40,0,0
89427,-100,4,1,2,30,0,0
89604,-100,4,1,2,20,0,0
89781,-100,4,2,10,20,0,0
91200,-100,4,1,2,60,0,0

[Colours]
Combo1 : 177,177,177
Combo2 : 231,193,95
Combo3 : 74,74,255
Combo4 : 193,0,97

[HitObjects]
40,140,420,54,0,P|116:99|192:140,1,180,2|2,0:0|0:0,0:0:0:0:
471,244,1838,2,0,P|393:283|318:241,1,180,2|2,0:0|0:0,0:0:0:0:
318,241,3256,6,0,L|303:286,1,45,2|0,0:0|0:0,0:0:0:0:
212,184,3611,2,0,L|227:229,1,45
319,125,3966,2,0,L|304:170,1,45,2|0,0:0|0:0,0:0:0:0:
212,66,4320,2,0,L|227:111,1,45
304,49,4675,37,2,0:0:0:0:
316,40,5029,1,0,0:0:0:0:
328,31,5384,1,0,0:0:0:0:
340,22,5739,2,0,L|384:32,1,45
472,108,6093,6,0,B|472:160|498:192|498:192|472:224|472:276,1,180,2|2,0:0|0:0,0:0:0:0:
40,108,7512,2,0,B|40:160|14:192|14:192|40:224|40:276,1,180,2|2,0:0|0:0,0:0:0:0:
332,192,8930,38,0,P|256:151|180:192,1,180,2|2,0:0|0:0,0:0:0:0:
256,372,10349,1,2,0:0:0:0:
304,284,11767,6,0,B|256:268|256:268|208:284,2,101.250003862381,6|2|2,0:0|0:0|0:0,0:0:0:0:
375,355,12476,1,0,0:0:0:0:
446,283,12654,1,0,0:0:0:0:
374,211,12831,2,0,P|364:178|373:146,1,67.5000025749208,8|0,0:0|0:0,0:0:0:0:
492,7,13185,38,0,P|505:54|492:102,1,101.250003862381,2|2,0:0|0:0,0:0:0:0:
455,138,13540,1,8,0:0:0:0:
299,92,13717,2,0,B|335:55|383:55|383:55|423:55,1,135.000005149842,2|0,0:0|0:0,0:0:0:0:
256,12,14249,2,0,L|196:52,1,67.5000025749208,8|0,0:0|0:0,0:0:0:0:
120,144,14604,6,0,B|120:172|106:192|106:192|120:212|120:240,2,101.250003862381,2|2|2,0:0|0:0|0:0,0:0:0:0:
212,192,15313,1,0,0:0:0:0:
20,228,15490,1,2,0:0:0:0:
20,228,15579,1,2,0:0:0:0:
20,228,15668,2,0,P|10:195|19:163,1,67.5000025749208,8|0,0:0|0:0,0:0:0:0:
157,13,16022,38,0,P|170:60|157:108,1,101.250003862381,2|2,0:0|0:0,0:0:0:0:
120,144,16377,1,8,0:0:0:0:
212,192,16554,2,0,B|272:236|340:216|340:216|408:196,1,202.500007724762,2|8,0:0|0:0,0:0:0:0:
488,136,17263,1,0,0:0:0:0:
252,312,17441,6,0,B|244:345|244:345|252:378,1,67.5000025749208,6|0,0:0|3:0,0:0:0:0:
344,344,17707,2,0,B|352:311|352:311|344:278,1,67.5000025749208,2|0,0:0|3:0,0:0:0:0:
273,232,17973,2,0,L|404:197,1,135.000005149842,2|0,0:0|0:0,0:0:0:0:
488,136,18505,1,8,0:0:0:0:
408,76,18682,1,0,0:0:0:0:
408,76,18771,1,0,0:0:0:0:
408,76,18859,38,0,P|376:67|344:76,1,67.5000025749208,2|0,0:0|3:0,0:0:0:0:
287,140,19125,2,0,P|255:149|223:140,1,67.5000025749208,2|0,0:0|3:0,0:0:0:0:
169,76,19391,2,0,L|183:210,1,135.000005149842,2|0,0:0|0:0,0:0:0:0:
111,282,19923,1,8,0:0:0:0:
39,210,20100,1,0,0:0:0:0:
182,353,20278,6,0,B|214:342|214:342|246:353,1,67.5000025749208,2|0,0:0|3:0,0:0:0:0:
304,292,20544,2,0,B|336:303|336:303|368:292,1,67.5000025749208,2|0,0:0|3:0,0:0:0:0:
428,236,20810,2,0,B|404:252|393:292|393:292|404:332|428:348,1,135.000005149842,2|0,0:0|0:0,0:0:0:0:
511,290,21341,1,8,0:0:0:0:
332,212,21519,1,0,0:0:0:0:
332,212,21607,1,0,0:0:0:0:
332,212,21696,38,0,B|300:201|300:201|268:212,1,67.5000025749208,2|0,0:0|3:0,0:0:0:0:
210,151,21962,2,0,B|178:162|178:162|146:151,1,67.5000025749208,2|0,0:0|3:0,0:0:0:0:
86,95,22228,2,0,P|142:171|86:247,1,202.500007724762,2|8,0:0|0:0,0:0:0:0:
13,319,22937,1,0,1:0:0:0:
13,319,23026,1,0,1:0:0:0:
13,319,23115,5,12,0:0:0:0:
82,384,23292,1,0,2:0:0:0:
151,314,23469,2,0,B|196:314|196:314|229:348,1,90,8|0,0:0|2:0,0:0:0:0:
340,332,23824,2,0,L|212:205,1,180,8|8,0:0|0:0,0:0:0:0:
148,132,24356,1,0,2:0:0:0:
148,132,24444,1,0,2:0:0:0:
148,132,24533,37,8,0:0:0:0:
328,192,24710,1,0,2:0:0:0:
256,22,24888,2,0,B|243:65|243:65|256:108,1,90,8|0,0:0|2:0,0:0:0:0:
415,235,25242,2,0,B|428:192|428:192|415:149,2,90,8|0|8,0:0|2:0|0:0,0:0:0:0:
328,192,25774,1,0,2:0:0:0:
328,192,25863,1,0,2:0:0:0:
328,192,25951,6,0,L|489:270,1,180,8|8,0:0|0:0,0:0:0:0:
368,312,26483,2,0,B|342:312|326:299|326:299|310:312|284:312,1,90,0|8,2:0|0:0,0:0:0:0:
213,239,26838,2,0,B|187:239|171:252|171:252|155:239|129:239,1,90,0|8,2:0|0:0,0:0:0:0:
168,68,27193,1,0,2:0:0:0:
168,68,27281,1,0,2:0:0:0:
168,68,27370,38,0,P|182:109|168:151,1,90,8|0,0:0|2:0,0:0:0:0:
128,324,27724,2,0,P|115:281|129:239,1,90,8|0,0:0|2:0,0:0:0:0:
207,359,28079,2,0,P|127:324|47:360,1,180,8|8,0:0|0:0,0:0:0:0:
256,272,28611,1,0,0:0:0:0:
256,272,28700,1,0,0:0:0:0:
256,272,28788,5,12,0:0:0:0:
284,308,28876,1,0,0:0:0:0:
320,328,28965,1,0,0:0:0:0:
368,336,29053,1,0,0:0:0:0:
412,324,29142,1,8,0:0:0:0:
452,296,29231,1,0,0:0:0:0:
476,264,29319,1,0,0:0:0:0:
484,216,29408,1,0,0:0:0:0:
476,176,29497,37,8,0:0:0:0:
448,136,29585,1,0,0:0:0:0:
408,112,29674,1,0,0:0:0:0:
364,120,29763,1,0,0:0:0:0:
380,76,29851,1,8,0:0:0:0:
424,64,29941,1,0,0:0:0:0:
464,56,30029,1,0,0:0:0:0:
508,44,30117,1,0,0:0:0:0:
464,28,30206,5,12,0:0:0:0:
424,16,30295,1,0,0:0:0:0:
380,4,30383,1,0,0:0:0:0:
336,20,30472,1,0,0:0:0:0:
296,36,30561,1,8,0:0:0:0:
256,56,30649,1,0,0:0:0:0:
216,36,30738,1,0,0:0:0:0:
176,20,30827,1,0,0:0:0:0:
132,4,30915,37,8,0:0:0:0:
88,16,31004,1,0,0:0:0:0:
48,28,31092,1,0,0:0:0:0:
4,44,31182,1,0,0:0:0:0:
48,56,31271,1,8,0:0:0:0:
88,64,31359,1,0,0:0:0:0:
132,76,31448,1,0,0:0:0:0:
148,120,31536,1,0,0:0:0:0:
104,112,31624,5,12,0:0:0:0:
64,136,31713,1,0,0:0:0:0:
36,176,31802,1,0,0:0:0:0:
28,216,31890,1,0,0:0:0:0:
36,264,31979,1,8,0:0:0:0:
60,296,32068,1,0,0:0:0:0:
100,324,32156,1,0,0:0:0:0:
144,336,32245,1,0,0:0:0:0:
192,328,32334,37,12,0:0:0:0:
228,308,32422,1,0,0:0:0:0:
256,272,32511,1,0,0:0:0:0:
264,228,32600,1,0,0:0:0:0:
244,188,32689,1,8,0:0:0:0:
200,204,32778,1,0,0:0:0:0:
156,220,32866,6,0,L|132:231,4,22.5,0|0|0|0|4,0:0|0:0|0:0|0:0|0:0,0:0:0:0:
256,104,33221,1,2,3:0:0:0:
256,104,33310,2,0,B|256:64|256:64|260:56|260:56|252:56|252:56|256:48|256:48|256:12,2,101.250003862381,6|8|4,3:0|3:0|3:0,0:0:0:0:
356,220,34019,1,6,3:0:0:0:
356,220,34107,1,6,3:0:0:0:
113,355,34462,5,4,0:0:0:0:
37,279,34639,1,0,0:0:0:0:
114,203,34817,2,0,P|156:191|199:203,1,90,8|2,0:0|0:3,0:0:0:0:
342,104,35171,2,0,P|299:115|257:104,1,90,2|0,0:2|0:0,0:0:0:0:
249,100,35437,1,0,0:0:0:0:
241,96,35526,1,8,0:0:0:0:
300,4,35703,1,0,0:0:0:0:
440,59,35880,6,0,B|356:219,1,180,2|8,0:2|0:0,0:0:0:0:
256,280,36412,1,2,0:3:0:0:
356,219,36590,2,0,P|398:207|441:219,1,90,2|0,0:2|0:0,0:0:0:0:
504,264,36856,1,0,0:0:0:0:
504,264,36944,2,0,P|492:222|504:179,1,90,8|0,0:0|0:0,0:0:0:0:
355,51,37299,38,0,P|383:135|356:219,1,180,2|8,0:2|0:0,0:0:0:0:
256,280,37831,1,2,0:3:0:0:
368,332,38008,1,2,0:2:0:0:
256,152,38185,1,0,0:0:0:0:
256,152,38274,1,0,0:0:0:0:
256,152,38363,1,8,0:0:0:0:
144,332,38540,1,0,0:0:0:0:
356,219,38717,6,0,L|440:180,1,90,2|0,0:3|0:0,0:0:0:0:
157,51,39072,2,0,B|141:71|137:91|137:91|141:111|157:131,1,90,8|0,0:0|0:0,0:0:0:0:
355,131,39427,2,0,B|371:111|375:91|375:91|371:71|355:51,1,90,2|0,0:3|0:0,0:0:0:0:
74,181,39781,2,0,L|156:219,1,90,8|0,0:0|0:0,0:0:0:0:
208,272,40047,1,0,0:0:0:0:
208,272,40136,38,0,B|153:246|153:246|93:226|45:274,1,180,4|8,0:0|0:0,0:0:0:0:
256,372,40668,1,2,0:3:0:0:
73,95,40845,2,0,P|62:138|74:181,1,90,2|0,0:2|0:0,0:0:0:0:
88,260,41111,1,0,0:0:0:0:
88,260,41200,2,0,L|6:222,1,90,8|0,0:0|0:0,0:0:0:0:
168,132,41554,6,0,L|331:206,1,180,2|8,0:2|0:0,0:0:0:0:
408,283,42086,1,2,0:3:0:0:
484,206,42263,2,0,P|495:163|483:120,1,90,2|0,0:2|0:0,0:0:0:0:
411,78,42529,1,0,0:0:0:0:
411,78,42618,2,0,P|400:121|412:164,1,90,8|0,0:0|0:0,0:0:0:0:
480,24,42973,38,0,B|392:24|392:24|384:32|384:32|304:32,1,180,2|8,0:2|0:0,0:0:0:0:
226,108,43505,1,0,0:0:0:0:
302,184,43682,2,0,B|302:212|310:228|310:228|302:244|302:272,1,90,2|0,0:2|0:0,0:0:0:0:
256,336,43948,1,0,0:0:0:0:
256,336,44037,1,8,0:0:0:0:
396,264,44214,1,0,0:0:0:0:
220,228,44391,6,0,B|188:220|188:220|161:213|132:224,1,90,2|2,0:2|0:3,0:0:0:0:
72,280,44657,1,0,0:0:0:0:
72,280,44746,1,8,0:0:0:0:
198,51,44923,2,0,L|184:140,1,90,2|0,0:3|0:0,0:0:0:0:
256,336,45278,2,0,L|241:247,1,90,2|8,0:3|0:0,0:0:0:0:
144,368,45632,1,0,0:0:0:0:
507,278,45810,38,0,B|459:230|399:250|399:250|340:272,1,180,4|8,0:0|0:0,0:0:0:0:
432,336,46341,1,0,0:0:0:0:
480,164,46519,2,0,P|437:153|394:165,1,90,2|0,0:2|0:0,0:0:0:0:
344,224,46785,1,0,0:0:0:0:
344,224,46873,2,0,L|320:137,1,90,8|0,0:0|0:0,0:0:0:0:
168,281,47228,6,0,L|144:367,1,90,2|0,0:2|0:0,0:0:0:0:
68,376,47494,1,0,0:0:0:0:
68,376,47583,1,8,0:0:0:0:
228,193,47760,1,0,0:0:0:0:
64,281,47937,1,2,0:2:0:0:
272,281,48115,1,0,0:0:0:0:
272,281,48203,1,0,0:0:0:0:
272,281,48292,1,8,0:0:0:0:
108,193,48469,1,0,0:0:0:0:
272,103,48646,38,0,P|356:75|440:103,1,180,2|8,0:2|0:0,0:0:0:0:
356,280,49178,1,0,0:0:0:0:
356,280,49267,1,0,0:0:0:0:
356,280,49356,2,0,B|347:236|347:236|356:192,2,90,2|0|8,0:2|0:0|0:0,0:0:0:0:
452,232,49888,1,0,0:0:0:0:
256,104,50065,6,0,P|213:93|170:105,1,90,2|0,0:3|0:0,0:0:0:0:
170,279,50419,2,0,P|212:290|256:280,1,90,8|0,0:0|0:0,0:0:0:0:
272,92,50774,38,0,P|229:81|186:93,1,90,2|0,0:3|0:0,0:0:0:0:
186,291,51129,2,0,P|228:302|272:292,1,90,8|0,0:0|0:0,0:0:0:0:
340,256,51395,1,0,0:0:0:0:
340,256,51483,6,0,L|325:344,1,90,4|0,0:0|0:0,0:0:0:0:
244,192,51838,2,0,L|229:103,1,90,8|0,0:0|0:0,0:0:0:0:
305,26,52193,1,0,0:0:0:0:
152,160,52370,1,0,0:0:0:0:
152,160,52459,1,0,0:0:0:0:
152,160,52547,2,0,P|109:171|66:159,1,90,8|0,0:0|0:0,0:0:0:0:
176,292,52902,38,0,P|256:257|336:292,1,180,2|8,0:2|0:0,0:0:0:0:
256,364,53434,1,0,0:0:0:0:
336,292,53611,2,0,L|391:220,1,90,2|0,0:2|0:0,0:0:0:0:
397,214,53877,1,0,0:0:0:0:
403,207,53966,1,8,0:0:0:0:
479,130,54143,1,0,0:0:0:0:
402,53,54320,6,0,B|346:53|346:53|278:53|246:113,1,180,2|8,0:2|0:0,0:0:0:0:
168,188,54852,1,0,0:0:0:0:
88,116,55029,1,2,0:2:0:0:
12,192,55207,1,0,0:0:0:0:
12,192,55296,1,0,0:0:0:0:
12,192,55384,2,0,B|21:236|21:236|12:280,1,90,8|0,0:0|0:0,0:0:0:0:
88,356,55739,37,2,0:2:0:0:
164,279,55916,1,4,0:3:0:0:
164,279,56005,1,4,0:3:0:0:
164,279,56093,2,0,P|207:268|250:280,1,90,8|6,0:0|0:3,0:0:0:0:
304,216,56359,2,0,P|347:227|390:215,1,90,6|6,0:3|0:3,0:0:0:0:
464,192,56625,5,14,0:3:0:0:
457,212,56714,1,0,0:0:0:0:
449,233,56802,1,14,0:3:0:0:
442,253,56891,1,14,0:3:0:0:
434,274,56980,1,4,0:3:0:0:
352,364,57157,6,0,B|304:384|264:368|256:364|248:360|208:340|160:364,1,198.000006042481,4|8,0:0|0:0,0:0:0:0:
308,172,57689,1,2,0:2:0:0:
308,172,57778,1,2,0:2:0:0:
308,172,57866,2,0,P|319:220|308:268,1,99.0000030212403,0|2,0:0|0:2,0:0:0:0:
204,128,58221,2,0,P|193:80|204:32,1,99.0000030212403,8|2,0:0|0:2,0:0:0:0:
286,80,58576,6,0,L|104:159,1,198.000006042481,2|8,0:2|0:0,0:0:0:0:
33,239,59107,1,2,0:2:0:0:
104,52,59285,1,2,0:2:0:0:
175,239,59462,1,2,0:2:0:0:
4,128,59639,1,8,0:0:0:0:
204,128,59817,1,2,0:2:0:0:
33,239,59994,38,0,P|22:287|33:335,1,99.0000030212403,2|0,0:2|0:0,0:0:0:0:
284,174,60349,2,0,P|295:126|285:79,1,99.0000030212403,8|2,0:0|0:2,0:0:0:0:
52,259,60703,6,0,P|41:307|52:355,1,99.0000030212403,2|2,0:2|0:2,0:0:0:0:
303,194,61058,2,0,P|313:146|303:98,1,99.0000030212403,8|2,0:0|0:2,0:0:0:0:
215,264,61412,38,0,B|303:309|303:309|391:264,1,198.000006042481,2|8,0:2|0:0,0:0:0:0:
302,58,61944,1,2,0:2:0:0:
302,58,62033,2,0,P|277:126|303:194,1,148.50000453186,2|2,0:2|0:2,0:0:0:0:
372,124,62476,1,8,0:0:0:0:
303,282,62654,1,2,0:2:0:0:
234,124,62831,6,0,B|168:96|168:96|104:72|45:99,1,198.000006042481,4|8,0:0|0:0,0:0:0:0:
92,277,63363,1,2,0:2:0:0:
92,277,63451,1,2,0:2:0:0:
92,277,63540,2,0,L|108:180,1,99.0000030212403,0|2,0:0|0:2,0:0:0:0:
29,1,63895,2,0,L|45:99,1,99.0000030212403,8|2,0:0|0:2,0:0:0:0:
184,240,64249,38,0,B|228:256|256:305|256:305|284:256|328:240,1,198.000006042481,2|8,0:2|0:0,0:0:0:0:
256,172,64781,1,2,0:2:0:0:
184,240,64959,2,0,L|113:310,1,99.0000030212403,2|2,0:2|0:2,0:0:0:0:
328,240,65313,2,0,L|398:310,1,99.0000030212403,8|2,0:0|0:2,0:0:0:0:
344,116,65668,6,0,B|256:70|256:70|168:116,1,198.000006042481,2|8,0:2|0:0,0:0:0:0:
98,45,66200,1,2,0:2:0:0:
28,114,66377,2,0,P|17:162|28:210,1,99.0000030212403,2|2,0:2|0:2,0:0:0:0:
97,375,66732,2,0,P|108:327|98:280,1,99.0000030212403,8|2,0:0|0:2,0:0:0:0:
12,329,67086,38,0,L|210:329,1,198.000006042481,2|2,2:0|2:0,2:0:0:0:
360,236,67618,1,2,2:0:0:0:
360,236,67707,2,0,L|212:236,1,148.50000453186,2|2,2:0|2:0,2:0:0:0:
440,284,68150,2,0,B|456:237|456:237|440:190,1,99.0000030212403,2|0,2:0|1:0,2:0:0:0:
433,183,68416,1,0,0:0:0:0:
425,175,68505,5,4,0:0:0:0:
88,129,74178,38,0,P|67:192|88:255,1,135.000005149842,4|8,0:0|0:0,0:0:0:0:
168,192,74710,1,0,0:0:0:0:
88,129,74888,1,2,0:2:0:0:
168,68,75065,2,0,L|234:56,1,67.5000025749208,0|8,0:0|0:0,0:0:0:0:
284,145,75419,6,0,L|350:133,1,67.5000025749208,0|2,0:0|0:2,0:0:0:0:
422,61,75774,1,0,0:0:0:0:
422,61,75863,1,0,0:0:0:0:
422,61,75951,1,8,0:0:0:0:
493,132,76129,2,0,B|497:172|520:192|520:192|497:212|493:252,1,135.000005149842,2|2,0:2|0:2,0:0:0:0:
422,323,76661,1,8,0:0:0:0:
350,251,76838,1,0,0:0:0:0:
280,324,77015,38,0,B|228:324|228:324|193:358,1,101.250003862381,2|2,0:2|0:2,0:0:0:0:
193,358,77370,2,0,L|145:309,1,67.5000025749208,8|2,0:0|0:2,0:0:0:0:
74,238,77724,1,0,0:0:0:0:
145,166,77902,2,0,P|177:157|209:166,1,67.5000025749208,0|8,0:0|0:0,0:0:0:0:
256,76,78256,1,0,0:0:0:0:
367,166,78434,6,0,P|334:157|302:166,1,67.5000025749208,2|0,0:0|3:0,0:0:0:0:
336,236,78700,2,0,L|432:204,1,101.250003862381,2|2,0:0|0:0,0:0:0:0:
503,132,79143,1,0,0:0:0:0:
432,204,79320,1,0,0:0:0:0:
503,275,79498,2,0,P|512:307|503:339,1,67.5000025749208,10|0,0:0|0:0,0:0:0:0:
299,280,79852,38,0,B|256:267|256:267|213:280,1,90
144,320,80118,1,0,0:0:0:0:
144,320,80207,2,0,B|157:277|157:277|144:234,1,90,8|0,0:0|0:0,0:0:0:0:
8,104,80561,2,0,L|63:275,1,180,0|8,0:0|0:0,0:0:0:0:
298,182,81093,1,0,0:0:0:0:
298,182,81182,1,0,0:0:0:0:
298,182,81271,6,0,P|256:168|214:182,1,90
143,226,81537,1,0,0:0:0:0:
143,226,81625,2,0,P|157:184|143:142,1,90,8|0,0:0|0:0,0:0:0:0:
48,256,81980,2,0,L|225:287,1,180,0|8,0:0|0:0,0:0:0:0:
308,328,82512,1,0,0:0:0:0:
449,235,82689,38,0,B|462:192|462:192|449:149,1,90
394,91,82955,1,0,0:0:0:0:
394,91,83044,2,0,L|482:75,1,90,8|0,0:0|0:0,0:0:0:0:
344,191,83398,2,0,L|256:176,1,90
188,140,83664,1,0,0:0:0:0:
188,140,83753,1,8,0:0:0:0:
296,288,83930,6,0,P|310:330|296:372,1,90
216,328,84285,1,0,0:0:0:0:
216,328,84373,1,0,0:0:0:0:
216,328,84462,1,8,0:0:0:0:
296,288,84639,2,0,L|473:317,1,180
380,120,85171,2,0,L|398:208,1,90,8|0,0:0|0:0,0:0:0:0:
496,40,85526,38,0,L|477:128,1,90
467,137,85792,1,0,0:0:0:0:
457,146,85880,1,8,0:0:0:0:
292,112,86058,2,0,L|331:287,1,180
340,296,86501,1,0,0:0:0:0:
349,305,86590,1,8,0:0:0:0:
412,368,86767,1,0,0:0:0:0:
208,216,86944,6,0,B|165:203|165:203|122:216,1,90
292,112,87299,2,0,B|335:125|335:125|378:112,1,90,8|0,0:0|0:0,0:0:0:0:
208,8,87654,2,0,B|165:-5|165:-5|122:8,1,90
112,17,87919,1,0,0:0:0:0:
102,26,88008,1,8,0:0:0:0:
38,89,88185,1,0,0:0:0:0:
208,216,88363,37,0,0:0:0:0:
217,225,88451,1,0,0:0:0:0:
226,234,88540,1,0,0:0:0:0:
238,246,88629,1,0,0:0:0:0:
250,258,88717,1,8,0:0:0:0:
262,270,88806,1,0,0:0:0:0:
274,282,88895,6,0,L|236:320,1,45
376,248,89072,2,0,L|407:216,1,45
208,216,89249,38,0,L|170:254,1,45
310,182,89426,2,0,L|341:150,1,45,8|0,0:0|0:0,0:0:0:0:
142,150,89604,6,0,L|104:188,1,45
244,116,89781,1,2,0:0:0:0:
244,116,91200,37,4,0:0:0:0:
