osu file format v14

[General]
AudioFilename: MP3 192KBPS.mp3
AudioLeadIn: 0
PreviewTime: 34373
Countdown: 0
SampleSet: Normal
StackLeniency: 0.3
Mode: 0
LetterboxInBreaks: 0
EpilepsyWarning: 1
WidescreenStoryboard: 1

[Editor]
Bookmarks: 68505,74178
DistanceSpacing: 1.5
BeatDivisor: 4
GridSize: 4
TimelineZoom: 1

[Metadata]
Title:Just 4 You (Nightcore Mix)
TitleUnicode:Just 4 You (Nightcore Mix)
Artist:Domino Brothers
ArtistUnicode:Domino Brothers
Creator:MkGuh
Version:FCL's Insane
Source:
Tags:remix electro short cut edit ver manga girl anime for techno trance dance rave lumael hoen xincrin marianna gero fcl voli
BeatmapID:818772
BeatmapSetID:373744

[Difficulty]
HPDrainRate:7
CircleSize:4
OverallDifficulty:7
ApproachRate:9
SliderMultiplier:1.6
SliderTickRate:1

[Events]
//Background and Video events
0,0,"BG.jpg",0,0
//Break Periods
2,68705,73578
//Storyboard Layer 0 (Background)
//Storyboard Layer 1 (Fail)
//Storyboard Layer 2 (Pass)
//Storyboard Layer 3 (Foreground)
//Storyboard Sound Samples

[TimingPoints]
420,354.609929078014,4,1,0,60,1,0
11590,-100,4,1,0,5,0,0
11767,-133.333333333333,4,2,0,60,0,0
23115,-100,4,1,1,70,0,0
33044,-133.333333333333,4,1,1,70,0,0
34107,-200,4,1,1,5,0,0
34462,-100,4,1,2,80,0,1
45721,-100,4,1,2,80,0,0
45810,-90.9090909090909,4,1,2,80,0,1
57157,-90.9090909090909,4,1,2,80,0,0
67086,-90.9090909090909,4,1,2,80,0,0
67441,-90.9090909090909,4,1,2,80,0,0
67529,-90.9090909090909,4,1,2,80,0,0
68505,-133.333333333333,4,2,0,60,0,0
74178,-133.333333333333,4,1,2,60,0,0
78434,-133.333333333333,4,2,2,60,0,0
79852,-100,4,1,2,70,0,0
88895,-100,4,1,2,70,0,0
89072,-100,4,1,2,60,0,0
89249,-100,4,1,2,50,0,0
89427,-100,4,1,2,40,0,0
89604,-100,4,1,2,30,0,0
89781,-100,4,1,2,20,0,0
91200,-100,4,1,2,70,0,0

[Colours]
Combo1 : 177,177,177
Combo2 : 231,193,95
Combo3 : 74,74,255
Combo4 : 193,0,97

[HitObjects]
256,192,10349,12,0,11590,2:0:0:0:
79,136,11767,6,0,L|71:250,2,90.0000034332277,6|2|2,0:0|0:0|0:0,0:0:0:0:
149,78,12476,2,0,L|227:73,1,60.0000022888184,0|0,0:0|0:0,0:0:0:0:
327,137,12831,2,0,L|268:134,1,60.0000022888184,8|0,0:0|0:0,0:0:0:0:
181,160,13185,2,0,L|189:274,2,90.0000034332277,2|2|2,0:0|0:0|0:0,0:0:0:0:
208,74,13895,2,0,P|260:52|332:67,1,120.000004577637,0|8,0:0|0:0,0:0:0:0:
391,118,14427,1,0,0:0:0:0:
321,215,14604,6,0,P|307:271|325:325,1,90.0000034332277,2|2,0:0|0:0,0:0:0:0:
332,342,14959,1,8,0:0:0:0:
396,237,15136,2,0,P|393:180|323:138,1,120.000004577637,2|2,0:0|0:0,0:0:0:0:
260,154,15668,1,8,0:0:0:0:
304,75,15845,2,0,P|352:62|418:99,1,120.000004577637
424,181,16377,1,8,0:0:0:0:
304,75,16554,2,0,B|265:57|265:57|169:57,1,120.000004577637,2|0,0:0|0:0,0:0:0:0:
110,101,17086,1,8,0:0:0:0:
90,188,17263,1,0,0:0:0:0:
126,270,17441,6,0,P|177:282|228:268,2,90.0000034332277,6|2|2,0:0|0:0|0:0,0:0:0:0:
60,207,18150,2,0,L|59:134,1,60.0000022888184
110,72,18505,1,8,0:0:0:0:
162,144,18682,1,0,0:0:0:0:
218,74,18859,2,0,L|310:66,1,90.0000034332277,2|2,0:0|0:0,0:0:0:0:
350,81,19214,1,8,0:0:0:0:
297,191,19391,2,0,P|283:254|317:321,1,120.000004577637,2|0,0:0|0:0,0:0:0:0:
382,341,19923,2,0,L|454:342,1,60.0000022888184,8|0,0:0|0:0,0:0:0:0:
500,235,20278,6,0,L|504:133,1,90.0000034332277,2|2,0:0|0:0,0:0:0:0:
481,105,20632,1,8,0:0:0:0:
387,38,20810,2,0,L|264:31,1,120.000004577637,2|0,0:0|0:0,0:0:0:0:
193,82,21341,1,8,0:0:0:0:
274,120,21519,1,0,0:0:0:0:
197,7,21696,2,0,P|148:19|119:65,1,90.0000034332277,2|2,0:0|0:0,0:0:0:0:
110,91,22051,1,8,0:0:0:0:
190,168,22228,2,0,L|188:307,1,120.000004577637,2|0,0:0|0:0,0:0:0:0:
261,340,22760,1,8,0:0:0:0:
111,355,22937,1,0,1:0:0:0:
111,355,23026,1,0,0:0:0:0:
111,355,23115,6,0,L|113:275,1,80,12|0,0:0|2:0,0:0:0:0:
164,167,23469,1,8,0:0:0:0:
237,261,23646,1,0,2:0:0:0:
94,208,23824,2,0,P|86:152|176:86,1,160,8|8,0:0|0:0,0:0:0:0:
249,162,24356,1,0,2:0:0:0:
95,286,24533,2,0,P|53:275|21:220,1,80,8|0,0:0|2:0,0:0:0:0:
181,286,24888,2,0,L|256:316,1,80,8|0,0:0|2:0,0:0:0:0:
420,318,25242,1,8,0:0:0:0:
360,242,25419,1,0,2:0:0:0:
453,166,25597,1,8,0:0:0:0:
415,80,25774,1,0,2:0:0:0:
415,80,25951,6,0,B|346:70|346:70|248:79,1,160,8|8,0:0|0:0,0:0:0:0:
304,259,26483,2,0,P|340:208|295:94,1,160,0|0,2:0|2:0,0:0:0:0:
184,43,27015,1,8,0:0:0:0:
98,128,27193,2,0,L|89:298,1,160,0|0,2:0|2:0,0:0:0:0:
223,317,27724,1,8,0:0:0:0:
176,202,27902,2,0,L|184:42,1,160,0|0,2:0|0:0,0:0:0:0:
297,2,28434,1,8,0:0:0:0:
271,94,28611,1,0,0:0:0:0:
329,169,28788,6,0,L|266:188,3,40,12|0|0|0,0:0|0:0|0:0|0:0,0:0:0:0:
350,248,29143,2,0,L|413:267,3,40,8|0|0|0,0:0|0:0|0:0|0:0,0:0:0:0:
328,323,29498,2,0,L|265:342,3,40,8|0|0|0,0:0|0:0|0:0|0:0,0:0:0:0:
195,308,29852,1,8,0:0:0:0:
181,283,29940,1,0,0:0:0:0:
174,256,30029,1,0,0:0:0:0:
174,228,30117,1,0,0:0:0:0:
180,200,30207,6,0,L|238:187,3,40,12|0|0|0,0:0|0:0|0:0|0:0,0:0:0:0:
274,120,30561,2,0,L|313:111,3,40,8|0|0|0,0:0|0:0|0:0|0:0,0:0:0:0:
413,171,30916,2,0,L|373:162,3,40,8|0|0|0,0:0|0:0|0:0|0:0,0:0:0:0:
457,238,31271,2,0,L|497:247,1,40,8|0,0:0|0:0,0:0:0:0:
449,332,31448,2,0,L|409:323,1,40
339,277,31625,5,12,0:0:0:0:
307,278,31713,1,0,0:0:0:0:
275,279,31802,1,0,0:0:0:0:
243,280,31890,1,0,0:0:0:0:
211,281,31980,2,0,L|197:209,3,40,8|0|0|0,0:0|0:0|0:0|0:0,0:0:0:0:
234,138,32334,5,12,0:0:0:0:
266,115,32422,1,0,0:0:0:0:
304,104,32511,1,0,0:0:0:0:
344,107,32599,1,0,0:0:0:0:
381,122,32689,1,8,0:0:0:0:
416,138,32777,1,0,0:0:0:0:
454,129,32866,1,0,0:0:0:0:
479,99,32954,1,0,0:0:0:0:
480,60,33043,5,4,0:0:0:0:
392,16,33221,1,2,3:0:0:0:
392,16,33310,2,0,B|343:30|343:30|288:23,1,90.0000034332277,6|8,3:0|3:0,0:0:0:0:
236,101,33753,1,0,0:0:0:0:
236,101,33841,1,4,3:0:0:0:
307,173,34019,1,6,3:0:0:0:
307,173,34107,2,0,L|310:246,1,60,6|0,3:0|2:0,0:0:0:0:
370,291,34462,6,0,P|327:266|248:289,1,120,4|0,0:0|0:0,0:0:0:0:
233,319,34817,2,0,L|239:220,1,80,8|2,0:0|0:3,0:0:0:0:
252,80,35171,1,2,0:2:0:0:
356,160,35349,1,0,0:0:0:0:
214,201,35526,1,8,0:0:0:0:
319,145,35703,1,0,0:0:0:0:
165,117,35880,6,0,P|143:88|165:9,1,120,2|0,0:2|0:0,0:0:0:0:
209,7,36235,2,0,L|290:5,1,80,8|2,0:0|0:3,0:0:0:0:
430,95,36590,1,2,0:2:0:0:
319,145,36767,1,0,0:0:0:0:
472,235,36944,1,8,0:0:0:0:
390,146,37122,1,0,0:0:0:0:
355,295,37299,6,0,L|208:304,1,120,2|0,0:2|0:0,0:0:0:0:
189,286,37654,2,0,P|175:245|191:192,1,80,8|2,0:0|0:3,0:0:0:0:
310,124,38008,1,2,0:2:0:0:
192,102,38185,1,0,0:0:0:0:
251,242,38363,1,8,0:0:0:0:
362,199,38540,1,0,0:0:0:0:
181,209,38717,6,0,P|131:188|108:84,1,160,2|8,0:3|0:0,0:0:0:0:
207,29,39249,1,0,0:0:0:0:
181,209,39427,2,0,P|231:230|254:334,1,160,2|8,0:3|0:0,0:0:0:0:
368,370,39959,1,0,0:0:0:0:
278,242,40136,6,0,L|272:97,1,120,4|0,0:0|0:0,0:0:0:0:
251,78,40490,2,0,P|211:73|144:88,1,80,8|2,0:0|0:3,0:0:0:0:
74,166,40845,1,2,0:2:0:0:
193,157,41022,1,0,0:0:0:0:
59,38,41200,1,8,0:0:0:0:
171,78,41377,1,0,0:0:0:0:
55,246,41554,6,0,L|48:370,1,120,2|0,0:2|0:0,0:0:0:0:
94,351,41909,2,0,P|144:336|196:350,1,80,8|2,0:0|0:3,0:0:0:0:
300,276,42263,1,2,0:2:0:0:
194,217,42441,1,0,0:0:0:0:
401,171,42618,1,8,0:0:0:0:
340,348,42795,1,0,0:0:0:0:
268,170,42973,6,0,P|254:110|323:28,1,160,2|8,0:2|0:0,0:0:0:0:
208,111,43505,1,0,0:0:0:0:
344,214,43682,2,0,P|392:221|425:220,1,80,2|0,0:2|0:0,0:0:0:0:
269,307,44037,2,0,P|221:300|188:301,1,80,8|0,0:0|0:0,0:0:0:0:
32,341,44391,5,2,0:2:0:0:
32,341,44568,2,0,L|27:155,2,160,2|2|2,0:3|0:3|0:3,0:0:0:0:
148,372,45455,1,8,0:0:0:0:
131,277,45632,1,0,0:0:0:0:
187,135,45810,6,0,P|252:115|326:143,1,132.00000402832,4|0,0:0|0:0,0:0:0:0:
328,182,46164,2,0,P|323:131|359:70,1,88.000002685547,8|0,0:0|0:0,0:0:0:0:
501,61,46519,1,2,0:2:0:0:
400,146,46696,1,0,0:0:0:0:
288,26,46873,1,8,0:0:0:0:
187,135,47051,1,0,0:0:0:0:
267,276,47228,6,0,L|423:286,1,132.00000402832,2|0,0:2|0:0,0:0:0:0:
441,260,47583,2,0,B|460:219|460:219|455:157,1,88.000002685547,8|0,0:0|0:0,0:0:0:0:
295,128,47937,1,2,0:2:0:0:
379,26,48115,1,0,0:0:0:0:
341,218,48292,1,8,0:0:0:0:
222,161,48469,1,0,0:0:0:0:
315,288,48646,6,0,P|371:287|415:212,1,132.00000402832,2|0,0:2|0:0,0:0:0:0:
453,193,49001,2,0,P|456:135|453:77,1,88.000002685547,8|0,0:0|0:0,0:0:0:0:
301,28,49356,2,0,P|298:86|301:144,1,88.000002685547,2|0,0:2|0:0,0:0:0:0:
329,291,49710,1,8,0:0:0:0:
202,252,49888,1,0,0:0:0:0:
74,217,50065,6,0,B|56:89|56:89|70:112|110:141,1,176.000005371094,2|8,0:3|0:0,0:0:0:0:
200,169,50597,1,0,0:0:0:0:
307,93,50774,2,0,P|372:88|422:91,1,88.000002685547,2|0,0:3|0:0,0:0:0:0:
458,241,51129,2,0,P|393:236|343:239,1,88.000002685547,8|0,0:0|0:0,0:0:0:0:
207,250,51483,6,0,B|199:151|199:151|224:92,1,132.00000402832,4|0,0:0|0:0,0:0:0:0:
256,91,51838,2,0,L|139:92,1,88.000002685547,8|0,0:0|0:0,0:0:0:0:
46,178,52193,1,0,0:0:0:0:
169,225,52370,1,0,0:0:0:0:
59,54,52547,1,8,0:0:0:0:
185,16,52724,1,0,0:0:0:0:
240,178,52902,6,0,P|286:204|398:142,1,176.000005371094,2|8,0:2|0:0,0:0:0:0:
385,25,53434,1,0,0:0:0:0:
305,211,53611,2,0,L|298:315,1,88.000002685547,2|0,0:2|0:0,0:0:0:0:
138,331,53966,1,8,0:0:0:0:
305,211,54143,1,0,0:0:0:0:
122,167,54320,6,0,B|110:112|110:112|134:33,1,132.00000402832,2|0,0:2|0:0,0:0:0:0:
178,13,54675,2,0,B|223:6|223:6|284:23,1,88.000002685547,8|0,0:0|0:0,0:0:0:0:
342,173,55029,1,2,0:2:0:0:
228,105,55207,1,0,0:0:0:0:
413,231,55384,2,0,L|398:346,1,88.000002685547,8|0,0:0|0:0,0:0:0:0:
246,357,55739,5,2,0:2:0:0:
174,246,55916,1,4,0:3:0:0:
174,246,56005,1,4,0:3:0:0:
174,246,56093,2,0,P|168:197|184:132,1,88.000002685547,8|6,0:0|0:3,0:0:0:0:
283,84,56448,1,0,0:0:0:0:
304,83,56536,1,6,0:3:0:0:
326,82,56625,1,14,0:3:0:0:
348,81,56713,1,0,0:0:0:0:
370,81,56802,2,0,P|414:80|492:86,1,88.000002685547,14|4,0:3|0:3,0:0:0:0:
345,245,57157,6,0,B|295:257|249:240|249:240|206:225|140:258,1,176.000005371094,4|8,0:0|0:0,0:0:0:0:
67,324,57689,1,2,0:2:0:0:
67,324,57778,1,2,0:2:0:0:
67,324,57866,2,0,P|54:269|65:220,1,88.000002685547,0|2,0:0|0:2,0:0:0:0:
230,140,58221,1,8,0:0:0:0:
116,81,58398,1,2,0:2:0:0:
173,245,58576,6,0,P|248:278|336:206,1,176.000005371094,2|8,0:2|0:0,0:0:0:0:
230,140,59107,1,2,0:2:0:0:
402,123,59285,1,2,0:2:0:0:
405,210,59462,1,2,0:2:0:0:
304,59,59639,1,8,0:0:0:0:
494,59,59817,1,2,0:2:0:0:
326,127,59994,6,0,B|267:147|267:147|127:123,1,176.000005371094,2|8,0:2|0:0,0:0:0:0:
90,12,60526,1,2,0:2:0:0:
163,162,60703,2,0,P|168:209|154:274,1,88.000002685547,2|2,0:2|0:2,0:0:0:0:
279,353,61058,2,0,L|379:356,1,88.000002685547,8|2,0:0|0:2,0:0:0:0:
480,260,61412,6,0,B|486:119|486:119|463:177,1,176.000005371094,2|8,0:2|0:0,0:0:0:0:
376,241,61944,1,2,0:2:0:0:
376,241,62033,1,2,0:2:0:0:
376,241,62122,2,0,P|330:251|259:232,1,88.000002685547,0|2,0:0|0:2,0:0:0:0:
132,144,62476,2,0,L|139:303,1,132.00000402832,8|0,0:0|0:0,0:0:0:0:
209,295,62831,6,0,P|161:345|64:275,1,176.000005371094,4|8,0:0|0:0,0:0:0:0:
43,179,63363,1,2,0:2:0:0:
43,179,63451,1,2,0:2:0:0:
43,179,63540,1,0,0:0:0:0:
137,275,63717,1,2,0:2:0:0:
245,154,63895,1,8,0:0:0:0:
209,295,64072,1,2,0:2:0:0:
121,157,64249,6,0,L|23:6,1,176.000005371094,2|8,0:2|0:0,0:0:0:0:
154,36,64781,1,2,0:2:0:0:
61,206,64959,1,2,0:2:0:0:
191,186,65136,1,2,0:2:0:0:
82,310,65313,2,0,L|128:384,1,88.000002685547,8|2,0:0|0:2,0:0:0:0:
336,255,65668,6,0,B|342:185|342:185|363:149|363:149|366:66,1,176.000005371094,2|8,0:2|0:0,0:0:0:0:
245,28,66200,1,2,0:2:0:0:
381,162,66377,2,0,P|427:177|473:172,1,88.000002685547,2|2,0:2|0:2,0:0:0:0:
272,293,66732,2,0,P|226:278|180:283,1,88.000002685547,8|2,0:0|0:2,0:0:0:0:
23,227,67086,5,2,2:0:0:0:
256,192,67263,12,4,68505,0:0:0:0:
101,69,74178,6,0,P|138:49|206:60,1,90.0000034332277,4|0,0:0|0:0,0:0:0:0:
227,67,74533,1,8,0:0:0:0:
156,189,74710,1,0,0:0:0:0:
33,145,74888,2,0,P|27:189|28:226,1,60.0000022888184,2|0,0:2|0:0,0:0:0:0:
165,344,75242,2,0,L|247:348,1,60.0000022888184,8|0,0:0|0:0,0:0:0:0:
389,267,75597,2,0,B|411:215|411:215|400:130,1,120.000004577637,2|8,0:2|0:0,0:0:0:0:
457,301,76129,2,0,P|413:339|338:321,1,120.000004577637,2|2,0:2|0:2,0:0:0:0:
296,208,76661,1,8,0:0:0:0:
402,151,76838,1,0,0:0:0:0:
283,291,77015,6,0,P|179:294|140:293,1,120.000004577637,2|8,0:2|0:0,0:0:0:0:
43,164,77547,2,0,P|26:121|65:42,1,120.000004577637,2|0,0:2|0:0,0:0:0:0:
212,31,78079,1,8,0:0:0:0:
103,114,78256,1,0,0:0:0:0:
189,220,78434,6,0,P|229:227|293:218,1,90.0000034332277,2|2,0:0|0:0,0:0:0:0:
320,212,78788,1,0,0:0:0:0:
189,220,78966,2,0,B|182:361,1,120.000004577637,2|0,0:0|0:0,0:0:0:0:
75,300,79498,1,10,0:0:0:0:
118,194,79675,1,0,0:0:0:0:
228,89,79852,6,0,B|270:75|307:89|307:89|342:101|401:84,1,160,0|8,0:0|0:0,0:0:0:0:
267,161,80384,1,0,0:0:0:0:
358,18,80561,2,0,P|399:15|440:38,1,80
292,85,80916,1,8,0:0:0:0:
398,152,81093,1,0,0:0:0:0:
248,200,81271,2,0,B|124:203|124:203|144:198|170:179,1,160,0|8,0:0|0:0,0:0:0:0:
128,48,81802,2,0,B|120:106|120:106|136:151|136:151|121:231,1,160
281,249,82334,1,8,0:0:0:0:
256,105,82512,1,0,0:0:0:0:
212,288,82689,6,0,P|255:325|332:311,1,120
355,311,83044,2,0,L|361:218,1,80,8|0,0:0|0:0,0:0:0:0:
501,193,83398,1,0,0:0:0:0:
412,274,83576,1,0,0:0:0:0:
436,108,83753,1,8,0:0:0:0:
300,173,83930,1,0,0:0:0:0:
157,96,84107,2,0,L|346:89,1,160,0|8,0:0|0:0,0:0:0:0:
145,231,84639,2,0,P|116:181|172:89,1,160,0|0,0:0|0:0,0:0:0:0:
258,275,85171,1,8,0:0:0:0:
145,231,85349,1,0,0:0:0:0:
282,121,85526,6,0,P|320:116|378:119,2,80,0|0|8,0:0|0:0|0:0,0:0:0:0:
145,231,86058,2,0,B|135:172|135:172|159:56,1,160,0|0,0:0|0:0,0:0:0:0:
332,34,86590,1,8,0:0:0:0:
213,15,86767,1,0,0:0:0:0:
296,143,86944,6,0,P|334:138|392:141,2,80,0|0|8,0:0|0:0|0:0,0:0:0:0:
120,247,87476,2,0,B|110:188|110:188|134:72,1,160,0|0,0:0|0:0,0:0:0:0:
353,48,88008,1,8,0:0:0:0:
179,14,88185,1,0,0:0:0:0:
223,154,88363,6,0,L|239:209,3,40
328,160,88717,2,0,L|365:203,3,40,8|0|0|0,0:0|0:0|0:0|0:0,0:0:0:0:
450,204,89072,1,0,0:0:0:0:
469,229,89160,1,0,0:0:0:0:
480,259,89249,1,0,0:0:0:0:
480,290,89337,1,0,0:0:0:0:
471,321,89426,1,8,0:0:0:0:
452,347,89515,1,0,0:0:0:0:
426,365,89603,1,0,0:0:0:0:
396,374,89692,1,0,0:0:0:0:
364,373,89781,5,2,0:0:0:0:
364,373,91200,5,4,0:0:0:0:
