osu file format v14

[General]
AudioFilename: audio.mp3
AudioLeadIn: 0
PreviewTime: 0
Countdown: 0
SampleSet: Normal
StackLeniency: 0
Mode: 0
LetterboxInBreaks: 0
WidescreenStoryboard: 0

[Editor]
Bookmarks: 10,48000,54000
DistanceSpacing: 0.5
BeatDivisor: 4
GridSize: 16
TimelineZoom: 2.1

[Metadata]
Title:Sonic Underground theme (Sega Genesis Remix)
TitleUnicode:Sonic Underground theme (Sega Genesis Remix)
Artist:Dominicque Lorenzi
ArtistUnicode:Dominicque Lorenzi
Creator:Big Lez
Version:Eggman
Source:
Tags:osutrainer osutrainer
BeatmapID:3700914
BeatmapSetID:1800189

[Difficulty]
HPDrainRate:5
CircleSize:3.8
OverallDifficulty:9.3
ApproachRate:9.6
SliderMultiplier:1.4
SliderTickRate:1

[Events]
//Background and Video events
0,0,"bg.jpg",0,0
//Break Periods
//Storyboard Layer 0 (Background)
//Storyboard Layer 1 (Fail)
//Storyboard Layer 2 (Pass)
//Storyboard Layer 3 (Foreground)
//Storyboard Layer 4 (Overlay)
//Storyboard Sound Samples

[TimingPoints]
10,375,4,1,0,100,1,0

[HitObjects]
256,32,10,6,0,L|256:128,1,70
352,192,385,1,0,0:0:0:0:
160,192,573,1,0,0:0:0:0:
256,192,1510,1,0,0:0:0:0:
256,192,1602,12,0,2635,0:0:0:0:
256,192,2822,5,0,0:0:0:0:
424,280,3010,1,0,0:0:0:0:
364,348,3103,1,0,0:0:0:0:
278,380,3197,1,0,0:0:0:0:
188,369,3291,1,0,0:0:0:0:
113,318,3385,1,0,0:0:0:0:
71,237,3478,1,0,0:0:0:0:
71,146,3572,1,0,0:0:0:0:
113,65,3666,1,0,0:0:0:0:
188,14,3760,1,0,0:0:0:0:
278,3,3853,1,0,0:0:0:0:
364,35,3947,1,0,0:0:0:0:
424,103,4041,1,0,0:0:0:0:
446,192,4135,1,0,0:0:0:0:
256,192,4322,5,0,0:0:0:0:
424,280,4510,1,0,0:0:0:0:
364,348,4603,1,0,0:0:0:0:
278,380,4697,1,0,0:0:0:0:
188,369,4791,1,0,0:0:0:0:
113,318,4885,1,0,0:0:0:0:
71,237,4978,1,0,0:0:0:0:
71,146,5072,1,0,0:0:0:0:
113,65,5166,1,0,0:0:0:0:
188,14,5260,1,0,0:0:0:0:
278,3,5353,1,0,0:0:0:0:
364,35,5447,1,0,0:0:0:0:
424,103,5541,1,0,0:0:0:0:
446,192,5635,1,0,0:0:0:0:
256,192,5821,5,0,0:0:0:0:
424,280,6010,1,0,0:0:0:0:
364,348,6103,1,0,0:0:0:0:
278,380,6197,1,0,0:0:0:0:
188,369,6291,1,0,0:0:0:0:
113,318,6385,1,0,0:0:0:0:
71,237,6478,1,0,0:0:0:0:
71,146,6572,1,0,0:0:0:0:
113,65,6666,1,0,0:0:0:0:
188,14,6760,1,0,0:0:0:0:
278,3,6853,1,0,0:0:0:0:
364,35,6947,1,0,0:0:0:0:
424,103,7041,1,0,0:0:0:0:
446,192,7135,1,0,0:0:0:0:
256,192,7321,5,0,0:0:0:0:
318,270,7510,1,0,0:0:0:0:
233,290,7603,1,0,0:0:0:0:
165,235,7697,1,0,0:0:0:0:
165,148,7791,1,0,0:0:0:0:
233,93,7885,1,0,0:0:0:0:
318,113,7978,1,0,0:0:0:0:
356,192,8072,1,0,0:0:0:0:
256,32,8260,5,0,0:0:0:0:
256,192,8446,1,0,0:0:0:0:
256,352,8635,1,0,0:0:0:0:
256,192,8821,5,0,0:0:0:0:
424,280,9010,1,0,0:0:0:0:
364,348,9103,1,0,0:0:0:0:
278,380,9197,1,0,0:0:0:0:
188,369,9291,1,0,0:0:0:0:
113,318,9385,1,0,0:0:0:0:
71,237,9478,1,0,0:0:0:0:
71,146,9572,1,0,0:0:0:0:
113,65,9666,1,0,0:0:0:0:
188,14,9760,1,0,0:0:0:0:
278,3,9853,1,0,0:0:0:0:
364,35,9947,1,0,0:0:0:0:
424,103,10041,1,0,0:0:0:0:
446,192,10135,1,0,0:0:0:0:
256,192,10321,5,0,0:0:0:0:
430,264,10510,1,0,0:0:0:0:
389,325,10603,1,0,0:0:0:0:
328,366,10697,1,0,0:0:0:0:
255,380,10791,1,0,0:0:0:0:
183,366,10885,1,0,0:0:0:0:
122,325,10978,1,0,0:0:0:0:
81,264,11072,1,0,0:0:0:0:
67,191,11166,1,0,0:0:0:0:
81,119,11260,1,0,0:0:0:0:
122,58,11353,1,0,0:0:0:0:
183,17,11447,1,0,0:0:0:0:
256,3,11541,1,0,0:0:0:0:
328,17,11635,1,0,0:0:0:0:
389,58,11728,1,0,0:0:0:0:
430,119,11822,1,0,0:0:0:0:
444,192,11916,1,0,0:0:0:0:
256,192,12010,6,0,L|256:96,1,70
320,96,12290,1,0,0:0:0:0:
320,32,12571,1,0,0:0:0:0:
320,32,12946,1,0,0:0:0:0:
192,32,13321,1,0,0:0:0:0:
192,128,13510,2,0,L|192:224,1,70
192,288,13885,1,0,0:0:0:0:
192,288,14260,5,0,0:0:0:0:
320,96,14446,1,0,0:0:0:0:
320,288,14635,1,0,0:0:0:0:
320,288,14727,1,0,0:0:0:0:
320,288,14821,1,0,0:0:0:0:
320,288,14915,1,0,0:0:0:0:
320,288,15010,1,0,0:0:0:0:
320,128,15196,1,0,0:0:0:0:
320,128,15290,1,0,0:0:0:0:
320,128,15385,1,0,0:0:0:0:
192,288,15571,1,0,0:0:0:0:
192,128,15760,2,0,L|192:224,1,70
192,224,16040,1,0,0:0:0:0:
192,256,16135,1,0,0:0:0:0:
320,128,16510,5,0,0:0:0:0:
320,256,16790,1,0,0:0:0:0:
320,256,16885,1,0,0:0:0:0:
320,128,17071,1,0,0:0:0:0:
320,128,17165,1,0,0:0:0:0:
320,128,17260,1,0,0:0:0:0:
320,256,17540,1,0,0:0:0:0:
320,256,17635,1,0,0:0:0:0:
320,128,17821,1,0,0:0:0:0:
192,256,18010,1,0,0:0:0:0:
256,43,18196,1,0,0:0:0:0:
256,43,18290,1,0,0:0:0:0:
256,43,18385,1,0,0:0:0:0:
352,320,18571,1,0,0:0:0:0:
114,145,18760,1,0,0:0:0:0:
397,145,18948,1,0,0:0:0:0:
168,312,19135,1,0,0:0:0:0:
192,128,19510,6,0,L|192:224,1,70
192,224,19790,1,0,0:0:0:0:
192,256,19885,1,0,0:0:0:0:
320,256,20071,1,0,0:0:0:0:
320,256,20165,1,0,0:0:0:0:
320,256,20260,1,0,0:0:0:0:
192,128,20540,1,0,0:0:0:0:
192,128,20635,1,0,0:0:0:0:
320,128,20821,1,0,0:0:0:0:
320,128,20915,1,0,0:0:0:0:
320,128,21010,2,0,L|320:224,1,70
320,224,21290,1,0,0:0:0:0:
320,256,21385,1,0,0:0:0:0:
192,128,21571,2,0,L|192:288,1,140
192,352,22135,1,0,0:0:0:0:
320,128,22510,5,0,0:0:0:0:
256,43,22696,1,0,0:0:0:0:
256,43,22790,1,0,0:0:0:0:
256,43,22885,1,0,0:0:0:0:
352,320,23071,1,0,0:0:0:0:
114,145,23260,1,0,0:0:0:0:
397,145,23448,1,0,0:0:0:0:
168,312,23635,1,0,0:0:0:0:
192,128,23821,1,0,0:0:0:0:
192,128,23915,1,0,0:0:0:0:
192,128,24010,2,0,L|192:224,1,70
192,224,24290,1,0,0:0:0:0:
192,256,24385,1,0,0:0:0:0:
320,128,24571,2,0,L|320:224,1,70
256,96,24946,1,0,0:0:0:0:
256,288,25135,1,0,0:0:0:0:
256,160,25510,5,0,0:0:0:0:
256,224,25697,1,0,0:0:0:0:
64,160,25885,1,0,0:0:0:0:
64,224,26073,1,0,0:0:0:0:
448,160,26260,1,0,0:0:0:0:
448,224,26447,1,0,0:0:0:0:
256,192,26635,1,0,0:0:0:0:
256,192,26727,1,0,0:0:0:0:
256,192,26821,1,0,0:0:0:0:
256,192,26915,1,0,0:0:0:0:
256,192,27010,1,0,0:0:0:0:
253,190,27290,5,0,0:0:0:0:
128,96,27571,2,0,L|127:246,1,140
128,320,28135,1,0,0:0:0:0:
253,190,28322,1,0,0:0:0:0:
352,320,28510,1,0,0:0:0:0:
256,192,28791,1,0,0:0:0:0:
256,192,28885,1,0,0:0:0:0:
160,96,29072,1,0,0:0:0:0:
160,288,29260,1,0,0:0:0:0:
352,96,29446,1,0,0:0:0:0:
352,288,29635,1,0,0:0:0:0:
253,190,29821,1,0,0:0:0:0:
160,192,30196,5,0,0:0:0:0:
352,192,30477,1,0,0:0:0:0:
256,96,30760,2,0,L|257:241,1,140
256,320,31321,1,0,0:0:0:0:
160,96,31696,1,0,0:0:0:0:
352,96,32071,1,0,0:0:0:0:
256,192,32446,1,0,0:0:0:0:
256,192,32540,1,0,0:0:0:0:
256,192,32635,1,0,0:0:0:0:
256,64,32821,5,0,0:0:0:0:
256,320,33010,1,0,0:0:0:0:
384,192,33290,1,0,0:0:0:0:
128,192,33571,2,0,L|224:192,1,70
384,192,33946,1,0,0:0:0:0:
256,64,34321,1,0,0:0:0:0:
256,320,34510,2,0,L|256:224,1,70
256,192,34790,1,0,0:0:0:0:
256,192,34885,1,0,0:0:0:0:
416,192,35071,1,0,0:0:0:0:
128,192,35446,1,0,0:0:0:0:
416,192,35635,1,0,0:0:0:0:
128,192,35822,1,0,0:0:0:0:
192,192,36010,5,0,0:0:0:0:
320,192,36196,1,0,0:0:0:0:
192,192,36385,1,0,0:0:0:0:
320,192,36571,2,0,L|256:32,1,140
160,96,37135,1,0,0:0:0:0:
160,288,37321,1,0,0:0:0:0:
256,96,37510,1,0,0:0:0:0:
320,192,37885,1,0,0:0:0:0:
192,192,38260,1,0,0:0:0:0:
256,352,38635,1,0,0:0:0:0:
256,192,38821,1,0,0:0:0:0:
256,192,38915,1,0,0:0:0:0:
256,192,39010,1,0,0:0:0:0:
256,64,39197,5,0,0:0:0:0:
384,192,39477,1,0,0:0:0:0:
256,320,39760,1,0,0:0:0:0:
128,192,40040,1,0,0:0:0:0:
256,64,40321,1,0,0:0:0:0:
384,192,40696,1,0,0:0:0:0:
256,192,40885,1,0,0:0:0:0:
256,192,40977,1,0,0:0:0:0:
256,192,41071,1,0,0:0:0:0:
160,64,41260,1,0,0:0:0:0:
160,288,41447,1,0,0:0:0:0:
352,64,41635,1,0,0:0:0:0:
352,288,41821,1,0,0:0:0:0:
256,64,42010,5,0,0:0:0:0:
256,192,42196,1,0,0:0:0:0:
256,192,42290,1,0,0:0:0:0:
256,192,42385,1,0,0:0:0:0:
192,288,42571,1,0,0:0:0:0:
192,128,42760,2,0,L|192:224,1,70
192,224,43040,1,0,0:0:0:0:
192,256,43135,1,0,0:0:0:0:
320,128,43510,1,0,0:0:0:0:
320,256,43790,1,0,0:0:0:0:
320,256,43885,1,0,0:0:0:0:
320,128,44071,1,0,0:0:0:0:
320,128,44165,1,0,0:0:0:0:
320,128,44260,1,0,0:0:0:0:
320,256,44540,1,0,0:0:0:0:
320,256,44635,1,0,0:0:0:0:
128,160,44822,5,0,0:0:0:0:
128,224,45010,1,0,0:0:0:0:
384,160,45197,5,0,0:0:0:0:
384,224,45385,1,0,0:0:0:0:
64,160,45572,1,0,0:0:0:0:
64,224,45760,1,0,0:0:0:0:
448,160,45947,1,0,0:0:0:0:
448,224,46135,1,0,0:0:0:0:
256,192,46322,5,0,0:0:0:0:
192,128,46510,2,0,L|192:224,1,70
192,224,46790,1,0,0:0:0:0:
192,256,46885,1,0,0:0:0:0:
320,128,47071,1,0,0:0:0:0:
320,128,47165,1,0,0:0:0:0:
320,128,47260,1,0,0:0:0:0:
192,224,47446,1,0,0:0:0:0:
192,224,47540,1,0,0:0:0:0:
192,224,47635,1,0,0:0:0:0:
257,193,47821,1,0,0:0:0:0:
256,3,48010,5,0,0:0:0:0:
255,380,48197,1,0,0:0:0:0:
328,17,48385,1,0,0:0:0:0:
183,366,48572,1,0,0:0:0:0:
389,58,48760,1,0,0:0:0:0:
122,325,48947,1,0,0:0:0:0:
430,119,49135,1,0,0:0:0:0:
81,264,49322,1,0,0:0:0:0:
448,191,49510,6,0,L|364:191,1,70
176,0,49885,1,0,0:0:0:0:
176,384,50072,1,0,0:0:0:0:
336,0,50260,1,0,0:0:0:0:
336,384,50447,1,0,0:0:0:0:
272,0,50635,6,0,L|272:96,1,70
272,384,51010,6,0,L|272:288,1,70
336,0,51385,1,0,0:0:0:0:
336,384,51572,1,0,0:0:0:0:
176,0,51760,1,0,0:0:0:0:
176,384,51947,1,0,0:0:0:0:
256,0,52135,2,0,L|256:96,1,70
255,3,52510,5,0,0:0:0:0:
256,380,52697,1,0,0:0:0:0:
183,17,52885,1,0,0:0:0:0:
328,366,53072,1,0,0:0:0:0:
122,58,53260,1,0,0:0:0:0:
389,325,53447,1,0,0:0:0:0:
81,119,53635,1,0,0:0:0:0:
430,264,53822,1,0,0:0:0:0:
320,128,54010,6,0,L|320:224,1,70
320,224,54290,1,0,0:0:0:0:
320,256,54385,1,0,0:0:0:0:
192,128,54571,2,0,L|192:288,1,140
192,352,55135,1,0,0:0:0:0:
320,128,55510,5,0,0:0:0:0:
256,43,55696,1,0,0:0:0:0:
256,43,55790,1,0,0:0:0:0:
256,43,55885,1,0,0:0:0:0:
352,320,56071,1,0,0:0:0:0:
114,145,56260,1,0,0:0:0:0:
397,145,56448,1,0,0:0:0:0:
168,312,56635,1,0,0:0:0:0:
292,55,56821,1,0,0:0:0:0:
299,315,57010,2,0,L|372:269,1,70
416,32,57385,5,0,0:0:0:0:
416,352,57571,1,0,0:0:0:0:
96,32,57760,5,0,0:0:0:0:
96,352,57946,1,0,0:0:0:0:
256,193,58135,5,0,0:0:0:0:
