osu file format v14

[General]
AudioFilename: audio.mp3
AudioLeadIn: 0
PreviewTime: 34320
Countdown: 0
SampleSet: Soft
StackLeniency: 0.2
Mode: 0
LetterboxInBreaks: 0
WidescreenStoryboard: 1

[Editor]
DistanceSpacing: 2.4
BeatDivisor: 16
GridSize: 4
TimelineZoom: 1.9

[Metadata]
Title:Cellar Door
TitleUnicode:Cellar Door
Artist:Dominia
ArtistUnicode:Dominia
Creator:Mortem
Version:Entwine in the land of sad dreams
Source:
Tags:∆ominiA russian symphonic melodic gothic metal rock Sersh4nt sershant Divine Revolution The Darkness Of Bright Life
BeatmapID:1978389
BeatmapSetID:947226

[Difficulty]
HPDrainRate:6
CircleSize:6
OverallDifficulty:8
ApproachRate:8.5
SliderMultiplier:0.9
SliderTickRate:1

[Events]
//Background and Video events
0,0,"background.jpg",0,0
//Break Periods
//Storyboard Layer 0 (Background)
//Storyboard Layer 1 (Fail)
//Storyboard Layer 2 (Pass)
//Storyboard Layer 3 (Foreground)
//Storyboard Layer 4 (Overlay)
//Storyboard Sound Samples

[TimingPoints]
458,530.973451327434,4,2,1,20,1,0
458,-133.333333333333,4,2,1,20,0,0
2050,487.80487804878,4,2,1,20,1,0
2050,-133.333333333333,4,2,1,20,0,0
2537,555.555555555556,4,2,1,20,1,0
2537,-133.333333333333,4,2,1,20,0,0
3648,521.739130434783,4,2,1,20,1,0
4169,-133.333333333333,4,2,1,20,0,0
4691,530.973451327434,4,2,1,20,1,0
4691,-133.333333333333,4,2,1,20,0,0
6814,540.540540540541,4,2,1,20,1,0
6814,-133.333333333333,4,2,1,20,0,0
7762,-133.333333333333,4,2,1,5,0,0
7895,519.930675909879,4,2,1,20,1,0
7895,-133.333333333333,4,2,1,20,0,0
8934,545.454545454546,4,2,1,20,1,0
8934,-133.333333333333,4,2,1,20,0,0
10024,530.973451327434,4,2,1,20,1,0
10554,-133.333333333333,4,2,1,20,0,0
11063,530.973451327434,4,2,1,20,1,0
11063,-133.333333333333,4,2,1,20,0,0
12080,550.45871559633,4,2,1,20,1,0
13186,530.973451327434,4,2,1,20,1,0
13186,-133.333333333333,4,2,1,20,0,0
14817,521.739130434783,4,2,1,20,1,0
14817,-133.333333333333,4,2,1,20,0,0
15338,521.739130434783,4,2,1,20,1,0
16381,-133.333333333333,4,2,1,20,0,0
16773,-133.333333333333,4,2,1,5,0,0
16903,-133.333333333333,4,2,1,20,0,0
17424,530.973451327434,4,2,1,20,1,0
17424,-133.333333333333,4,2,1,20,0,0
19573,530.973451327434,4,2,1,20,1,0
19573,-133.333333333333,4,2,1,20,0,0
20601,555.555555555556,4,2,1,20,1,0
20601,-133.333333333333,4,2,1,20,0,0
21675,530.973451327434,4,2,1,20,1,0
21675,-133.333333333333,4,2,1,20,0,0
23798,521.739130434783,4,2,1,20,1,0
23798,-133.333333333333,4,2,1,20,0,0
25111,576.923076923077,4,2,1,20,1,0
25399,530.973451327434,4,2,1,20,1,0
25399,-133.333333333333,4,2,1,20,0,0
25929,530.973451327434,4,2,1,20,1,0
25929,-133.333333333333,4,2,1,20,0,0
29645,521.739130434783,4,2,1,20,1,0
29645,-133.333333333333,4,2,1,20,0,0
30166,526.315789473684,4,2,1,20,1,0
31744,535.714285714286,4,2,1,20,1,0
32011,512.820512820513,4,2,1,20,1,0
32267,542.986425339367,4,2,1,20,1,0
34438,530.973451327434,4,2,1,40,1,0
34880,-100,4,2,1,5,0,0
35057,-100,4,2,1,40,0,0
36429,-100,4,2,1,5,0,0
36561,-100,4,2,1,40,0,0
39084,-100,4,2,1,5,0,0
39216,530.973451327434,4,2,1,40,1,0
39764,530.973451327434,4,2,1,40,1,0
40013,530.973451327434,4,2,1,40,1,0
40676,-100,4,2,1,5,0,0
40789,530.973451327434,4,2,1,40,1,0
42933,530.973451327434,4,2,1,40,1,0
43331,-100,4,2,1,5,0,0
43463,-100,4,2,1,40,0,0
44924,-100,4,2,1,5,0,0
45046,535.714285714286,4,2,1,40,1,0
47181,530.973451327434,4,2,1,40,1,0
47745,545.454545454546,4,2,1,40,1,0
48256,530.973451327434,4,2,1,40,1,0
48753,530.973451327434,4,2,1,40,1,0
49151,-100,4,2,1,5,0,0
49304,524.017467248908,4,2,1,40,1,0
49697,-100,4,2,1,5,0,0
49828,-100,4,2,1,40,0,0
50367,508.474576271186,4,2,1,40,1,0
51412,530.973451327434,4,2,1,40,1,0
52872,-100,4,2,1,5,0,0
53004,-100,4,2,1,40,0,0
54465,-100,4,2,1,5,0,0
54597,-100,4,2,1,40,0,0
57119,-100,4,2,1,5,0,0
57251,-100,4,2,1,40,0,0
57650,-100,4,2,1,5,0,0
57782,-100,4,2,1,40,0,0
59774,-100,4,2,1,5,0,0
59906,-100,4,2,1,40,0,0
61367,-100,4,2,1,5,0,0
61499,-100,4,2,1,40,0,0
61898,-100,4,2,1,5,0,0
62030,-100,4,2,1,40,0,0
63889,508.474576271187,4,2,1,40,1,0
64143,618.556701030928,4,2,1,40,1,0
66008,500,4,2,1,40,1,0
67071,530.973451327434,4,2,1,40,1,0
67336,-133.333333333333,4,2,1,40,0,0
68410,530.973451327434,4,2,1,60,1,0
68410,-100,4,2,1,60,0,0
76109,-100,4,2,1,40,0,0
76374,-100,4,2,1,60,0,0
100533,-100,4,2,1,40,0,0
100799,-100,4,2,1,60,0,0
101595,-100,4,2,9,60,0,0
101861,-100,4,2,8,60,0,0
102392,-80,4,2,1,60,0,0
109820,525.164113785558,4,2,1,60,1,0
109820,-80,4,2,1,60,0,0
110887,530.973451327434,4,2,1,60,1,0
110887,-80,4,2,1,60,0,0
118315,530.973451327434,4,2,1,60,1,0
118315,-80,4,2,10,60,0,0
118580,-80,4,2,9,60,0,0
118846,-80,4,2,8,60,0,0
119383,530.973451327434,4,2,1,60,1,0
119383,-80,4,2,1,60,0,0
135312,-80,4,2,10,60,0,0
135577,-80,4,2,9,60,0,0
135843,-80,4,2,8,60,0,0
136109,-80,4,2,1,60,0,0
140091,-80,4,2,9,60,0,0
140357,-80,4,2,8,60,0,0
140622,-80,4,2,1,60,0,0
152569,-80,4,2,10,60,0,0
152834,-80,4,2,9,60,0,0
153100,-80,4,2,8,60,0,0
153366,-80,4,2,1,60,0,0
156817,-80,4,2,10,60,0,0
157082,-80,4,2,9,60,0,0
157348,-80,4,2,8,60,0,0
157614,-80,4,2,1,60,0,0
169284,530.973451327434,4,2,1,60,1,0
169284,-80,4,2,1,60,0,0
170356,530.973451327434,4,2,1,60,1,1
170356,-66.6666666666667,4,2,1,60,0,1
174073,-66.6666666666667,4,2,9,60,0,1
174339,-66.6666666666667,4,2,8,60,0,1
174604,-66.6666666666667,4,2,1,60,0,1
185755,-66.6666666666667,4,2,1,40,0,1
186020,-66.6666666666667,4,2,1,45,0,1
186286,-66.6666666666667,4,2,1,50,0,1
186551,-66.6666666666667,4,2,1,55,0,1
186817,-66.6666666666667,4,2,1,60,0,1
187347,-80,4,2,1,60,0,0
190799,-80,4,2,9,60,0,0
191064,-80,4,2,8,60,0,0
191595,-80,4,2,1,60,0,0
199294,-80,4,2,9,60,0,0
199559,-80,4,2,8,60,0,0
200090,-80,4,2,1,60,0,0
207790,-80,4,2,9,60,0,0
208055,-80,4,2,8,60,0,0
208586,-80,4,2,1,60,0,0
211507,-80,4,2,8,60,0,0
211905,-80,4,2,9,60,0,0
212038,-80,4,2,8,60,0,0
212436,-80,4,2,9,60,0,0
212569,-80,4,2,8,60,0,0
212834,-80,4,2,1,60,0,0
216286,-80,4,2,9,60,0,0
216551,-80,4,2,8,60,0,0
217082,-80,4,2,1,60,0,0
233011,-80,4,2,9,60,0,0
233277,-80,4,2,8,60,0,0
233542,-80,4,2,1,60,0,0
236728,-80,4,2,1,40,0,0
237259,-80,4,2,1,45,0,0
237525,-80,4,2,1,50,0,0
237790,-80,4,2,1,55,0,0
238321,-80,4,2,1,60,0,0
250002,-80,4,2,9,60,0,0
250268,-80,4,2,8,60,0,0
250533,-80,4,2,1,60,0,0
254516,-80,4,2,10,60,0,0
254781,-80,4,2,9,60,0,0
255047,-80,4,2,8,60,0,0
255312,-80,4,2,1,60,0,0
266994,-80,4,2,9,60,0,0
267259,-80,4,2,8,60,0,0
267525,-80,4,2,1,60,0,0
283985,-80,4,2,9,60,0,0
284250,-80,4,2,8,60,0,0
284516,-80,4,2,1,60,0,0
293463,530.973451327434,4,2,1,40,1,0
295055,530.973451327434,4,2,1,40,1,0
295585,505.902192242833,4,2,1,40,1,0
296596,550.45871559633,4,2,1,40,1,0
297696,565.973451327434,4,2,1,40,1,0
298260,504.201680672269,4,2,1,40,1,0
298512,560.747663551402,4,2,1,40,1,0
298792,500,4,2,1,40,1,0
299042,550.45871559633,4,2,1,40,1,0
299317,535.714285714286,4,2,1,40,1,0
299852,789.827027880894,4,2,1,40,1,0
299852,-200,4,2,1,40,0,0
301431,517.241379310345,4,2,1,5,1,0
301948,512.820512820513,4,2,1,40,1,0
302204,555.555555555556,4,2,1,40,1,0
302481,491.803278688525,4,2,1,40,1,0
302726,598.2,4,2,1,40,1,0
303025,474.229806166968,4,2,1,40,1,0
303736,598.199419746563,4,2,1,40,1,0
304035,542.064180398959,4,2,1,40,1,0
304035,-400,4,2,1,40,0,0
306067,-400,4,2,1,5,0,0
306203,530.973451327434,4,2,1,40,1,0
307264,483.870967741935,4,2,1,40,1,0
307505,530.973451327434,4,2,1,40,1,0
307770,565.973451327434,4,2,1,40,1,0
308335,518.618400580853,4,2,1,40,1,0
308335,-400,4,2,1,40,0,0
310279,-400,4,2,1,5,0,0
310409,515.928893655989,4,2,1,40,1,0
310924,564.973451327434,4,2,1,40,1,0
311488,540.540540540541,4,2,1,40,1,0
312569,545.454545454546,4,2,1,40,1,0
313664,463.973451327434,4,2,1,40,1,0
313916,594.973451327434,4,2,1,40,1,0
314215,530.973451327434,4,2,1,40,1,0
314690,394.736842105263,4,2,1,40,1,0
314887,681.818181818181,4,2,1,40,1,0
315227,555.555555555556,4,2,1,40,1,0
315782,517.241379310345,4,2,1,40,1,0
316823,524.973451327434,4,2,1,40,1,0
317610,530.973451327434,4,2,1,40,1,0
318140,464.973451327434,4,2,1,40,1,0
318372,563.973451327434,4,2,1,40,1,0
318943,534.75935828877,4,2,1,40,1,0
318943,-400,4,2,1,40,0,0
320547,640.973451327434,4,2,1,5,1,0
320853,545.454545454546,4,2,1,40,1,0

[Colours]
Combo1 : 182,22,22
Combo2 : 198,98,98
SliderBorder : 200,0,0
SliderTrackOverride : 110,100,100

[HitObjects]
105,311,458,6,0,P|167:302|210:243,1,135.000005149841,2|0,0:2|0:0,0:0:0:0:
343,59,2050,2,0,P|363:56|381:57,1,33.7500012874604
447,95,2537,2,0,P|453:128|446:171,1,67.5000025749207,2|0,0:2|0:0,0:0:0:0:
172,286,3648,1,0,0:0:0:0:
172,286,4169,2,0,P|177:250|170:224,1,50.6250019311906
219,169,4691,6,0,P|273:199|349:173,1,135.000005149841,2|0,0:2|0:0,0:0:0:0:
474,89,6283,1,0,0:0:0:0:
340,180,6814,2,0,P|363:232|353:295,1,118.125004506111,2|0,0:2|0:0,0:0:0:0:
322,316,7895,2,0,P|280:295|221:297,1,101.250003862381
82,353,8934,6,0,P|52:293|73:219,1,135.000005149841,2|0,0:2|0:0,0:0:0:0:
173,107,10554,2,0,P|193:104|211:105,1,33.7500012874604
276,146,11063,2,0,P|291:197|266:267,1,129.375004935265,2|0,0:2|0:0,0:0:0:0:
124,353,12630,1,0,0:0:0:0:
315,91,13186,6,0,P|406:67|447:86,1,135.000005149841,2|0,0:2|0:0,0:0:0:0:
484,237,14817,2,0,P|454:260|418:262,1,67.5000025749208,0|2,0:0|0:2,0:0:0:0:
90,162,16381,2,0,P|99:133|94:111,1,50.6250019311906,2|0,0:2|0:0,0:0:0:0:
121,82,16903,2,0,P|140:91|164:91,1,33.7500012874604
276,197,17424,6,0,P|292:230|389:263,1,135.000005149842,2|0,0:2|0:0,0:0:0:0:
230,332,19016,2,0,P|211:331|194:336,1,33.7500012874604
127,293,19573,2,0,P|103:231|113:167,1,130.781254988909,2|0,0:2|0:0,0:0:0:0:
263,63,21156,2,0,P|267:82|269:98,1,30.0000011444092
326,276,21675,6,0,P|364:322|449:327,1,135.000005149842
481,176,23267,2,0,P|484:157|477:133,1,33.7500012874604
424,85,23798,2,0,P|379:74|358:74,2,67.5000025749208,2|2|2,0:2|0:2|0:2,0:0:0:0:
499,115,25111,1,0,0:0:0:0:
449,179,25399,2,0,P|446:198|446:221,1,33.7500012874604
332,330,25929,6,0,P|270:319|200:331,1,135.000005149842,2|0,0:2|0:0,0:0:0:0:
39,354,27521,1,0,0:0:0:0:
148,234,28052,1,2,0:2:0:0:
434,83,29114,2,0,P|425:63|412:48,1,33.7500012874604,2|0,0:2|0:0,0:0:0:0:
357,108,29645,2,0,P|357:136|334:174,1,67.5000025749208,0|2,0:0|0:2,0:0:0:0:
206,328,31744,5,2,0:2:0:0:
299,273,32011,1,2,0:2:0:0:
214,189,32267,1,2,0:2:0:0:
91,275,34438,6,0,P|103:235|92:194,1,75,2|0,0:2|0:0,0:0:0:0:
143,148,35057,2,0,P|188:164|235:153,1,90
432,193,36030,2,0,P|438:240|431:270,1,67.5,2|0,0:2|0:0,0:0:0:0:
365,342,36561,6,0,P|316:355|265:341,1,90,2|0,0:2|0:0,0:0:0:0:
316,134,37623,2,0,P|329:183|315:234,1,90,2|0,0:2|0:0,0:0:0:0:
64,47,38685,6,0,P|96:37|129:43,1,67.5,2|0,0:2|0:0,0:0:0:0:
178,66,39216,2,0,P|223:84|242:83,1,60,2|0,0:2|0:0,0:0:0:0:
308,56,39764,1,2,0:2:0:0:
386,118,40013,1,2,0:2:0:0:
320,203,40278,2,0,P|276:190|244:197,1,67.5,2|0,0:2|0:0,0:0:0:0:
165,252,40789,6,0,P|149:209|158:157,1,90,2|0,0:2|0:0,0:0:0:0:
307,12,41850,2,0,P|323:55|318:110,1,90
462,346,42933,6,0,P|454:312|463:277,1,67.5,2|0,0:2|0:0,0:0:0:0:
436,232,43464,2,0,P|408:218|359:226,1,67.5
322,241,43995,1,2,0:2:0:0:
252,157,44261,1,2,0:2:0:0:
165,220,44526,2,0,P|113:213|90:221,1,67.5,2|0,0:2|0:0,0:0:0:0:
25,137,45046,6,0,P|17:93|25:33,2,90,2|0|0,0:2|0:0|0:0,0:0:0:0:
467,75,47181,6,0,P|434:72|415:79,1,45,2|0,0:2|0:0,0:0:0:0:
356,160,47745,2,0,P|381:168|413:167,1,45
502,135,48256,1,2,0:2:0:0:
422,75,48521,1,2,0:2:0:0:
315,92,48753,2,0,P|282:85|247:88,1,67.5
121,53,49304,6,0,P|141:80|150:127,1,67.5,2|0,0:2|0:0,0:0:0:0:
144,166,49828,1,0,0:0:0:0:
48,116,50090,1,2,0:2:0:0:
57,223,50367,2,0,P|51:248|57:280,2,45,2|2|2,0:2|0:2|0:2,0:0:0:0:
475,334,51412,6,0,P|448:343|415:346,1,45,2|0,0:2|0:0,0:0:0:0:
420,237,51942,2,0,P|393:222|375:203,1,45
454,131,52473,2,0,P|465:92|459:55,1,67.5
426,24,53004,1,2,0:2:0:0:
9,139,53535,6,0,P|38:203|13:291,1,157.5,2|0,0:2|0:0,0:0:0:0:
60,317,54597,2,0,P|120:280|198:287,1,135
398,274,55659,5,2,0:2:0:0:
235,131,56190,2,0,P|209:116|179:110,1,45,2|2,0:2|0:2,0:0:0:0:
89,88,56721,2,0,P|79:52|86:9,1,67.5,2|0,0:2|0:0,0:0:0:0:
141,47,57252,2,0,P|184:59|217:49,1,67.5
267,118,57783,6,0,P|298:133|388:93,1,135,2|0,0:2|0:0,0:0:0:0:
472,33,58845,1,0,0:0:0:0:
498,137,59111,1,0,0:0:0:0:
438,227,59376,2,0,P|397:231|372:222,1,67.5
296,145,59907,6,0,P|291:122|297:94,2,45,2|2|2,0:2|0:2|0:2,0:0:0:0:
334,246,60704,1,0,0:0:0:0:
259,323,60969,2,0,P|225:314|184:319,1,67.5,2|0,0:2|0:0,0:0:0:0:
150,283,61500,2,0,P|115:272|71:279,1,67.5,2|0,0:2|0:0,0:0:0:0:
24,184,62031,6,0,P|44:151|32:48,1,135,2|0,0:2|0:0,0:0:0:0:
135,11,63093,1,2,0:2:0:0:
227,67,63358,1,2,0:2:0:0:
143,134,63624,2,0,P|133:163|135:196,1,45,2|0,0:2|0:0,0:0:0:0:
253,356,64143,5,2,0:2:0:0:
295,149,66008,5,2,0:2:0:0:
213,77,66258,1,2,0:2:0:0:
417,315,67071,6,0,P|431:317|437:318,2,11.25,2|2|2,0:3|0:3|0:3,0:0:0:0:
358,273,67336,2,0,P|337:267|309:272,1,50.6250019311906,4|0,0:3|0:0,0:0:0:0:
245,239,67867,2,0,P|224:233|193:238,1,50.6250019311906,4|0,0:2|0:0,0:0:0:0:
112,305,68410,6,0,P|91:269|92:216,1,90,4|2,3:3|0:3,0:0:0:0:
126,119,69206,1,0,0:0:0:0:
206,191,69471,2,0,P|233:197|270:192,1,45,8|0,0:3|0:0,0:0:0:0:
326,119,70002,2,0,P|320:93|328:64,1,45,2|0,3:3|0:0,0:0:0:0:
445,253,70533,6,0,P|447:302|438:332,1,67.5,2|0,3:3|0:0,0:0:0:0:
395,345,71064,2,0,P|354:335|316:343,1,67.5,2|0,0:3|0:0,0:0:0:0:
277,352,71595,1,8,0:3:0:0:
181,158,72126,1,2,0:3:0:0:
89,214,72392,1,0,3:0:0:0:
299,264,72657,6,0,P|331:270|361:265,1,45,2|0,3:3|0:0,0:0:0:0:
429,204,73188,2,0,P|422:173|432:133,1,67.5,2|0,3:3|0:0,0:0:0:0:
456,91,73719,1,8,0:3:0:0:
360,40,73985,1,0,0:0:0:0:
261,85,74250,2,0,P|228:78|202:82,1,45,2|0,3:3|0:0,0:0:0:0:
74,240,74781,6,0,P|66:287|71:308,1,67.5,2|0,3:3|0:0,0:0:0:0:
106,345,75312,2,0,P|142:339|162:344,1,45,2|0,0:3|0:0,0:0:0:0:
255,318,75843,1,8,0:3:0:0:
340,251,76109,2,0,P|342:237|343:231,2,11.25,2|2|2,0:3|0:3|0:3,0:0:0:0:
369,296,76374,2,0,P|396:304|441:298,1,67.5,2|0,0:3|0:0,0:0:0:0:
489,207,76905,6,0,P|478:158|493:109,1,90,4|2,3:3|0:3,0:0:0:0:
283,45,77967,2,0,P|257:39|212:45,1,67.5,8|0,0:3|0:0,0:0:0:0:
172,74,78498,2,0,P|143:86|119:87,1,45,2|0,3:3|0:0,0:0:0:0:
25,277,79029,6,0,P|18:311|27:340,2,45,2|0|2,0:3|0:0|0:3,0:0:0:0:
129,87,80091,2,0,P|156:79|193:48,1,67.5,8|0,0:3|0:0,0:0:0:0:
231,24,80622,1,2,0:3:0:0:
321,82,80887,1,0,3:0:0:0:
465,242,81153,6,0,P|464:279|333:316,1,180,2|8,3:3|0:3,0:0:0:0:
350,328,82746,1,2,3:3:0:0:
177,196,83011,2,0,P|184:176|184:155,1,22.5
225,139,83277,6,0,P|256:134|320:155,1,90,2|2,3:3|0:3,0:0:0:0:
408,198,84073,1,0,0:0:0:0:
489,127,84339,2,0,P|458:112|435:69,1,67.5,8|0,0:3|0:0,0:0:0:0:
395,54,84870,2,0,P|364:69|341:112,1,67.5,2|0,0:3|0:0,0:0:0:0:
288,187,85401,6,0,P|235:177|218:182,1,67.5,4|0,3:3|0:0,0:0:0:0:
176,207,85932,2,0,P|146:197|112:197,1,45,2|0,0:3|0:0,0:0:0:0:
66,280,86463,2,0,P|101:304|117:344,1,67.5,8|0,0:3|0:0,0:0:0:0:
164,309,86994,2,0,P|199:285|215:245,1,67.5,2|0,3:3|0:0,0:0:0:0:
268,171,87525,6,0,P|301:153|427:203,1,180,2|8,3:3|0:3,0:0:0:0:
424,198,89117,1,2,0:3:0:0:
22,357,89648,6,0,P|40:303|36:280,1,67.5,4|0,3:3|0:0,0:0:0:0:
89,275,90179,2,0,P|79:242|91:199,1,67.5,2|0,0:3|0:0,0:0:0:0:
110,162,90710,2,0,P|142:150|167:149,1,45,8|0,0:3|0:0,0:0:0:0:
230,74,91241,2,0,P|268:85|309:76,1,67.5,2|0,3:3|0:0,0:0:0:0:
396,44,91772,6,0,P|369:82|401:206,1,180,2|8,3:3|0:3,0:0:0:0:
468,284,93100,1,0,0:0:0:0:
390,359,93365,1,2,0:3:0:0:
93,44,93896,6,0,P|104:81|96:116,1,67.5,4|0,3:3|0:0,0:0:0:0:
68,153,94427,2,0,P|78:180|72:213,1,45,2|0,0:3|0:0,0:0:0:0:
35,295,94958,1,8,0:3:0:0:
241,357,95489,2,0,P|279:348|298:357,1,45,2|0,3:3|0:0,0:0:0:0:
482,265,96020,6,0,P|447:262|411:235,1,67.5,2|0,3:3|0:0,0:0:0:0:
377,211,96551,1,2,0:3:0:0:
280,259,96817,1,0,0:0:0:0:
176,228,97082,2,0,P|144:227|120:236,2,45,8|2|2,0:3|0:3|0:3,0:0:0:0:
360,51,98144,6,0,P|412:36|475:142,1,180,4|8,3:3|0:3,0:0:0:0:
372,310,99737,1,2,0:3:0:0:
38,36,100268,5,2,0:3:0:0:
133,86,100533,2,0,P|139:81|141:69,2,15,2|2|2,0:3|0:3|0:3,0:0:0:0:
105,132,100799,1,2,0:3:0:0:
26,216,101064,2,0,P|35:243|29:285,1,67.5,4|0,0:2|0:0,0:0:0:0:
5,329,101595,1,8,3:3:0:0:
110,352,101861,2,0,P|147:336|179:335,1,67.5,8|0,3:3|0:0,0:0:0:0:
308,321,102392,6,0,P|274:300|256:248,1,84.375,4|0,3:3|0:0,0:0:0:0:
318,233,102923,2,0,P|301:195|319:146,1,84.375,2|0,0:3|0:0,0:0:0:0:
370,188,103454,2,0,P|408:171|457:189,1,84.375,10|0,0:3|0:0,0:0:0:0:
420,243,103985,2,0,P|437:281|419:330,1,84.375,2|0,3:3|0:0,0:0:0:0:
292,342,104516,6,0,P|254:327|204:327,1,84.375,2|0,3:3|0:0,0:0:0:0:
150,355,105047,2,0,P|117:328|95:320,1,56.25,2|0,0:3|0:0,0:0:0:0:
25,213,105578,1,8,0:3:0:0:
116,114,105843,1,0,0:0:0:0:
246,150,106109,2,0,P|282:152|324:127,1,84.375,2|0,0:3|0:0,0:0:0:0:
426,42,106640,6,0,P|396:86|402:128,1,84.375,4|0,3:3|0:0,0:0:0:0:
426,176,107171,1,2,0:3:0:0:
482,298,107436,1,0,0:0:0:0:
358,354,107702,2,0,P|315:341|257:344,1,84.375,10|0,0:3|0:0,0:0:0:0:
232,288,108233,2,0,P|204:297|156:291,1,56.25,2|0,3:3|0:0,0:0:0:0:
38,64,108763,6,0,P|85:51|125:57,1,84.375,2|0,3:3|0:0,0:0:0:0:
179,86,109294,1,2,0:3:0:0:
278,160,109560,1,0,0:0:0:0:
362,42,109820,1,10,0:3:0:0:
465,128,110082,1,8,0:3:0:0:
373,227,110345,2,0,P|343:239|285:222,1,84.375,4|0,3:2|0:0,0:0:0:0:
196,134,110887,6,0,P|213:171|204:225,1,84.375,4|0,3:3|0:0,0:0:0:0:
174,271,111418,2,0,P|137:288|83:279,1,84.375,2|0,0:3|0:0,0:0:0:0:
40,243,111949,2,0,P|23:206|32:152,1,84.375,10|0,0:3|0:0,0:0:0:0:
64,106,112480,2,0,P|101:89|155:98,1,84.375,2|0,3:3|0:0,0:0:0:0:
270,45,113011,6,0,P|311:60|376:49,1,84.375,2|0,3:3|0:0,0:0:0:0:
414,35,113542,1,2,0:3:0:0:
485,149,113808,1,0,0:0:0:0:
387,242,114073,2,0,P|356:259|318:314,1,84.375,10|0,0:3|0:0,0:0:0:0:
273,338,114604,2,0,P|235:319|191:319,1,84.375,2|0,0:3|0:0,0:0:0:0:
87,234,115135,6,0,P|72:192|91:138,1,84.375,4|0,3:3|0:0,0:0:0:0:
116,97,115666,1,2,0:3:0:0:
243,51,115932,1,0,0:0:0:0:
372,87,116197,2,0,P|381:122|372:148,1,56.25,10|0,0:3|0:0,0:0:0:0:
277,232,116728,2,0,P|268:197|277:171,1,56.25,2|0,3:3|0:0,0:0:0:0:
474,24,117259,6,0,P|484:69|471:124,1,84.375,2|0,3:3|0:0,0:0:0:0:
448,167,117790,1,10,0:3:0:0:
313,148,118056,1,0,0:0:0:0:
409,242,118315,1,8,0:3:0:0:
397,107,118580,1,8,0:3:0:0:
322,219,118845,2,0,P|302:246|300:300,1,84.375,8|0,0:3|0:0,0:0:0:0:
175,351,119383,6,0,P|135:331|82:329,1,84.375,4|0,3:3|0:0,0:0:0:0:
41,286,119914,2,0,P|48:250|44:224,1,56.25,2|0,0:3|0:0,0:0:0:0:
132,127,120445,2,0,P|126:176|142:224,1,84.375,10|0,0:3|0:0,0:0:0:0:
183,255,120976,2,0,P|232:261|280:245,1,84.375,2|0,3:3|0:0,0:0:0:0:
370,167,121507,6,0,P|358:135|382:81,1,84.375,2|0,3:3|0:0,0:0:0:0:
420,40,122038,1,2,0:3:0:0:
490,155,122303,1,0,0:0:0:0:
421,271,122569,2,0,P|411:299|415:326,1,56.25,10|0,0:3|0:0,0:0:0:0:
312,236,123100,2,0,P|322:208|318:181,1,56.25,2|0,0:3|0:0,0:0:0:0:
86,42,123631,6,0,P|72:79|84:143,1,84.375,4|0,3:3|0:0,0:0:0:0:
116,176,124162,2,0,P|153:190|217:178,1,84.375,2|0,0:3|0:0,0:0:0:0:
261,165,124693,2,0,P|298:151|362:163,1,84.375,10|0,0:3|0:0,0:0:0:0:
402,184,125224,2,0,P|416:221|404:285,1,84.375,2|0,3:3|0:0,0:0:0:0:
291,325,125755,6,0,P|251:351|228:244,1,196.875,4|0,3:3|0:0,0:0:0:0:
258,200,126817,2,0,P|266:114|180:125,1,196.875,12|0,0:3|0:0,0:0:0:0:
87,223,127879,6,0,P|100:264|83:313,1,84.375,4|0,3:3|0:0,0:0:0:0:
49,357,128410,1,2,0:3:0:0:
7,228,128675,1,0,0:0:0:0:
80,114,128940,2,0,P|123:101|171:110,1,84.375,10|0,0:3|0:0,0:0:0:0:
210,59,129471,2,0,P|242:69|276:62,1,56.25,2|0,3:3|0:0,0:0:0:0:
501,195,130002,6,0,P|460:188|411:212,1,84.375,2|0,3:3|0:0,0:0:0:0:
371,248,130533,1,2,0:3:0:0:
269,336,130799,1,0,0:0:0:0:
157,260,131064,2,0,P|119:253|99:257,2,56.25,10|0|2,0:3|0:0|0:3,0:0:0:0:
479,87,132126,6,0,P|433:68|329:197,1,225,4|10,3:3|0:3,0:0:0:0:
120,351,133719,1,2,0:3:0:0:
16,264,133985,1,0,0:0:0:0:
208,51,134250,6,0,P|258:60|291:100,1,84.375,4|0,3:3|0:0,0:0:0:0:
299,146,134781,2,0,P|338:177|349:228,1,84.375,10|0,0:3|0:0,0:0:0:0:
366,273,135312,1,8,0:3:0:0:
243,215,135578,1,8,0:3:0:0:
201,86,135843,1,8,0:3:0:0:
72,127,136109,1,0,3:0:0:0:
230,344,136374,6,0,P|301:328|329:340,1,84.375,4|0,3:3|0:0,0:0:0:0:
369,298,136905,2,0,P|373:268|356:227,1,56.25
296,127,137436,2,0,P|262:142|206:134,1,84.375,10|0,0:3|0:0,0:0:0:0:
151,115,137967,2,0,P|112:106|91:109,1,56.25,2|0,0:3|0:0,0:0:0:0:
252,328,138498,6,0,P|277:299|284:247,1,84.375,2|0,3:3|0:0,0:0:0:0:
349,235,139029,2,0,P|344:195|375:142,1,84.375,2|0,0:3|0:0,0:0:0:0:
405,104,139560,1,10,0:3:0:0:
281,48,139825,1,0,3:0:0:0:
414,32,140091,1,8,0:3:0:0:
485,146,140356,1,8,0:3:0:0:
285,326,140622,6,0,P|241:315|161:340,1,112.5,4|2,3:3|0:3,0:0:0:0:
66,250,141418,1,0,0:0:0:0:
140,137,141684,2,0,P|151:111|145:80,1,56.25,10|0,0:3|0:0,0:0:0:0:
255,164,142215,2,0,P|244:190|250:221,1,56.25,2|0,0:3|3:0,0:0:0:0:
477,359,142746,6,0,P|493:311|481:265,1,84.375,4|0,3:3|0:0,0:0:0:0:
452,220,143277,2,0,P|436:172|448:126,1,84.375,4|0,3:3|0:0,0:0:0:0:
473,79,143808,1,10,0:3:0:0:
343,39,144073,2,0,P|278:31|226:52,1,112.5,4|0,0:3|0:0,0:0:0:0:
126,294,144870,6,0,P|191:302|243:281,1,112.5,4|2,3:3|0:3,0:0:0:0:
341,204,145666,1,0,0:0:0:0:
443,115,145932,2,0,P|476:100|502:99,2,56.25,10|0|2,0:3|0:0|0:3,0:0:0:0:
341,204,146728,1,0,3:0:0:0:
100,327,146994,6,0,P|81:296|86:237,1,84.375,4|0,3:3|0:0,0:0:0:0:
111,188,147525,2,0,P|142:169|201:174,1,84.375,4|0,0:3|0:0,0:0:0:0:
254,183,148056,1,10,0:3:0:0:
354,93,148321,2,0,P|393:90|457:158,1,112.5,4|0,0:3|0:0,0:0:0:0:
270,336,149117,6,0,P|231:339|167:271,1,112.5,4|0,3:3|0:0,0:0:0:0:
109,178,149914,1,0,0:0:0:0:
206,84,150179,2,0,P|238:68|267:63,1,56.25,10|4,3:3|0:3,0:0:0:0:
368,140,150710,2,0,P|352:108|347:79,1,56.25
484,321,151241,6,0,P|447:343|387:342,1,84.375,4|0,3:3|0:0,0:0:0:0:
354,303,151772,2,0,P|323:294|291:301,1,56.25,2|0,0:3|0:0,0:0:0:0:
171,339,152303,2,0,P|180:308|173:276,1,56.25,10|8,0:3|3:3,0:0:0:0:
117,162,152834,1,8,3:3:0:0:
216,71,153100,1,8,3:3:0:0:
459,188,153365,6,0,P|388:204|360:192,1,84.375,4|0,3:3|0:0,0:0:0:0:
328,246,153896,2,0,P|324:276|341:317,1,56.25,2|0,0:3|0:0,0:0:0:0:
209,360,154427,2,0,P|175:345|119:353,1,84.375,10|0,0:3|0:0,0:0:0:0:
84,297,154958,2,0,P|93:258|90:237,1,56.25,2|0,0:3|3:0,0:0:0:0:
291,60,155489,6,0,P|266:89|259:141,1,84.375,4|0,3:3|0:0,0:0:0:0:
194,153,156020,2,0,P|199:193|168:246,1,84.375,4|0,0:3|0:0,0:0:0:0:
138,284,156551,1,10,0:3:0:0:
262,340,156817,1,8,0:3:0:0:
129,356,157082,1,8,0:3:0:0:
58,242,157348,1,8,0:3:0:0:
258,62,157613,6,0,P|302:73|382:48,1,112.5,4|2,3:3|0:3,0:0:0:0:
477,138,158410,1,2,0:3:0:0:
403,251,158675,2,0,P|392:277|398:308,1,56.25,10|0,0:3|0:0,0:0:0:0:
288,224,159206,2,0,P|299:198|293:167,1,56.25,2|0,0:3|3:0,0:0:0:0:
66,29,159737,6,0,P|50:77|62:123,1,84.375,4|0,3:3|0:0,0:0:0:0:
91,168,160268,2,0,P|107:216|95:262,1,84.375,4|0,0:3|0:0,0:0:0:0:
70,309,160799,1,8,0:3:0:0:
200,349,161064,2,0,P|265:357|317:336,1,112.5,4|0,0:3|0:0,0:0:0:0:
417,94,161861,6,0,P|352:86|300:107,1,112.5,4|2,3:3|0:3,0:0:0:0:
202,184,162657,1,0,0:0:0:0:
100,273,162923,2,0,P|67:288|41:289,2,56.25,10|0|2,0:3|0:0|0:3,0:0:0:0:
202,184,163719,1,0,3:0:0:0:
443,61,163985,6,0,P|462:92|457:151,1,84.375,4|0,3:3|0:0,0:0:0:0:
432,200,164516,2,0,P|401:219|342:214,1,84.375,4|0,0:3|0:0,0:0:0:0:
289,205,165047,1,10,0:3:0:0:
189,295,165312,2,0,P|150:298|86:230,1,112.5,4|0,0:3|0:0,0:0:0:0:
273,52,166109,6,0,P|312:49|376:117,1,112.5,4|2,3:3|0:3,0:0:0:0:
434,210,166905,1,0,3:0:0:0:
337,304,167171,2,0,P|305:320|276:325,1,56.25,10|4,0:3|3:3,0:0:0:0:
155,362,167702,2,0,P|139:330|134:301,1,56.25
59,67,168233,6,0,P|96:45|156:46,1,84.375,4|0,3:3|0:0,0:0:0:0:
189,85,168763,2,0,P|220:94|252:87,1,56.25,2|0,0:3|0:0,0:0:0:0:
372,49,169284,2,0,P|363:80|370:112,1,56.25,10|0,0:3|0:0,0:0:0:0:
426,226,169814,1,2,3:3:0:0:
327,317,170080,1,0,3:0:0:0:
167,35,170356,6,0,P|87:60|60:106,1,135.000005149842,4|2,3:3|0:3,0:0:0:0:
24,206,171153,1,0,0:0:0:0:
89,330,171417,1,10,0:3:0:0:
423,330,171949,1,2,0:3:0:0:
488,206,172215,1,0,0:0:0:0:
211,36,172480,6,0,P|181:58|145:62,1,67.5000025749208,2|0,0:3|0:0,0:0:0:0:
79,207,173011,2,0,P|101:251|100:321,1,101.250003862381,2|0,0:3|0:0,0:0:0:0:
159,362,173542,2,0,P|185:329|192:293,1,67.5000025749208,10|0,0:3|0:0,0:0:0:0:
247,152,174073,1,8,3:3:0:0:
397,210,174339,1,8,3:3:0:0:
104,303,174604,6,0,P|69:253|119:62,1,270.000010299683,4|10,3:3|0:3,0:0:0:0:
437,24,176197,1,2,0:3:0:0:
505,171,176463,1,0,0:0:0:0:
232,345,176728,6,0,P|180:332|120:347,1,101.250003862381,4|0,3:3|0:0,0:0:0:0:
89,272,177259,2,0,P|102:220|87:160,1,101.250003862381,4|0,0:3|0:0,0:0:0:0:
59,100,177790,1,10,0:3:0:0:
210,43,178056,2,0,P|254:32|356:52,1,135.000005149842,4|0,0:3|0:0,0:0:0:0:
465,299,178852,6,0,P|471:329|518:366,2,67.5000025749208,4|0|2,3:3|0:0|0:3,0:0:0:0:
495,139,179648,1,0,3:0:0:0:
367,40,179914,2,0,P|321:71|267:66,1,101.250003862381,10|0,0:3|0:0,0:0:0:0:
206,29,180445,1,2,0:3:0:0:
71,119,180710,1,0,3:0:0:0:
297,349,180976,6,0,P|362:331|417:345,1,101.250003862381,4|0,3:3|0:0,0:0:0:0:
437,267,181507,2,0,P|393:248|358:203,1,101.250003862381,4|0,0:3|0:0,0:0:0:0:
330,131,182038,1,10,0:3:0:0:
184,58,182303,2,0,P|140:54|108:66,2,67.5000025749208,4|0|0,0:3|0:0|0:0,0:0:0:0:
486,175,183100,6,0,P|471:214|489:278,1,101.250003862381,4|0,3:3|0:0,0:0:0:0:
507,347,183631,1,2,0:3:0:0:
359,278,183896,1,0,0:0:0:0:
210,213,184162,2,0,P|169:205|134:215,2,67.5000025749208,10|4|0,0:3|3:3|0:0,0:0:0:0:
489,31,185224,6,0,P|468:73|503:179,1,135.000005149842,4|8,3:3|0:3,0:0:0:0:
410,301,186020,1,8,0:3:0:0:
293,188,186286,1,8,0:3:0:0:
193,315,186551,1,8,0:3:0:0:
84,194,186817,1,8,0:3:0:0:
84,194,187348,6,0,P|51:154|62:72,2,112.5,4|2|10,3:3|0:3|0:3,0:0:0:0:
354,186,188940,2,0,P|385:177|411:177,2,37.5,2|0|0,3:3|3:0|3:0,0:0:0:0:
229,317,189471,6,0,P|195:318|165:308,1,56.25,12|0,0:3|0:0,0:0:0:0:
80,215,190002,2,0,P|73:193|80:152,1,56.25,2|0,0:3|0:0,0:0:0:0:
137,39,190533,1,10,0:3:0:0:
255,103,190799,1,8,3:3:0:0:
374,39,191064,1,8,3:3:0:0:
46,346,191595,6,0,P|66:298|43:230,1,112.5,4|2,3:3|0:3,0:0:0:0:
17,145,192392,1,0,0:0:0:0:
81,67,192525,1,0,3:0:0:0:
81,67,192591,1,0,3:0:0:0:
81,67,192657,2,0,P|132:76|193:46,1,112.5,10|2,0:3|0:3,0:0:0:0:
307,114,193454,1,0,3:0:0:0:
419,186,193719,5,2,3:3:0:0:
252,196,193985,1,8,0:3:0:0:
428,105,194250,1,8,0:3:0:0:
246,28,194516,1,8,0:3:0:0:
37,145,194781,1,8,0:3:0:0:
307,114,195047,1,8,0:3:0:0:
80,306,195312,1,4,0:3:0:0:
80,306,195843,6,0,P|130:291|314:324,1,225,4|10,3:3|0:3,0:0:0:0:
465,102,197436,2,0,P|477:69|474:37,2,37.5,2|0|0,3:3|3:0|3:0,0:0:0:0:
311,197,197967,6,0,P|274:180|237:178,1,56.25,12|0,0:3|0:0,0:0:0:0:
146,253,198498,2,0,P|183:270|220:272,1,56.25,2|0,0:3|0:0,0:0:0:0:
311,197,199029,1,10,0:3:0:0:
255,73,199294,1,8,3:3:0:0:
126,113,199560,1,8,3:3:0:0:
484,348,200091,6,0,P|474:286|489:222,1,112.5,4|2,3:3|0:3,0:0:0:0:
355,158,200887,1,0,0:0:0:0:
363,166,200976,1,0,3:0:0:0:
363,166,201020,1,0,3:0:0:0:
363,166,201153,2,0,P|333:178|280:178,1,84.375,10|0,0:3|0:0,0:0:0:0:
222,144,201684,2,0,P|185:133|142:135,1,56.25,2|0,0:3|3:0,0:0:0:0:
37,168,202215,5,0,3:0:0:0:
142,253,202480,1,8,0:3:0:0:
264,154,202746,1,8,0:3:0:0:
453,125,203011,1,8,0:3:0:0:
229,51,203277,1,8,0:3:0:0:
446,211,203542,1,8,0:3:0:0:
154,359,203808,1,8,0:3:0:0:
35,193,204187,5,0,3:0:0:0:
35,193,204263,1,0,3:0:0:0:
35,193,204339,2,0,P|66:117|53:74,1,112.5,12|2,0:3|0:3,0:0:0:0:
178,23,205135,1,0,0:0:0:0:
305,68,205401,2,0,P|343:61|381:67,1,56.25,10|0,0:3|0:0,0:0:0:0:
479,126,205932,2,0,P|484:154|480:188,2,37.5,2|0|0,3:3|3:0|3:0,0:0:0:0:
446,41,206463,5,12,0:3:0:0:
344,129,206728,1,0,3:0:0:0:
166,57,206994,1,2,3:3:0:0:
41,236,207259,1,0,3:0:0:0:
272,352,207525,1,8,0:3:0:0:
83,144,207790,1,8,3:3:0:0:
439,286,208056,1,8,3:3:0:0:
69,39,208586,6,0,P|98:78|71:154,1,112.5,4|2,3:3|0:3,0:0:0:0:
13,290,209471,1,0,3:0:0:0:
13,290,209560,1,0,3:0:0:0:
13,290,209648,2,0,P|53:276|102:284,1,84.375,10|0,0:3|0:0,0:0:0:0:
146,237,210179,2,0,P|116:223|99:208,1,56.25,2|0,0:3|0:0,0:0:0:0:
301,28,210710,6,0,P|331:42|348:57,1,56.25,2|8,0:3|0:3,0:0:0:0:
456,138,211241,1,8,0:3:0:0:
282,183,211507,1,8,0:3:0:0:
479,292,211772,2,0,L|500:303,4,14.0625,8|8|8|8|8,0:3|0:3|0:3|0:3|0:3,0:0:0:0:
210,328,212303,2,0,L|187:333,4,14.0625,8|8|8|8|8,0:3|0:3|0:3|0:3|0:3,0:0:0:0:
436,180,212834,6,0,P|469:220|458:302,2,112.5,4|2|10,3:3|0:3|0:3,0:0:0:0:
166,188,214427,2,0,P|135:197|109:197,2,37.5,2|0|0,3:3|3:0|3:0,0:0:0:0:
291,57,214958,6,0,P|325:56|355:66,1,56.25,12|0,0:3|0:0,0:0:0:0:
440,159,215489,2,0,P|447:181|440:222,1,56.25,2|0,0:3|0:0,0:0:0:0:
383,335,216020,1,10,0:3:0:0:
265,271,216286,1,8,3:3:0:0:
146,335,216551,1,8,3:3:0:0:
474,28,217082,6,0,P|454:76|477:144,1,112.5,4|2,3:3|0:3,0:0:0:0:
432,300,217879,1,0,0:0:0:0:
439,307,217967,1,0,3:0:0:0:
439,307,218056,1,0,3:0:0:0:
439,307,218144,2,0,P|388:298|327:328,1,112.5,12|2,0:3|0:3,0:0:0:0:
226,238,218940,1,0,0:0:0:0:
101,188,219206,5,10,0:3:0:0:
242,20,219471,1,0,3:0:0:0:
226,238,219737,1,4,3:3:0:0:
111,54,220002,1,8,0:3:0:0:
313,135,220268,1,2,0:3:0:0:
101,188,220533,1,0,3:0:0:0:
242,20,220799,1,8,0:3:0:0:
226,238,221064,1,0,0:0:0:0:
474,133,221330,5,4,3:3:0:0:
374,41,221595,1,4,3:3:0:0:
255,104,221861,2,0,P|212:95|162:106,1,84.375,4|0,3:3|0:0,0:0:0:0:
126,151,222392,2,0,P|135:186|121:245,1,84.375,12|0,0:3|0:0,0:0:0:0:
162,290,222923,1,4,0:3:0:0:
254,191,223188,1,0,0:0:0:0:
470,31,223454,6,0,P|456:77|485:153,2,112.5,4|4|12,3:3|0:3|0:3,0:0:0:0:
470,31,225047,1,4,0:3:0:0:
353,97,225312,1,0,0:0:0:0:
88,38,225578,6,0,P|72:80|79:129,1,84.375,4|0,3:3|0:0,0:0:0:0:
115,173,226109,2,0,P|157:178|178:173,1,56.25,4|0,0:2|0:0,0:0:0:0:
288,109,226640,2,0,P|315:105|343:111,2,56.25,12|0|4,0:3|0:0|0:3,0:0:0:0:
170,175,227436,1,0,3:0:0:0:
392,329,227702,6,0,P|426:308|447:248,1,84.375,4|0,0:3|0:0,0:0:0:0:
424,205,228233,2,0,P|386:186|364:151,1,84.375,4|0,3:3|0:0,0:0:0:0:
377,84,228763,1,12,0:3:0:0:
253,30,229029,1,0,0:0:0:0:
145,112,229294,2,0,P|124:154|140:202,1,84.375,4|0,0:3|0:0,0:0:0:0:
198,306,229825,5,4,3:3:0:0:
325,349,230091,1,4,3:2:0:0:
402,231,230356,2,0,P|433:208|491:200,1,84.375,4|0,3:3|0:0,0:0:0:0:
430,145,230887,2,0,P|393:131|355:87,1,84.375,12|0,0:3|0:0,0:0:0:0:
324,40,231418,1,4,0:3:0:0:
197,87,231684,1,0,3:0:0:0:
46,311,231949,6,0,P|47:331|53:353,1,28.125,4|0,3:3|0:0,0:0:0:0:
385,113,232480,2,0,P|418:107|471:129,1,84.375,2|0,0:3|0:0,0:0:0:0:
507,176,233011,1,8,0:3:0:0:
429,286,233277,1,8,0:3:0:0:
309,222,233542,2,0,P|263:204|211:207,1,84.375,4|0,3:3|0:0,0:0:0:0:
172,240,234073,6,0,P|153:273|154:310,2,56.25,4|0|4,0:3|3:0|3:3,0:0:0:0:
244,125,234870,1,0,0:0:0:0:
369,174,235135,1,12,0:3:0:0:
489,112,235401,2,0,P|503:152|488:229,1,112.5
251,342,236197,6,0,P|216:352|188:348,1,56.25,12|0,0:3|0:0,0:0:0:0:
70,301,236728,1,8,0:3:0:0:
146,189,236994,1,8,0:3:0:0:
343,218,237259,1,8,0:3:0:0:
146,47,237525,1,8,0:3:0:0:
436,118,237790,1,8,0:3:0:0:
245,348,238056,1,8,0:3:0:0:
38,133,238321,5,4,3:3:0:0:
146,47,238586,1,0,3:0:0:0:
257,104,238852,2,0,P|300:95|350:106,1,84.375,4|0,3:3|0:0,0:0:0:0:
386,151,239383,2,0,P|377:186|391:245,1,84.375,12|0,0:3|0:0,0:0:0:0:
350,290,239914,1,4,3:3:0:0:
258,191,240179,1,0,0:0:0:0:
42,31,240445,6,0,P|56:77|27:153,2,112.5,4|2|12,3:3|0:3|0:3,0:0:0:0:
42,31,242038,1,4,0:3:0:0:
159,97,242303,1,0,0:0:0:0:
424,38,242569,6,0,P|440:80|433:129,1,84.375,4|0,3:3|0:0,0:0:0:0:
397,173,243100,2,0,P|355:178|334:173,1,56.25,4|0,0:3|0:0,0:0:0:0:
224,109,243631,2,0,P|197:105|169:111,2,56.25,12|0|4,0:3|0:0|0:3,0:0:0:0:
342,175,244427,1,0,3:0:0:0:
120,329,244693,6,0,P|86:308|65:248,1,84.375,4|0,0:3|0:0,0:0:0:0:
88,205,245224,2,0,P|126:186|148:151,1,84.375,4|0,3:3|0:0,0:0:0:0:
135,84,245755,1,12,0:3:0:0:
259,30,246020,1,0,0:0:0:0:
367,112,246286,2,0,P|388:154|372:202,1,84.375,4|0,0:3|0:0,0:0:0:0:
314,306,246817,5,4,3:3:0:0:
187,349,247082,1,4,3:2:0:0:
110,231,247348,2,0,P|79:208|21:200,1,84.375,4|0,3:3|0:0,0:0:0:0:
82,145,247879,2,0,P|119:131|157:87,1,84.375,12|0,0:3|0:0,0:0:0:0:
188,40,248410,1,4,0:3:0:0:
315,87,248675,1,0,0:0:0:0:
466,311,248940,6,0,P|465:331|459:353,1,28.125,4|0,3:3|0:0,0:0:0:0:
127,113,249471,2,0,P|94:107|41:129,1,84.375,2|0,0:3|0:0,0:0:0:0:
5,176,250002,1,8,0:3:0:0:
83,286,250268,1,8,0:3:0:0:
203,222,250533,2,0,P|249:204|301:207,1,84.375,4|0,3:3|0:0,0:0:0:0:
341,169,251064,6,0,P|323:123|350:56,1,112.5,4|4,0:3|3:3,0:0:0:0:
207,49,251861,1,0,0:0:0:0:
143,174,252126,1,12,0:3:0:0:
23,112,252392,2,0,P|9:152|24:229,1,112.5,0|0,3:0|3:0,0:0:0:0:
261,342,253188,6,0,P|296:352|324:348,1,56.25,8|4,0:3|3:3,0:0:0:0:
442,301,253719,1,0,0:0:0:0:
314,254,253985,1,0,3:0:0:0:
186,211,254250,1,8,0:3:0:0:
290,124,254516,1,8,3:3:0:0:
391,35,254781,1,8,3:3:0:0:
472,142,255047,1,8,3:3:0:0:
279,330,255312,6,0,P|237:338|215:334,1,56.25,4|4,3:3|3:3,0:0:0:0:
113,258,255843,2,0,P|127:220|104:132,1,112.5,4|12,3:3|0:3,0:0:0:0:
363,40,256905,2,0,P|396:31|428:33,1,56.25,4|0,3:3|0:0,0:0:0:0:
497,289,257436,6,0,P|475:327|398:330,1,112.5,4|4,0:3|0:3,0:0:0:0:
256,115,258498,1,12,0:3:0:0:
128,161,258763,2,0,P|120:192|125:224,1,56.25,0|2,0:0|0:3,0:0:0:0:
186,334,259294,1,0,0:0:0:0:
429,219,259560,6,0,P|439:178|427:118,2,84.375,4|0|0,3:3|0:0|0:0,0:0:0:0:
343,323,260622,2,0,P|288:319|223:356,1,112.5,12|4,0:3|0:3,0:0:0:0:
122,269,261418,1,0,3:0:0:0:
295,62,261684,6,0,P|334:52|388:62,1,84.375,4|0,0:3|0:0,0:0:0:0:
435,92,262215,2,0,P|456:138|444:203,1,112.5,4|12,3:3|0:3,0:0:0:0:
207,324,263277,2,0,P|175:321|138:331,1,56.25,4|0,0:3|0:0,0:0:0:0:
58,71,263808,5,4,3:3:0:0:
188,34,264073,1,4,3:2:0:0:
292,119,264339,2,0,P|332:103|395:103,1,84.375,4|0,3:3|0:0,0:0:0:0:
434,127,264870,2,0,P|413:161|421:247,1,112.5,12|4,0:3|0:3,0:0:0:0:
479,349,265666,1,0,3:0:0:0:
225,255,265932,6,0,P|220:222|227:189,1,56.25,4|0,3:3|0:0,0:0:0:0:
125,149,266463,2,0,P|80:155|26:120,1,112.5,4|8,0:3|3:3,0:0:0:0:
107,45,267259,1,8,3:3:0:0:
311,193,267525,6,0,P|352:185|405:204,1,84.375,4|0,0:3|0:0,0:0:0:0:
458,181,268056,2,0,P|471:144|468:111,2,56.25,4|0|4,0:3|0:0|3:3,0:0:0:0:
411,307,268852,1,0,0:0:0:0:
277,328,269117,1,12,0:3:0:0:
169,246,269383,1,0,3:0:0:0:
136,115,269648,2,0,P|161:99|193:96,1,56.25,4|0,0:3|3:0,0:0:0:0:
438,144,270179,6,0,P|447:184|470:209,1,56.25,12|0,0:3|0:0,0:0:0:0:
506,320,270710,1,0,3:0:0:0:
369,220,270976,1,0,3:0:0:0:
187,352,271241,1,8,0:3:0:0:
42,123,271507,1,8,0:3:0:0:
455,195,271772,1,8,0:3:0:0:
187,352,272038,1,8,0:3:0:0:
270,56,272303,6,0,P|312:48|334:52,1,56.25,4|4,3:3|3:2,0:0:0:0:
436,128,272834,2,0,P|422:166|445:254,1,112.5,4|12,3:3|0:3,0:0:0:0:
186,346,273896,2,0,P|153:355|121:353,1,56.25,4|0,3:3|0:0,0:0:0:0:
52,97,274427,6,0,P|74:59|151:56,1,112.5,4|2,3:3|0:3,0:0:0:0:
293,271,275489,2,0,P|334:245|347:223,1,56.25,12|0,0:3|0:0,0:0:0:0:
444,155,276020,1,4,0:3:0:0:
346,61,276286,1,0,0:0:0:0:
134,227,276551,6,0,P|123:172|133:117,1,112.5,4|0,3:3|0:0,0:0:0:0:
239,32,277348,1,0,0:0:0:0:
363,83,277613,2,0,P|412:107|448:173,1,112.5,12|4,0:3|0:3,0:0:0:0:
493,280,278410,1,0,3:0:0:0:
228,330,278675,6,0,P|189:340|135:330,1,84.375,4|0,0:3|0:0,0:0:0:0:
88,300,279206,2,0,P|67:254|79:189,1,112.5,4|12,3:3|0:3,0:0:0:0:
342,62,280268,2,0,P|374:65|411:55,1,56.25,4|0,0:3|0:0,0:0:0:0:
495,313,280799,5,4,3:3:0:0:
368,360,281064,1,4,3:2:0:0:
279,257,281330,2,0,P|239:241|176:241,1,84.375,4|0,3:3|0:0,0:0:0:0:
133,216,281861,2,0,P|154:182|146:96,1,112.5,12|0,0:3|3:0,0:0:0:0:
255,22,282657,1,0,3:0:0:0:
357,272,282923,6,0,P|352:305|359:338,1,56.25,4|0,3:3|0:0,0:0:0:0:
486,294,283454,2,0,P|492:249|457:195,1,112.5,4|8,0:3|3:3,0:0:0:0:
358,101,284250,1,8,3:3:0:0:
138,259,284516,6,0,P|97:267|44:248,1,84.375,4|0,3:3|0:0,0:0:0:0:
17,202,285047,2,0,P|30:165|20:90,1,112.5,4|0,0:3|3:0,0:0:0:0:
144,37,285843,1,0,0:0:0:0:
269,88,286109,1,2,0:3:0:0:
399,141,286374,1,4,3:3:0:0:
430,268,286640,2,0,P|405:284|373:287,1,56.25,0|2,0:0|0:3,0:0:0:0:
111,242,287171,6,0,P|102:202|79:177,1,56.25,2|0,0:3|3:0,0:0:0:0:
43,66,287702,1,4,3:3:0:0:
180,166,287967,1,0,0:0:0:0:
362,34,288233,1,4,3:3:0:0:
507,263,288498,1,4,3:3:0:0:
214,354,288763,1,0,0:0:0:0:
428,144,289029,1,0,0:0:0:0:
39,351,289294,5,4,3:3:0:0:
256,192,289427,12,0,293011,0:0:0:0:
136,162,293463,6,0,P|110:153|81:150,2,45,2|0|0,0:2|0:0|0:0,0:0:0:0:
224,99,294259,1,2,0:2:0:0:
327,69,294524,2,0,P|351:67|377:70,1,45,2|0,0:2|0:0,0:0:0:0:
464,131,295055,2,0,P|456:165|465:200,1,67.5
416,298,295585,6,0,P|368:348|273:353,1,157.5,2|0,0:2|0:0,0:0:0:0:
240,319,296596,2,0,P|245:267|185:176,1,157.5,2|0,0:2|0:0,0:0:0:0:
99,123,297696,5,2,0:2:0:0:
180,53,297978,1,0,0:0:0:0:
304,92,298261,2,0,P|330:89|355:91,1,45
443,160,298792,2,0,P|412:163|392:161,1,45,2|2,0:2|0:2,0:0:0:0:
304,92,299318,2,0,P|258:95|227:84,1,67.5,2|0,0:2|0:0,0:0:0:0:
191,124,299852,6,0,P|203:166|192:213,1,90,2|0,0:2|0:0,0:0:0:0:
69,349,301948,5,2,0:2:0:0:
153,281,302203,1,0,0:0:0:0:
93,207,302481,2,0,P|89:182|97:154,1,45
195,70,303025,2,0,P|216:66|248:74,2,45,2|2|2,0:2|0:2|0:2,0:0:0:0:
116,97,303736,1,2,0:2:0:0:
160,144,304035,6,0,P|208:144|239:162,1,84.375,2|0,0:2|0:0,0:0:0:0:
302,71,306203,6,0,P|291:111|304:163,1,90,2|0,0:2|0:0,0:0:0:0:
349,254,306999,1,0,0:0:0:0:
437,193,307264,1,2,0:2:0:0:
437,84,307505,1,2,0:2:0:0:
339,53,307770,2,0,P|306:41|271:45,1,67.5,2|0,0:2|0:0,0:0:0:0:
235,88,308335,6,0,P|201:78|153:87,1,84.375,2|0,0:2|0:0,0:0:0:0:
90,183,310409,6,0,P|104:218|94:274,1,90,2|0,0:2|0:0,0:0:0:0:
233,84,311488,2,0,P|274:69|318:77,1,90,2|0,0:2|0:0,0:0:0:0:
380,342,312569,2,0,P|461:322|461:238,1,180,2|0,0:2|0:0,0:0:0:0:
289,272,313916,1,0,0:0:0:0:
410,283,314213,1,0,0:0:0:0:
47,45,314690,5,2,0:2:0:0:
47,45,314887,2,0,P|44:75|46:91,1,45,2|0,0:2|0:0,0:0:0:0:
172,265,315782,1,2,0:2:0:0:
255,65,316299,1,2,0:2:0:0:
432,193,316823,2,0,P|418:226|435:287,1,90,2|0,0:2|0:0,0:0:0:0:
230,357,317610,5,2,0:2:0:0:
188,257,317875,1,2,0:2:0:0:
139,144,318140,1,2,0:2:0:0:
67,196,318372,2,0,P|57:222|64:262,1,67.5,2|0,0:2|0:0,0:0:0:0:
100,310,318943,6,0,P|132:316|166:308,1,67.5,2|2,0:2|0:2,0:0:0:0:
348,193,320853,5,2,0:2:0:0:
284,105,321125,1,2,0:2:0:0:
