osu file format v14

[General]
AudioFilename: audio.mp3
AudioLeadIn: 0
PreviewTime: 59583
Countdown: 0
SampleSet: None
StackLeniency: 0.5
Mode: 0
LetterboxInBreaks: 0
WidescreenStoryboard: 0

[Editor]
DistanceSpacing: 0.5
BeatDivisor: 4
GridSize: 4
TimelineZoom: 1

[Metadata]
Title:Nimensei*Ura Omote Life!
TitleUnicode:にめんせい☆ウラオモテライフ!
Artist:Doma Umaru(CV.Tanaka Aimi)
ArtistUnicode:土間うまる(CV.田中あいみ)
Creator:Lortus
Version:U M R
Source:干物妹! うまるちゃんR
Tags:opening second season
BeatmapID:1448222
BeatmapSetID:684335

[Difficulty]
HPDrainRate:6
CircleSize:4
OverallDifficulty:8.2
ApproachRate:9.9
SliderMultiplier:1.8
SliderTickRate:1

[Events]
//Background and Video events
0,0,"bg.png",0,0
//Break Periods
//Storyboard Layer 0 (Background)
//Storyboard Layer 1 (Fail)
//Storyboard Layer 2 (Pass)
//Storyboard Layer 3 (Foreground)
//Storyboard Sound Samples

[TimingPoints]
854,352.941176470588,4,1,0,40,1,0
854,-100,4,1,1,40,0,0
1912,-100,4,1,3,70,0,0
2265,-133.333333333333,4,2,0,50,0,0
7912,-80,4,2,1,50,0,0
10383,-100,4,2,1,50,0,0
12148,-100,4,2,1,60,0,0
14971,-52.6315789473684,4,1,1,70,0,0
25559,-90.9090909090909,4,1,1,50,0,0
26971,-90.9090909090909,4,1,1,20,0,0
27148,266.666666666667,4,1,0,70,1,0
27414,-133.333333333333,4,2,2,55,0,0
34548,-133.333333333333,4,2,2,30,0,0
35681,352.941176470588,4,1,0,70,1,0
35681,-400,4,1,0,70,0,0
36739,-100,4,1,0,70,0,0
37092,-100,4,2,1,70,0,0
41328,-100,4,2,0,70,0,0
42386,-100,4,2,1,70,0,0
48386,-100,4,1,1,70,0,0
50680,-66.6666666666667,4,1,1,70,0,0
51210,-100,4,1,1,70,0,0
55092,-66.6666666666667,4,1,1,70,0,0
58975,-55.5555555555556,4,1,1,70,0,0
59328,-55.5555555555556,4,1,2,80,0,0
59680,-51.8134715025907,4,1,1,72,0,1
69563,-51.8134715025907,4,1,1,72,0,0
70269,-400.333333333333,4,1,1,72,0,0
70622,-50,4,1,2,80,0,0
70975,-51.8134715025907,4,1,1,72,0,1
75210,-90.9090909090909,4,1,1,72,0,1
79798,-66.6666666666667,4,1,1,72,0,1
81916,-66.6666666666667,4,1,2,72,0,0
82269,-76.9230769230769,4,1,0,70,0,0
84739,-100,4,1,0,70,0,0
86504,-100,4,1,1,70,0,0

[Colours]
Combo1 : 248,203,129
Combo2 : 228,150,31
Combo3 : 192,22,22
Combo4 : 18,77,186

[HitObjects]
152,332,854,5,0,3:0:0:0:
200,248,1030,1,0,3:0:0:0:
200,248,1118,1,0,3:0:0:0:
200,248,1206,1,0,3:0:0:0:
128,176,1383,5,0,3:0:0:0:
128,176,1471,1,0,3:0:0:0:
128,176,1559,1,0,3:0:0:0:
128,176,1648,1,0,3:0:0:0:
128,176,1736,1,0,3:0:0:0:
456,76,1912,5,12,3:2:0:0:
456,296,2265,6,2,B|287:312|375:224|197:248,1,270.000010299683,4|2,1:2|0:0,0:0:0:0:
472,188,3148,1,2,1:0:0:0:
472,188,3324,1,2,1:0:0:0:
20,128,3677,6,2,B|189:144|101:56|279:80,1,270.000010299683,4|2,1:2|0:0,0:0:0:0:
20,28,4559,1,2,1:0:0:0:
20,28,4736,1,2,1:0:0:0:
228,348,5089,5,4,0:0:0:0:
136,280,5265,1,2,0:0:0:0:
136,280,5353,1,2,0:0:0:0:
136,280,5442,2,2,B|184:244|184:244|272:256,1,135.000005149842
448,216,6059,2,0,B|420:228|420:228|336:220,1,101.250003862381,2|2,0:0|0:0,0:0:0:0:
349,221,6501,5,4,1:2:0:0:
64,136,6765,2,0,L|140:128,1,67.5000025749208,2|0,0:0|0:0,0:0:0:0:
224,116,7030,1,2,0:0:0:0:
48,240,7206,1,4,1:2:0:0:
215,182,7471,2,0,L|227:86,1,67.5000025749208,8|0,1:3|0:0,0:0:0:0:
236,28,7736,1,4,1:3:0:0:
4,188,7912,6,2,B|-4:256|40:292|40:292|98:322|128:268|128:268|152:204|96:156,1,337.5,2|0,1:0|0:0,1:0:0:0:
232,208,8618,2,2,B|192:152|224:100|224:100|264:128|264:128|300:92|300:92|344:132|312:208,1,337.5,2|0,1:0|0:0,1:0:0:0:
392,296,9324,2,2,B|424:216|428:132|428:132|488:128|532:172|500:228|452:228|452:228|484:268|512:348,1,450,2|6,1:0|1:0,1:0:0:0:
68,336,10383,2,0,L|52:244,1,90,0|0,1:0|0:0,0:0:0:0:
56,64,10736,5,0,1:0:0:0:
252,124,10912,1,0,1:0:0:0:
148,224,11089,1,0,1:0:0:0:
120,184,11177,1,0,1:0:0:0:
116,136,11265,1,0,1:0:0:0:
132,88,11353,1,0,1:0:0:0:
176,64,11442,1,2,1:0:0:0:
408,316,11795,2,0,P|364:324|308:320,1,90,2|0,1:0|0:0,0:0:0:0:
60,204,12148,5,6,1:0:0:0:
444,176,12324,1,2,1:0:0:0:
124,288,12501,1,10,1:0:0:0:
372,128,12853,5,6,1:0:0:0:
128,96,13030,1,2,1:0:0:0:
220,312,13206,1,10,1:0:0:0:
128,32,13559,5,2,1:0:0:0:
148,148,13736,1,8,1:0:0:0:
324,352,13912,1,2,1:0:0:0:
324,76,14089,1,8,1:0:0:0:
196,312,14265,1,2,1:0:0:0:
256,192,14442,5,10,1:0:0:0:
256,192,14618,1,10,1:0:0:0:
72,344,14971,6,0,P|48:304|60:252,1,85.4999977169037,6|0,0:0|2:0,0:0:0:0:
204,156,15148,2,0,P|228:196|216:248,1,85.4999977169037,10|0,0:0|2:0,0:0:0:0:
80,184,15324,2,0,B|44:128|44:128|64:12,1,170.999995433807,2|8,0:0|0:0,0:0:0:0:
232,80,15589,1,0,0:0:0:0:
232,80,15677,6,0,P|228:124|188:164,1,85.4999977169037,2|0,0:0|2:0,0:0:0:0:
328,96,15853,2,0,P|364:76|428:80,1,85.4999977169037,10|0,0:0|2:0,0:0:0:0:
316,200,16030,2,0,L|304:380,1,170.999995433807,2|8,0:0|0:0,0:0:0:0:
144,28,16383,5,2,0:0:0:0:
144,28,16471,2,0,P|164:60|160:116,1,85.4999977169037,2|8,0:0|0:0,0:0:0:0:
44,240,16648,1,0,0:0:0:0:
44,240,16736,2,0,P|64:200|120:164,1,85.4999977169037,2|0,0:0|2:0,0:0:0:0:
260,208,16912,2,0,P|274:250|260:315,1,85.4999977169037,10|0,0:0|2:0,0:0:0:0:
48,96,17089,6,0,B|28:56|28:56|44:4,1,85.4999977169037,2|0,0:0|2:0,0:0:0:0:
94,174,17265,1,8,0:0:0:0:
94,174,17353,1,0,0:0:0:0:
252,116,17442,2,0,L|444:124,1,170.999995433807,2|8,0:0|0:0,0:0:0:0:
436,360,17795,6,0,B|448:316|448:316|436:256,1,85.4999977169037,6|0,0:0|2:0,0:0:0:0:
216,184,17971,2,0,B|204:228|204:228|216:288,1,85.4999977169037,10|0,0:0|2:0,0:0:0:0:
352,188,18148,2,0,B|480:176|480:176|440:196,1,170.999995433807,2|8,0:0|0:0,0:0:0:0:
312,284,18412,1,0,0:0:0:0:
312,284,18501,6,0,P|304:324|320:376,1,85.4999977169037,2|0,0:0|2:0,0:0:0:0:
256,204,18677,2,0,P|264:164|248:112,1,85.4999977169037,10|0,0:0|2:0,0:0:0:0:
200,280,18853,2,0,P|148:296|56:224,1,170.999995433807,2|8,0:0|0:0,0:0:0:0:
116,156,19118,1,0,0:0:0:0:
116,156,19206,5,2,0:0:0:0:
116,156,19295,2,0,L|100:56,2,85.4999977169037,2|8|0,0:0|0:0|0:0,0:0:0:0:
292,264,19559,2,0,L|278:348,1,85.4999977169037,2|0,0:0|0:0,0:0:0:0:
240,112,19736,2,0,L|253:27,1,85.4999977169037,10|0,0:0|2:0,0:0:0:0:
368,216,19912,2,0,P|384:256|372:312,1,85.4999977169037,2|0,0:0|2:0,0:0:0:0:
200,300,20089,5,10,0:0:0:0:
120,248,20177,1,0,0:0:0:0:
132,156,20265,1,2,0:0:0:0:
220,120,20353,1,0,0:0:0:0:
296,176,20442,1,8,0:0:0:0:
292,264,20530,1,0,0:0:0:0:
200,300,20618,6,0,L|108:296,1,85.4999977169037,6|0,0:0|2:0,0:0:0:0:
380,208,20795,2,0,L|472:204,1,85.4999977169037,10|0,0:0|2:0,0:0:0:0:
216,184,20971,2,0,B|156:172|156:172|108:192|108:192|28:180,1,170.999995433807,2|8,0:0|0:0,0:0:0:0:
200,300,21236,1,0,0:0:0:0:
200,300,21324,6,0,B|244:312|244:312|300:288,1,85.4999977169037,2|0,0:0|2:0,0:0:0:0:
252,96,21501,2,0,B|208:84|208:84|152:108,1,85.4999977169037,10|0,0:0|2:0,0:0:0:0:
360,192,21677,2,0,L|372:8,1,170.999995433807,2|8,0:0|0:0,0:0:0:0:
472,260,21942,1,0,0:0:0:0:
472,260,22030,5,2,0:0:0:0:
472,260,22118,2,0,P|432:284|372:272,1,85.4999977169037,2|8,0:0|0:0,0:0:0:0:
256,172,22295,1,2,0:0:0:0:
256,172,22383,2,0,L|248:64,1,85.4999977169037,2|0,0:0|2:0,0:0:0:0:
184,252,22559,2,0,L|190:337,1,85.4999977169037,10|0,0:0|2:0,0:0:0:0:
408,192,22736,6,0,P|368:196|320:236,1,85.4999977169037,2|0,0:0|2:0,0:0:0:0:
124,172,22912,1,8,0:0:0:0:
124,172,23001,1,0,0:0:0:0:
280,304,23089,2,0,P|308:216|272:124,1,170.999995433807,2|8,0:0|0:0,0:0:0:0:
196,68,23353,1,0,0:0:0:0:
196,68,23442,6,2,B|64:56|64:56|108:80,1,170.999995433807,6|0,0:0|2:0,0:0:0:0:
286,143,23706,2,2,B|418:131|418:131|374:155,1,170.999995433807,2|0,0:0|2:0,0:0:0:0:
204,248,23971,2,0,P|188:208|204:152,1,85.4999977169037,2|0,0:0|2:0,0:0:0:0:
312,272,24148,6,0,P|368:292|488:280,1,170.999995433807,2|0,0:0|2:0,0:0:0:0:
208,64,24412,2,0,P|152:44|32:56,1,170.999995433807,2|0,0:0|2:0,0:0:0:0:
332,56,24677,1,2,0:0:0:0:
186,254,24853,6,0,L|196:340,1,85.4999977169037,2|0,0:0|2:0,0:0:0:0:
276,284,25118,2,0,L|264:172,1,85.4999977169037,2|0,0:0|2:0,0:0:0:0:
376,280,25383,1,2,0:0:0:0:
48,264,25559,6,2,B|16:184|32:92|120:36|224:60|224:60|184:120|180:184|236:240|312:256|380:228|404:172|396:108|352:72|296:60|248:96|260:152|300:148|320:120,1,792.000024169923,0|0,0:0|2:0,0:0:0:0:
305,132,27148,5,4,0:1:0:0:
456,328,27414,2,0,L|356:336,1,101.250003862381,8|0,0:0|0:0,0:0:0:0:
260,356,27681,2,0,B|240:308|240:308|264:248,1,101.250003862381,8|0,0:0|0:0,0:0:0:0:
352,144,27948,2,0,B|372:192|372:192|348:252,1,101.250003862381,8|0,0:0|0:0,0:0:0:0:
252,184,28214,5,8,0:0:0:0:
156,288,28414,1,0,0:0:0:0:
156,288,28481,1,8,0:0:0:0:
120,144,28681,1,0,0:0:0:0:
120,144,28748,1,8,0:0:0:0:
346,236,29014,2,0,L|336:344,1,101.250003862381,8|0,0:0|0:0,0:0:0:0:
248,328,29281,6,0,P|200:336|152:308,1,101.250003862381,8|0,0:0|0:0,0:0:0:0:
316,160,29548,2,0,P|360:152|412:180,1,101.250003862381,8|0,0:0|0:0,0:0:0:0:
212,188,29813,2,0,L|100:180,1,101.250003862381,8|0,0:0|0:0,0:0:0:0:
344,60,30080,2,0,L|456:52,1,101.250003862381,8|0,0:0|0:0,0:0:0:0:
488,128,30347,5,8,0:0:0:0:
244,92,30548,1,0,0:0:0:0:
232,44,30613,1,8,0:0:0:0:
356,160,30814,1,0,0:0:0:0:
348,204,30881,2,0,B|300:184|300:184|232:204,1,101.250003862381,8|0,0:0|0:0,0:0:0:0:
168,224,31148,2,0,L|180:352,1,101.250003862381,8|0,0:0|1:0,0:0:0:0:
96,160,31414,5,4,1:2:0:0:
324,136,31681,2,0,B|340:84|340:84|320:20,1,101.250003862381,8|0,0:0|0:0,0:0:0:0:
232,108,31948,2,0,B|216:160|216:160|236:224,1,101.250003862381,8|0,0:0|0:0,0:0:0:0:
292,276,32214,2,0,P|248:300|180:276,1,101.250003862381,8|0,0:0|0:0,0:0:0:0:
144,216,32481,5,8,0:0:0:0:
384,212,32681,1,0,0:0:0:0:
380,248,32748,1,8,0:0:0:0:
184,120,32948,1,0,0:0:0:0:
180,84,33015,1,8,0:0:0:0:
393,111,33281,2,0,L|381:243,1,101.250003862381,8|0,0:0|0:0,0:0:0:0:
312,288,33548,6,0,B|260:296|260:296|200:264,1,101.250003862381,8|0,0:0|0:0,0:0:0:0:
176,140,33814,2,0,B|228:132|228:132|288:164,1,101.250003862381,8|0,0:0|0:0,0:0:0:0:
128,264,34081,1,0,1:0:0:0:
88,128,34281,1,0,1:0:0:0:
88,128,34348,1,0,1:0:0:0:
88,344,34548,6,2,B|160:368|212:308|212:308|228:344|268:356|268:356|320:304|384:324|384:324|432:348|480:328,1,438.750016736985,2|0,0:1|0:0,1:0:0:0:
128,112,35681,6,2,L|124:60,1,45,2|0,2:1|2:0,0:0:0:0:
384,272,36386,2,2,L|387:308,1,33.75,2|0,2:1|2:0,0:0:0:0:
372,176,36739,5,8,0:1:0:0:
100,316,37092,6,0,B|80:272|80:272|92:216,1,90,4|0,0:0|0:0,0:0:0:0:
200,188,37445,1,8,0:0:0:0:
200,188,37622,1,0,0:0:0:0:
64,48,37798,2,0,B|44:92|44:92|56:148,1,90,2|2,0:0|0:0,0:0:0:0:
260,100,38151,1,8,0:0:0:0:
260,100,38328,6,0,L|252:0,1,90,2|0,0:0|0:0,0:0:0:0:
232,208,38681,1,2,0:0:0:0:
360,172,38857,2,0,L|367:82,1,90,8|0,0:0|0:0,0:0:0:0:
367,82,39122,1,8,0:0:0:0:
367,82,39210,1,2,0:0:0:0:
320,276,39386,1,2,0:0:0:0:
412,220,39563,2,0,P|364:172|280:184,1,135,8|0,0:0|0:0,0:0:0:0:
224,224,39916,6,0,B|212:272|212:272|224:320,1,90,2|2,0:0|0:0,0:0:0:0:
204,92,40269,1,8,0:0:0:0:
48,76,40445,2,0,L|60:136,1,45,2|0,0:0|0:0,0:0:0:0:
76,212,40622,1,10,0:0:0:0:
284,148,40798,1,2,0:0:0:0:
76,212,40975,1,8,0:0:0:0:
284,148,41151,1,8,0:0:0:0:
160,268,41328,5,2,0:0:0:0:
156,288,41416,2,0,L|148:336,1,45,2|0,0:0|0:0,0:0:0:0:
244,296,41592,1,2,0:0:0:0:
240,316,41680,2,0,L|232:364,1,45,2|0,0:0|0:0,0:0:0:0:
336,288,41857,5,2,0:0:0:0:
332,268,41945,2,0,L|324:220,1,45,2|0,0:0|0:0,0:0:0:0:
420,260,42121,1,2,0:0:0:0:
416,240,42209,2,0,L|408:192,1,45,2|0,0:0|0:0,0:0:0:0:
472,128,42386,2,0,B|484:80|484:80|468:36,1,90,4|8,0:0|0:0,0:0:0:0:
320,132,42739,6,0,B|260:156|260:156|136:140,1,180,4|8,0:0|0:0,0:0:0:0:
32,128,43269,1,0,0:0:0:0:
32,128,43357,1,8,0:0:0:0:
32,128,43445,1,2,0:0:0:0:
172,40,43622,1,2,0:0:0:0:
76,216,43798,1,8,0:0:0:0:
284,132,43975,6,0,B|292:84|292:84|272:36,1,90,2|0,0:0|0:0,0:0:0:0:
180,220,44328,1,2,0:0:0:0:
180,220,44504,2,0,B|172:268|172:268|192:316,1,90,8|0,0:0|0:0,0:0:0:0:
160,96,44857,1,2,0:0:0:0:
304,296,45033,1,8,0:0:0:0:
92,168,45210,1,8,0:0:0:0:
372,204,45386,1,8,0:0:0:0:
136,344,45739,6,0,L|124:240,2,90,2|8|0,0:0|0:0|0:0,0:0:0:0:
264,276,46269,1,2,0:0:0:0:
168,168,46445,1,8,0:0:0:0:
168,168,46533,1,8,0:0:0:0:
168,168,46622,1,8,0:0:0:0:
356,136,46798,2,0,L|352:192,1,45,8|0,0:0|0:0,0:0:0:0:
349,272,46975,6,0,B|301:288|301:288|253:272,1,90,8|0,0:0|0:0,0:0:0:0:
256,184,47239,2,0,L|248:68,1,90,8|0,0:0|0:0,0:0:0:0:
244,8,47504,1,8,0:0:0:0:
172,220,47680,1,12,0:0:0:0:
60,164,47857,2,0,L|68:228,1,45,8|0,0:0|0:0,0:0:0:0:
80,296,48033,1,8,0:0:0:0:
116,264,48122,1,8,0:0:0:0:
164,264,48210,1,8,0:0:0:0:
208,288,48298,1,8,0:0:0:0:
228,332,48386,6,0,P|276:328|328:336,1,90,10|0,0:0|2:0,0:0:0:0:
464,236,48739,2,0,P|416:240|364:232,1,90,10|0,0:0|2:0,0:0:0:0:
288,96,49092,2,0,P|280:64|280:24,1,45,10|0,0:0|2:0,0:0:0:0:
180,112,49269,2,0,P|163:140|134:168,1,45,2|0,0:0|2:0,0:0:0:0:
240,188,49445,2,0,P|272:188|311:198,1,45,10|0,0:0|2:0,0:0:0:0:
372,64,49622,6,0,B|384:46|384:46|376:114,1,90,2|0,0:0|2:0,0:0:0:0:
152,244,49975,2,0,B|139:226|139:226|147:294,1,90,2|8,0:0|0:0,0:0:0:0:
384,228,50328,2,2,B|288:244|336:196|232:220,1,135,2|0,0:0|2:0,0:0:0:0:
272,304,50680,6,2,L|284:372,1,67.5000025749208,4|0,0:2|2:0,0:0:0:0:
352,136,50857,2,2,B|376:0|376:0|396:76,1,202.500007724762,4|0,0:2|2:0,0:0:0:0:
432,180,51210,5,2,0:0:0:0:
236,132,51386,1,8,0:0:0:0:
416,272,51563,1,2,0:0:0:0:
204,232,51739,1,8,0:0:0:0:
404,360,51916,1,2,0:0:0:0:
296,204,52092,1,8,0:0:0:0:
488,216,52269,1,2,0:0:0:0:
304,320,52445,6,0,P|244:344|116:320,1,180,4|8,0:2|0:0,0:0:0:0:
52,196,52975,1,8,0:0:0:0:
88,160,53063,1,0,0:0:0:0:
128,188,53151,1,0,0:0:0:0:
120,236,53239,1,0,0:0:0:0:
72,240,53328,2,0,B|52:196|52:196|64:152,1,90,2|0,0:0|2:0,0:0:0:0:
236,36,53680,2,0,B|256:80|256:80|244:124,1,90,10|0,0:0|2:0,0:0:0:0:
56,52,54033,5,4,0:2:0:0:
208,208,54210,1,10,0:0:0:0:
208,208,54298,1,0,0:0:0:0:
208,208,54386,2,0,L|204:268,1,45,0|0,0:0|2:0,0:0:0:0:
196,340,54563,1,10,0:0:0:0:
416,228,54739,1,2,0:0:0:0:
108,172,54916,1,2,0:0:0:0:
108,172,55092,6,2,P|160:112|288:144,1,202.500007724762,4|0,0:2|2:0,0:0:0:0:
328,200,55445,5,4,0:2:0:0:
320,240,55533,2,0,L|248:248,1,67.5000025749208,10|0,0:0|2:0,0:0:0:0:
184,312,55710,5,2,0:0:0:0:
192,352,55798,2,0,L|264:360,1,67.5000025749208,10|0,0:0|2:0,0:0:0:0:
396,292,55975,1,2,0:0:0:0:
116,248,56151,1,10,0:0:0:0:
360,120,56328,1,10,0:0:0:0:
172,176,56504,2,2,B|152:116|152:116|176:48,1,135.000005149842,4|2,0:2|0:0,0:0:0:0:
396,216,56857,5,4,0:2:0:0:
160,268,57033,1,0,0:0:0:0:
360,120,57210,1,0,0:0:0:0:
88,212,57386,1,0,0:0:0:0:
344,296,57563,1,4,0:2:0:0:
112,120,57739,1,0,0:0:0:0:
456,144,57916,1,0,0:0:0:0:
184,340,58092,1,0,0:0:0:0:
408,324,58269,6,0,B|420:256|420:256|384:200,1,135.000005149842,4|0,0:2|2:0,0:0:0:0:
268,144,58533,2,0,B|200:140|200:140|156:160|156:160|64:156,1,202.500007724762,4|4,0:2|0:2,0:0:0:0:
296,300,58975,2,0,P|224:248|268:324,1,242.999992584229,2|0,0:0|2:0,0:0:0:0:
256,280,59328,5,4,0:3:0:0:
80,344,59680,6,2,B|72:280|72:280|92:232|92:232|80:132,1,173.699995825539,4|8,0:3|0:0,0:0:0:0:
28,56,59945,1,0,0:0:0:0:
28,56,60033,2,0,P|68:40|128:56,1,86.8499979127694,2|0,0:0|2:0,0:0:0:0:
268,132,60210,2,0,P|228:148|168:132,1,86.8499979127694,8|0,0:0|2:0,0:0:0:0:
320,40,60386,2,0,B|368:32|368:32|428:56,1,86.8499979127694,2|0,0:0|2:0,0:0:0:0:
198,223,60563,2,0,B|178:179|178:179|190:119,1,86.8499979127694,10|0,0:0|2:0,0:0:0:0:
420,164,60739,2,2,L|408:360,1,173.699995825539,2|8,0:0|0:0,0:0:0:0:
216,324,61004,1,0,0:0:0:0:
216,324,61092,6,0,P|132:312|32:352,1,173.699995825539,4|8,0:0|0:0,0:0:0:0:
148,216,61357,2,0,P|232:228|332:188,1,173.699995825539,2|0,0:0|2:0,0:0:0:0:
148,112,61622,2,0,P|104:108|40:132,1,86.8499979127694,10|0,0:0|2:0,0:0:0:0:
316,40,61798,1,2,0:0:0:0:
440,304,61975,2,0,P|408:328|352:328,1,86.8499979127694,10|0,0:0|2:0,0:0:0:0:
108,292,62151,2,2,P|164:232|260:260,1,173.699995825539,2|8,0:0|0:0,0:0:0:0:
356,140,62416,1,0,0:0:0:0:
356,140,62504,6,0,L|348:244,1,86.8499979127694,4|0,0:0|2:0,0:0:0:0:
156,112,62680,2,0,L|149:25,1,86.8499979127694,10|0,0:0|2:0,0:0:0:0:
271,132,62857,2,0,P|311:143|367:136,1,86.8499979127694,2|0,0:0|2:0,0:0:0:0:
132,208,63033,2,0,P|92:197|36:204,1,86.8499979127694,10|0,0:0|2:0,0:0:0:0:
254,304,63210,6,2,L|274:88,1,173.699995825539,2|10,0:0|0:0,0:0:0:0:
356,232,63475,1,2,0:0:0:0:
356,232,63563,2,0,B|376:272|376:272|364:316,1,86.8499979127694,0|0,0:0|2:0,0:0:0:0:
412,144,63739,2,0,B|392:104|392:104|404:60,1,86.8499979127694,10|0,0:0|2:0,0:0:0:0:
228,220,63916,6,2,B|164:244|164:244|40:224,1,173.699995825539,6|10,0:0|0:0,0:0:0:0:
128,56,64180,1,0,0:0:0:0:
128,56,64269,2,0,P|144:96|132:152,1,86.8499979127694,2|0,0:0|2:0,0:0:0:0:
128,272,64445,2,0,P|122:314|138:354,1,86.8499979127694,10|0,0:0|2:0,0:0:0:0:
448,176,64622,6,0,L|456:72,1,86.8499979127694,2|0,0:0|0:0,0:0:0:0:
356,240,64798,2,0,L|349:326,1,86.8499979127694,10|0,0:0|0:0,0:0:0:0:
264,124,64975,1,10,0:0:0:0:
272,232,65063,1,8,0:0:0:0:
152,132,65151,1,8,0:0:0:0:
160,240,65239,1,8,0:0:0:0:
44,180,65328,6,0,B|20:120|20:120|52:-4,1,173.699995825539,4|10,0:0|0:0,0:0:0:0:
264,124,65592,1,0,0:0:0:0:
264,124,65680,2,0,L|380:116,1,86.8499979127694,2|0,0:0|2:0,0:0:0:0:
192,292,65857,2,0,L|76:284,1,86.8499979127694,10|0,0:0|2:0,0:0:0:0:
308,216,66033,6,0,L|512:200,1,173.699995825539,2|8,0:0|0:0,0:0:0:0:
476,300,66298,1,2,0:0:0:0:
404,364,66386,1,2,0:0:0:0:
308,360,66475,1,0,0:0:0:0:
248,284,66563,1,8,0:0:0:0:
260,188,66651,1,0,0:0:0:0:
336,128,66739,6,0,P|376:120|432:132,1,86.8499979127694,6|0,0:0|2:0,0:0:0:0:
212,100,66916,1,8,0:0:0:0:
212,100,67004,2,0,P|172:108|116:96,1,86.8499979127694,2|0,0:0|2:0,0:0:0:0:
40,260,67180,1,0,0:0:0:0:
40,260,67269,2,0,B|48:172,1,86.8499979127694,10|0,0:0|2:0,0:0:0:0:
160,284,67445,2,0,B|220:276|220:276|268:296|268:296|356:284,1,173.699995825539,2|8,0:0|0:0,0:0:0:0:
424,272,67710,1,0,0:0:0:0:
464,184,67798,1,10,0:0:0:0:
412,104,67886,1,8,0:0:0:0:
316,120,67975,1,8,0:0:0:0:
276,208,68063,1,8,0:0:0:0:
328,287,68151,6,0,P|420:295|504:239,1,173.699995825539,6|8,0:0|0:0,0:0:0:0:
232,296,68416,2,0,P|140:288|56:344,1,173.699995825539,2|0,0:0|2:0,0:0:0:0:
276,208,68680,2,0,B|284:164|284:164|268:112,1,86.8499979127694,10|0,0:0|2:0,0:0:0:0:
180,52,68857,6,0,L|-16:76,1,173.699995825539,2|8,0:0|0:0,0:0:0:0:
76,164,69122,2,0,P|116:180|164:172,1,86.8499979127694,2|0,0:0|0:0,0:0:0:0:
268,36,69298,1,8,0:0:0:0:
360,64,69386,1,8,0:0:0:0:
356,160,69475,1,8,0:0:0:0:
296,236,69563,6,0,P|328:328|224:288,2,260.549993738308,2|2|2,0:0|0:0|0:0,0:0:0:0:
68,184,70269,6,2,L|72:224,1,33.7218975611069,2|0,0:0|2:0,0:0:0:0:
16,96,70622,6,0,B|68:72|120:100|120:100|156:84|156:84|220:124|292:84,1,270,4|0,0:3|2:0,0:0:0:0:
392,60,70975,6,0,B|424:112|424:112|404:248,1,173.699995825539,4|8,0:3|0:0,0:0:0:0:
296,280,71239,1,0,0:0:0:0:
296,280,71328,2,0,P|284:232|300:180,1,86.8499979127694,2|0,0:0|2:0,0:0:0:0:
476,272,71504,2,0,P|488:320|472:372,1,86.8499979127694,10|0,0:0|2:0,0:0:0:0:
224,348,71680,1,2,0:0:0:0:
104,36,71857,2,0,L|120:152,1,86.8499979127694,10|0,0:0|2:0,0:0:0:0:
284,64,72033,2,2,B|332:24|332:24|464:40,1,173.699995825539,2|8,0:0|0:0,0:0:0:0:
420,188,72298,1,0,0:0:0:0:
420,188,72386,6,0,P|368:192|316:152,1,86.8499979127694,6|0,0:0|2:0,0:0:0:0:
188,248,72563,1,8,0:0:0:0:
188,248,72651,2,0,P|240:244|292:284,1,86.8499979127694,2|0,0:0|2:0,0:0:0:0:
376,328,72828,1,0,0:0:0:0:
376,328,72916,2,0,P|424:332|484:296,1,86.8499979127694,10|0,0:0|2:0,0:0:0:0:
216,344,73092,1,2,0:0:0:0:
172,32,73269,2,0,L|184:136,1,86.8499979127694,10|0,0:0|2:0,0:0:0:0:
404,208,73445,2,2,B|440:152|440:152|420:28,1,173.699995825539,2|8,0:0|0:0,0:0:0:0:
284,104,73710,1,0,0:0:0:0:
284,104,73798,6,0,P|276:152|296:208,1,86.8499979127694,0|0,0:0|2:0,0:0:0:0:
232,296,73975,2,2,L|56:288,1,173.699995825539,2|0,0:0|0:0,0:0:0:0:
176,68,74504,6,0,L|184:176,1,86.8499979127694,2|0,0:0|2:0,0:0:0:0:
312,224,74680,2,2,L|488:216,1,173.699995825539,2|0,0:0|0:0,0:0:0:0:
64,332,75210,6,2,P|128:272|236:304,2,198.000006042481,2|10|2,0:0|0:0|0:0,0:0:0:0:
312,348,76092,1,0,0:0:0:0:
312,240,76269,1,0,0:0:0:0:
316,216,76357,1,0,0:0:0:0:
316,192,76445,1,0,0:0:0:0:
312,168,76533,1,0,0:0:0:0:
304,144,76622,5,0,0:0:0:0:
88,132,76798,1,0,0:0:0:0:
268,40,76975,2,0,B|320:48|320:48|376:32,1,99.0000030212403,10|0,0:0|2:0,0:0:0:0:
192,268,77328,5,0,0:0:0:0:
192,268,77504,1,0,0:0:0:0:
408,220,77680,2,0,P|416:168|396:120,1,99.0000030212403,10|0,0:0|2:0,0:0:0:0:
308,332,78033,5,0,0:0:0:0:
308,332,78210,1,0,0:0:0:0:
180,176,78386,2,0,B|128:168|128:168|80:200,1,99.0000030212403,10|0,0:0|2:0,0:0:0:0:
268,84,78739,1,0,0:0:0:0:
282,198,78916,2,0,L|288:248,1,49.5000015106202,2|0,0:0|2:0,0:0:0:0:
376,244,79092,2,0,L|386:342,1,99.0000030212403,10|0,0:0|2:0,0:0:0:0:
432,156,79445,5,0,0:0:0:0:
208,136,79622,1,0,0:0:0:0:
208,136,79710,1,0,0:0:0:0:
208,136,79798,2,0,B|136:120|136:120|56:148,1,135.000005149842,10|0,0:0|2:0,0:0:0:0:
240,312,80151,5,0,0:0:0:0:
308,64,80328,1,0,0:0:0:0:
308,64,80416,1,0,0:0:0:0:
308,64,80504,2,0,B|380:80|380:80|460:52,1,135.000005149842,10|0,0:0|2:0,0:0:0:0:
176,56,80857,5,2,0:0:0:0:
428,184,81122,1,2,0:0:0:0:
176,312,81386,1,2,0:0:0:0:
336,72,81563,6,0,B|352:108|352:108|344:148,1,67.5000025749208
176,312,81739,6,0,B|160:276|160:276|168:236,1,67.5000025749208
256,192,81916,5,4,0:3:0:0:
32,88,82269,6,2,B|148:48|148:48|128:128|128:128|120:156|84:160|84:160|176:188,1,350.999983932496,6|0,0:0|0:0,0:0:0:0:
496,200,82975,2,2,P|408:172|464:324,1,350.999983932496,2|0,0:0|0:0,0:0:0:0:
256,336,83680,2,2,B|208:264|264:196|264:196|324:128|336:84|316:40|284:16|224:16|180:64|192:120|240:140|280:124,1,467.999978576661,2|4,0:0|0:0,0:0:0:0:
40,272,84739,2,0,B|84:252|84:252|144:264,1,90,0|0,0:0|2:0,0:0:0:0:
96,356,85092,5,2,0:0:0:0:
136,148,85269,1,0,0:0:0:0:
248,352,85445,1,2,0:0:0:0:
288,144,85622,1,2,0:0:0:0:
364,328,85798,6,0,B|412:340|412:340|464:320,1,90,2|0,0:0|2:0,0:0:0:0:
192,192,86151,2,0,B|148:180|148:180|92:200,1,90,2|0,0:0|2:0,0:0:0:0:
408,236,86504,5,6,0:0:0:0:
212,60,86680,1,2,0:0:0:0:
152,296,86857,1,8,0:0:0:0:
288,120,87210,5,2,0:0:0:0:
172,200,87386,1,2,0:0:0:0:
308,264,87563,1,8,0:0:0:0:
176,68,87916,5,2,0:0:0:0:
227,332,88092,1,8,0:0:0:0:
288,68,88269,1,2,0:0:0:0:
98,218,88445,1,8,0:0:0:0:
414,166,88622,1,8,0:0:0:0:
256,192,88798,5,10,0:0:0:0:
256,192,88975,1,14,0:0:0:0:
