osu file format v14

[General]
AudioFilename: audio.mp3
AudioLeadIn: 0
PreviewTime: 35661
Countdown: 0
SampleSet: Soft
StackLeniency: 0.3
Mode: 0
LetterboxInBreaks: 0
WidescreenStoryboard: 0

[Editor]
DistanceSpacing: 1
BeatDivisor: 3
GridSize: 8
TimelineZoom: 2.1

[Metadata]
Title:Nimensei*Uraomote Life!
TitleUnicode:にめんせい☆ウラオモテライフ!
Artist:Doma Umaru (CV.Tanaka Aimi)
ArtistUnicode:土間うまる (CV.田中あいみ)
Creator:handsome
Version:Master
Source:干物妹!うまるちゃんR
Tags:himouto umaru chan r anime tv size short edit version delis dailycare haruto professionalbox probox haruto_aizawa my two faced little sister
BeatmapID:1436235
BeatmapSetID:679303

[Difficulty]
HPDrainRate:6
CircleSize:4
OverallDifficulty:9
ApproachRate:9.6
SliderMultiplier:2.2
SliderTickRate:1

[Events]
//Background and Video events
0,0,"umaru.jpg",0,0
Video,350,"opening.avi"
//Break Periods
//Storyboard Layer 0 (Background)
//Storyboard Layer 1 (Fail)
//Storyboard Layer 2 (Pass)
//Storyboard Layer 3 (Foreground)
//Storyboard Sound Samples

[TimingPoints]
852,352.941176470588,4,2,0,30,1,0
852,-125,4,2,0,30,0,0
1204,-71.4285714285714,4,2,0,40,0,0
1469,-71.4285714285714,4,2,0,45,0,0
1646,-71.4285714285714,4,2,0,50,0,0
1822,-71.4285714285714,4,2,0,55,0,0
1910,-71.4285714285714,4,2,1,60,0,0
2263,-100,4,2,1,50,0,0
3146,-55.5555555555556,4,2,1,70,0,0
3322,-71.4285714285714,4,2,1,70,0,0
3675,-100,4,2,1,50,0,0
4557,-55.5555555555556,4,2,1,70,0,0
4733,-71.4285714285714,4,2,1,70,0,0
5087,-55.5555555555556,4,2,1,50,0,0
5793,-71.4285714285714,4,2,1,60,0,0
7910,-100,4,2,1,50,0,0
8616,-71.4285714285714,4,2,1,50,0,0
9322,-83.3333333333333,4,2,1,50,0,0
10028,-71.4285714285714,4,2,1,50,0,0
12851,-58.8235294117647,4,2,1,50,0,0
13557,-71.4285714285714,4,2,1,55,0,0
13910,-58.8235294117647,4,2,1,60,0,0
14263,-50,4,2,1,65,0,0
14969,-71.4285714285714,4,2,1,70,0,0
16028,-55.5555555555556,4,2,1,70,0,0
17793,-71.4285714285714,4,2,1,70,0,0
18851,-55.5555555555556,4,2,1,70,0,0
19028,-125,4,2,1,70,0,0
19381,-55.5555555555556,4,2,1,70,0,0
19557,-125,4,2,1,70,0,0
19910,-55.5555555555556,4,2,1,70,0,0
20087,-125,4,2,1,70,0,0
20616,-100,4,2,1,60,0,0
21675,-55.5555555555556,4,2,1,60,0,0
23440,-71.4285714285714,4,2,1,70,0,0
24851,-125,4,2,1,70,0,0
25381,-71.4285714285714,4,2,1,70,0,0
27161,266.666666666667,4,2,2,70,1,0
27427,-125,4,2,2,70,0,0
33561,-83.3333333333333,4,2,2,70,0,0
35694,266.666666666667,4,2,3,70,1,0
35694,-200,4,2,3,70,0,0
36760,-200,4,2,1,70,0,0
37105,352.941176470588,4,2,1,50,1,0
37105,-83.3333333333333,4,2,1,50,0,0
40634,-125,4,2,1,50,0,0
40987,-83.3333333333333,4,2,1,50,0,0
41163,-166.666666666667,4,2,1,40,0,0
42046,-133.333333333333,4,2,1,40,0,0
42399,-62.5,4,2,1,50,0,0
42752,-71.4285714285714,4,2,1,50,0,0
46987,-100,4,2,1,50,0,0
48399,-83.3333333333333,4,2,1,60,0,0
52810,-62.5,4,2,1,60,0,0
53163,-83.3333333333333,4,2,1,60,0,0
53693,-125,4,2,1,60,0,0
54046,-100,4,2,1,60,0,0
54399,-55.5555555555556,4,2,1,80,0,0
54752,-100,4,2,1,60,0,0
55104,-55.5555555555556,4,2,1,80,0,0
55457,-100,4,2,1,60,0,0
55809,-55.5555555555556,4,2,1,80,0,0
56163,-100,4,2,1,60,0,0
56515,-55.5555555555556,4,2,1,80,0,0
56869,-71.4285714285714,4,2,1,50,0,0
57222,-62.5,4,2,1,60,0,0
57575,-55.5555555555556,4,2,1,70,0,0
57928,-50,4,2,1,80,0,0
58281,-71.4285714285714,4,2,1,70,0,0
59693,-62.5,4,2,1,80,0,1
60575,-200,4,2,1,100,0,1
60928,-62.5,4,2,1,80,0,1
61986,-200,4,2,1,100,0,1
62340,-71.4285714285714,4,2,1,80,0,1
63046,-125,4,2,1,80,0,1
63222,-71.4285714285714,4,2,1,80,0,1
63928,-55.5555555555556,4,2,1,80,0,1
64634,-62.5,4,2,1,80,0,1
64899,-100,4,2,1,80,0,1
65340,-100,4,2,1,80,0,1
65516,-55.5555555555556,4,2,1,80,0,1
65869,-71.4285714285714,4,2,1,80,0,1
66222,-83.3333333333333,4,2,1,80,0,1
66752,-71.4285714285714,4,2,1,80,0,1
66928,-50,4,2,1,80,0,1
68163,-55.5555555555556,4,2,1,80,0,1
69575,-125,4,2,1,80,0,0
70281,-50,4,2,1,80,0,0
70634,-71.4285714285714,4,2,1,80,0,0
70987,-62.5,4,2,1,80,0,1
71869,-200,4,2,1,100,0,1
72222,-62.5,4,2,1,80,0,1
73280,-200,4,2,1,100,0,1
73634,-83.3333333333333,4,2,1,80,0,1
73810,-71.4285714285714,4,2,1,70,0,1
74516,-83.3333333333333,4,2,1,70,0,1
75222,-62.5,4,2,1,80,0,1
76634,-100,4,2,1,70,0,1
76987,-62.5,4,2,1,70,0,1
78046,-100,4,2,1,70,0,1
78399,-62.5,4,2,1,70,0,1
79281,-200,4,2,1,70,0,1
80163,-55.5555555555556,4,2,1,70,0,1
80869,-125,4,2,1,70,0,1
81399,-71.4285714285714,4,2,1,70,0,1
82281,-100,4,2,1,60,0,0
82987,-71.4285714285714,4,2,1,60,0,0
83693,-100,4,2,1,60,0,0
84399,-71.4285714285714,4,2,1,60,0,0
87222,-58.8235294117647,4,2,1,60,0,0
87928,-58.8235294117647,4,2,1,70,0,0
88810,-200,4,2,1,50,0,0

[Colours]
Combo1 : 255,180,21
Combo2 : 255,219,108

[HitObjects]
378,239,852,6,0,P|334:259|326:308,1,88,0|0,3:0|3:0,1:1:0:0:
323,294,1204,2,0,P|423:303|451:224,1,153.999995300293,2|0,3:0|3:0,1:1:0:0:
492,196,1470,5,2,3:3:0:0:
475,195,1558,1,0,3:0:0:0:
447,187,1646,1,2,3:3:0:0:
407,162,1734,1,0,3:0:0:0:
376,85,1823,1,0,3:0:0:0:
433,0,1911,6,0,P|386:48|220:25,1,230.99999295044,4|0,1:0|0:0,0:0:0:0:
130,99,2264,6,0,B|131:58|172:33|172:33|213:42|232:95,2,165,4|0|0,3:2|0:0|0:0,0:0:0:0:
191,160,2970,1,0,0:0:0:0:
72,346,3146,6,0,P|65:283|131:240,1,98.9999969787599,2|0,0:1|0:0,0:0:0:0:
130,99,3323,2,0,P|174:187|141:347,1,230.99999295044,2|0,0:1|0:0,0:0:0:0:
299,259,3676,6,0,B|256:271|239:313|239:313|235:268|197:244,2,165,4|0|0,3:2|0:0|0:0,0:0:0:0:
259,183,4381,1,0,0:0:0:0:
408,354,4558,6,0,B|355:365|355:365|319:338,1,98.9999969787599,2|0,0:1|0:0,0:0:0:0:
299,259,4734,2,0,B|257:235|274:169|324:153|401:200|369:292,1,230.99999295044,2|0,0:1|0:0,0:0:0:0:
423,364,5087,6,0,P|460:348|480:270,1,98.9999969787599,4|0,3:2|0:0,0:0:0:0:
452,225,5264,1,0,0:0:0:0:
456,212,5352,1,0,0:0:0:0:
460,199,5440,1,0,0:0:0:0:
408,137,5617,1,0,0:0:0:0:
472,83,5793,6,0,P|415:94|326:28,1,153.999995300293,2|0,0:0|0:0,0:0:0:0:
269,88,6058,2,0,P|219:37|296:14,1,153.999995300293,2|0,0:0|0:0,0:0:0:0:
324,149,6323,2,0,P|280:194|284:277,1,76.9999976501466,2|0,0:0|0:0,0:0:0:0:
308,278,6499,5,4,3:2:0:0:
69,348,7029,1,0,3:0:0:0:
60,335,7117,1,0,3:0:0:0:
85,262,7205,6,0,P|72:173|-4:42,2,230.99999295044,8|4|0,3:0|3:0|3:0,0:0:0:0:
51,195,7911,6,0,B|26:302|65:358|182:340|209:271|129:155,1,330,4|0,3:2|3:0,0:0:0:0:
160,178,8529,1,0,3:0:0:0:
198,245,8617,6,0,B|170:156|236:105|236:105|282:159|282:159|336:117|336:117|394:198|332:278,1,461.999985900879,4|0,3:2|3:0,0:0:0:0:
338,289,9234,1,0,3:0:0:0:
413,313,9323,6,0,B|414:234|384:178|384:178|431:138|482:162|501:202|452:235|452:235|480:241|505:257|516:308,1,395.999987915039,4|0,3:2|3:0,0:0:0:0:
504,301,9940,1,0,3:0:0:0:
455,371,10029,6,0,P|391:323|281:342,1,153.999995300293,4|0,3:2|0:0,0:0:0:0:
319,322,10381,2,0,P|396:305|300:243,1,230.99999295044,0|0,1:0|0:0,0:0:0:0:
242,191,10734,6,0,L|261:274,1,76.9999976501466,0|0,3:0|0:0,0:0:0:0:
251,276,10911,1,0,1:0:0:0:
80,174,11087,5,0,3:0:0:0:
90,171,11176,1,0,3:0:0:0:
84,166,11264,1,0,3:0:0:0:
87,177,11352,1,0,3:0:0:0:
37,96,11440,6,0,B|82:80|116:18|116:18|115:75|163:134,1,230.99999295044,4|0,3:2|0:0,0:0:0:0:
133,245,11793,2,0,B|87:260|53:322|53:322|54:265|6:206,1,230.99999295044,4|0,3:2|0:0,0:0:0:0:
88,173,12146,6,0,P|104:106|36:95,2,153.999995300293,2|2|2,1:2|1:2|1:2,0:0:0:0:
324,324,12852,6,0,B|407:306|407:306|416:310|416:310|514:288,2,187.000003566742,2|2|2,1:2|1:2|1:2,0:0:0:0:
399,38,13558,6,0,P|439:77|427:134,1,76.9999976501466,2|0,1:2|0:0,0:0:0:0:
382,143,13734,2,0,P|382:198|333:230,1,76.9999976501466,2|0,1:2|0:0,0:0:0:0:
441,95,13911,6,0,P|404:66|354:73,1,93.500001783371,2|0,1:2|0:0,0:0:0:0:
292,23,14087,2,0,P|246:28|214:68,1,93.500001783371,2|0,1:2|0:0,0:0:0:0:
290,206,14264,6,0,P|277:149|300:52,1,110,6|0,1:2|0:0,0:0:0:0:
131,30,14440,5,0,3:0:0:0:
139,69,14529,1,0,3:0:0:0:
75,122,14617,1,0,3:0:0:0:
70,161,14705,1,0,3:0:0:0:
142,202,14793,1,0,3:0:0:0:
147,241,14881,1,0,3:0:0:0:
83,286,14970,6,0,P|118:315|179:311,1,76.9999976501466,4|0,3:2|0:0,0:0:0:0:
218,285,15146,1,2,1:2:0:0:
66,336,15323,2,0,P|61:236|-4:123,1,230.99999295044,2|0,3:1|0:0,0:0:0:0:
21,44,15676,6,0,P|98:65|126:113,1,76.9999976501466,2|0,3:2|0:0,0:0:0:0:
151,122,15852,1,2,1:2:0:0:
3,203,16029,6,0,P|60:175|76:125,1,98.9999969787599,2|0,3:1|0:0,0:0:0:0:
176,47,16205,2,0,P|223:88|226:141,1,98.9999969787599,2|0,1:0|0:0,0:0:0:0:
283,272,16381,5,2,3:2:0:0:
282,288,16470,2,0,B|278:331|210:341|166:271|222:198|272:200,1,197.99999395752,6|0,0:2|0:0,0:0:0:0:
332,208,16734,6,0,P|396:190|453:248,1,98.9999969787599,2|0,3:2|0:0,0:0:0:0:
397,338,16911,2,0,P|440:315|458:270,1,98.9999969787599,2|0,1:2|0:0,0:0:0:0:
314,364,17087,5,2,3:2:0:0:
282,288,17176,2,0,P|232:272|146:311,1,98.9999969787599,2|0,0:1|1:0,0:0:0:0:
112,328,17352,5,2,0:2:0:0:
92,309,17440,2,0,B|104:234|104:234|62:218|47:167|71:124,1,197.99999395752,2|0,3:1|1:0,0:0:0:0:
67,131,17793,6,0,P|133:162|154:202,1,76.9999976501466,6|0,3:2|0:0,0:0:0:0:
187,279,17970,1,2,1:2:0:0:
146,135,18146,2,0,P|252:167|353:88,1,230.99999295044,2|0,3:1|0:0,0:0:0:0:
321,28,18499,6,0,P|276:50|284:96,1,76.9999976501466,2|0,3:2|0:0,0:0:0:0:
304,190,18676,1,2,1:2:0:0:
401,45,18852,6,0,P|426:120|374:153,1,98.9999969787599,2|0,3:1|0:0,0:0:0:0:
404,250,19029,2,0,L|350:240,1,44,2|0,1:0|0:0,0:0:0:0:
404,251,19381,6,0,P|355:224|274:299,1,98.9999969787599,2|0,1:0|0:0,0:0:0:0:
40,242,19558,2,0,L|47:307,1,44,2|0,3:1|0:0,0:0:0:0:
40,242,19911,6,0,P|13:300|50:351,1,98.9999969787599,2|0,3:1|0:0,0:0:0:0:
175,343,20087,5,0,3:0:0:0:
183,304,20176,1,0,3:0:0:0:
119,251,20264,1,0,3:0:0:0:
114,212,20352,1,0,3:0:0:0:
186,171,20440,1,0,3:0:0:0:
191,132,20529,1,0,3:0:0:0:
141,67,20617,6,0,L|56:55,1,55,6|0,3:2|0:0,0:0:0:0:
25,100,20793,1,2,1:0:0:0:
269,117,20970,6,0,P|259:87|228:62,2,55,2|0|0,3:1|0:0|1:0,0:0:0:0:
114,212,21323,6,0,L|199:200,1,55,2|0,3:2|0:0,0:0:0:0:
251,227,21499,1,2,1:2:0:0:
206,373,21676,6,0,P|205:343|172:251,1,98.9999969787599,2|0,3:1|0:0,0:0:0:0:
313,180,21852,2,0,P|314:150|347:58,1,98.9999969787599,2|0,1:0|0:0,0:0:0:0:
66,92,22029,5,2,3:2:0:0:
81,76,22117,2,0,B|199:69|148:134|276:116,1,197.99999395752,6|0,0:0|0:0,0:0:0:0:
321,43,22381,6,0,P|260:23|225:98,1,98.9999969787599,2|0,3:2|0:0,0:0:0:0:
118,158,22558,2,0,P|162:176|204:154,1,98.9999969787599,2|0,1:2|0:0,0:0:0:0:
313,180,22734,5,2,3:2:0:0:
368,114,22823,2,0,P|461:182|450:237,1,98.9999969787599,2|0,0:1|1:0,0:0:0:0:
479,235,22999,5,2,0:0:0:0:
451,236,23087,2,0,B|479:278|479:278|457:341,1,98.9999969787599,2|0,3:1|0:0,0:0:0:0:
384,350,23264,5,2,3:2:0:0:
369,345,23352,1,2,3:2:0:0:
338,304,23440,6,0,P|263:285|313:378,2,230.99999295044,2|2|2,1:2|1:2|1:2,0:0:0:0:
222,286,24146,6,0,B|235:236|235:236|45:279,2,230.99999295044,2|2|2,1:2|1:2|1:2,0:0:0:0:
135,301,24852,6,0,L|116:384,1,44,2|0,1:0|0:0,0:0:0:0:
184,86,25117,2,0,L|203:3,1,44,2|0,1:2|0:0,0:0:0:0:
265,349,25381,6,0,L|222:286,1,76.9999976501466,2|0,1:0|0:0,0:0:0:0:
96,100,25558,1,2,1:0:0:0:
256,192,25616,12,4,27161,3:1:0:0:
428,142,27338,5,0,0:0:0:0:
427,128,27427,2,0,P|387:88|343:141,1,117.333333333333,2|0,0:0|0:0,0:0:0:0:
330,117,27694,2,0,P|346:158|354:223,1,88,2|0,0:0|0:0,0:0:0:0:
402,340,27961,2,0,P|424:287|430:204,1,117.333333333333,2|0,0:0|0:0,0:0:0:0:
444,234,28227,5,2,0:0:0:0:
327,274,28405,1,0,0:0:0:0:
334,292,28494,1,2,0:0:0:0:
220,367,28672,1,0,0:0:0:0:
254,297,28761,6,0,P|184:287|144:317,1,117.333333333333,2|0,0:0|0:0,0:0:0:0:
159,324,29027,2,0,L|178:244,1,58.6666666666667,2|0,0:0|0:0,0:0:0:0:
135,180,29205,1,0,0:0:0:0:
126,167,29294,1,2,0:1:0:0:
232,30,29561,6,0,P|230:93|167:137,1,117.333333333333,2|0,0:0|0:0,0:0:0:0:
193,112,29827,2,0,P|170:91|111:83,1,88,2|0,0:0|0:0,0:0:0:0:
45,219,30094,2,0,P|104:266|127:227,1,117.333333333333,2|0,0:0|0:0,0:0:0:0:
135,246,30361,5,2,0:0:0:0:
126,167,30538,1,0,0:0:0:0:
113,168,30627,1,2,0:0:0:0:
175,315,30805,5,2,0:0:0:0:
264,334,30894,1,2,0:1:0:0:
397,219,31071,5,2,0:0:0:0:
296,243,31160,1,2,0:1:0:0:
444,288,31338,6,0,P|431:211|450:109,1,176,4|0,1:0|0:0,0:0:0:0:
476,39,31694,2,0,P|432:20|388:73,1,117.333333333333,2|0,0:0|0:0,0:0:0:0:
378,51,31960,2,0,L|281:34,1,88,2|0,0:0|0:0,0:0:0:0:
325,197,32227,2,0,P|232:217|214:237,1,117.333333333333,2|0,0:0|0:0,0:0:0:0:
231,240,32494,6,0,L|250:363,1,117.333333333333,2|0,0:0|0:0,0:0:0:0:
235,351,32760,1,2,0:0:0:0:
396,269,32938,1,0,0:0:0:0:
376,262,33027,1,2,0:0:0:0:
467,144,33294,6,0,P|425:121|350:155,1,117.333333333333,2|0,0:0|0:0,0:0:0:0:
357,155,33561,6,0,P|420:132|383:50,1,175.999994628906,2|0,3:2|0:0,0:0:0:0:
313,81,33827,2,0,P|305:38|325:0,1,87.9999973144532,2|0,0:0|0:0,0:0:0:0:
189,34,34005,1,0,0:0:0:0:
189,34,34094,2,0,P|191:77|218:110,1,87.9999973144532,2|0,1:2|0:0,0:0:0:0:
323,248,34271,6,0,P|341:181|307:74,1,175.999994628906,0|0,3:0|0:0,0:0:0:0:
410,261,34538,2,0,P|358:326|331:314,1,87.9999973144532,4|0,1:0|0:0,0:0:0:0:
62,172,35694,6,0,P|34:149|66:65,1,110,2|0,0:1|0:0,0:0:0:0:
40,81,36427,6,0,P|68:104|36:188,1,110,2|0,0:1|0:0,0:0:0:0:
62,172,36760,2,0,L|71:204,1,27.5,12|0,0:1|0:0,0:0:0:0:
420,348,37105,6,0,P|494:337|455:247,1,197.99999395752,4|0,3:2|0:0,0:0:0:0:
456,262,37457,1,0,1:0:0:0:
83,340,37722,5,0,1:0:0:0:
91,329,37810,2,0,P|163:301|245:324,1,131.99999597168,0|0,3:0|3:0,0:0:0:0:
420,348,38163,6,0,P|385:310|337:314,1,65.9999979858399,0|0,1:0|0:0,0:0:0:0:
215,308,38340,2,0,B|282:323|315:266|290:270|321:216|383:230,1,197.99999395752,0|0,3:0|0:0,0:0:0:0:
442,179,38693,5,0,3:0:0:0:
456,262,38869,1,0,1:0:0:0:
223,63,39134,5,0,1:0:0:0:
222,76,39222,2,0,B|182:79|164:75|133:37|133:37|145:83|136:104|113:129,1,197.99999395752,0|0,3:0|0:0,0:0:0:0:
42,156,39575,2,0,P|24:136|54:100,1,65.9999979858399,0|0,1:0|0:0,0:0:0:0:
210,343,39928,6,0,P|228:291|180:140,1,197.99999395752,0|0,3:0|0:0,0:0:0:0:
184,236,40281,1,0,1:0:0:0:
438,238,40457,5,0,3:0:0:0:
450,242,40546,1,0,3:0:0:0:
460,245,40634,2,0,P|495:178|456:115,1,131.99999597168,0|0,1:0|0:0,0:0:0:0:
461,129,40987,6,0,P|429:108|413:75,1,65.9999979858399,0|0,1:0|3:0,0:0:0:0:
490,24,41163,2,0,L|487:86,1,32.99999899292,4|0,3:2|0:0,0:0:0:0:
415,84,41340,5,0,3:2:0:0:
383,74,41428,1,2,0:2:0:0:
351,78,41516,1,0,0:2:0:0:
323,95,41605,1,2,0:2:0:0:
267,163,41693,5,0,1:2:0:0:
258,135,41781,1,2,0:2:0:0:
259,169,41869,1,0,0:2:0:0:
250,141,41957,1,2,0:2:0:0:
177,124,42046,5,0,3:0:0:0:
117,170,42134,2,0,L|16:156,1,82.5000031471254,2|0,0:3|0:0,0:0:0:0:
35,158,42399,6,0,P|44:212|90:245,1,88,4|0,1:2|0:0,0:0:0:0:
18,294,42575,2,0,P|69:313|120:289,1,88,0|0,1:0|3:0,3:3:0:0:
349,170,42752,6,0,B|325:115|279:84|221:103|221:103|258:115|269:151,1,230.99999295044,4|0,3:2|0:0,0:0:0:0:
375,245,43105,2,0,P|415:214|426:167,1,76.9999976501466,2|0,1:0|0:0,0:0:0:0:
187,184,43369,5,0,1:0:0:0:
199,176,43457,2,0,P|257:264|143:246,1,230.99999295044,2|0,3:1|0:0,0:0:0:0:
87,286,43810,2,0,L|99:339,1,38.4999988250733,2|0,3:1|0:0,0:0:0:0:
114,108,43987,2,0,L|126:161,1,38.4999988250733,2|0,1:0|0:0,0:0:0:0:
445,117,44340,6,0,P|486:79|484:39,1,76.9999976501466,2|0,3:1|0:0,0:0:0:0:
412,51,44516,2,0,P|325:55|261:150,1,153.999995300293,2|2,1:1|1:1,0:0:0:0:
265,89,44781,1,0,1:0:0:0:
216,150,44869,6,0,P|147:88|230:57,2,153.999995300293,0|0|4,3:0|3:0|1:2,0:0:0:0:
416,344,45752,5,0,3:0:0:0:
467,156,45928,2,0,P|498:248|470:315,1,153.999995300293,0|0,1:0|3:0,0:0:0:0:
244,364,46281,6,0,L|156:345,1,76.9999976501466,0|0,1:0|0:0,0:0:0:0:
416,344,46457,2,0,P|403:314|329:288,1,76.9999976501466,0|0,3:0|3:0,0:0:0:0:
284,288,46634,5,0,1:0:0:0:
271,285,46722,1,0,1:0:0:0:
258,282,46810,1,0,3:0:0:0:
246,279,46899,1,0,3:0:0:0:
168,347,46987,6,0,B|156:272|156:272|158:263|158:263|139:146,2,165,0|0|0,1:0|1:0|3:0,0:0:0:0:
130,176,47693,1,0,3:0:0:0:
365,133,47957,5,0,1:0:0:0:
441,152,48046,2,2,B|357:150|404:229|281:209,1,165,2|0,3:1|0:0,0:0:0:0:
255,144,48399,6,0,P|261:101|305:13,1,131.99999597168,4|0,3:2|0:0,0:0:0:0:
9,194,48752,2,0,P|39:252|52:316,1,131.99999597168,0|0,3:0|0:0,0:0:0:0:
40,312,49016,1,0,3:0:0:0:
71,245,49104,6,0,P|123:291|121:330,1,65.9999979858399,0|0,1:0|0:0,0:0:0:0:
185,243,49281,2,0,P|189:312|160:338,1,65.9999979858399,0|0,3:0|0:0,0:0:0:0:
240,363,49457,1,0,3:0:0:0:
437,297,49634,5,2,3:2:0:0:
414,287,49722,1,0,0:0:0:0:
434,271,49810,1,0,1:0:0:0:
329,285,49987,5,2,3:2:0:0:
297,241,50075,1,0,0:0:0:0:
349,233,50163,1,0,1:0:0:0:
215,209,50340,5,2,3:2:0:0:
205,133,50428,1,0,0:0:0:0:
278,160,50516,1,0,1:0:0:0:
62,192,50693,6,0,P|47:152|62:96,1,65.9999979858399,4|0,3:2|0:0,0:0:0:0:
77,2,50869,2,0,P|91:115|61:193,1,197.99999395752,4|0,1:2|0:0,0:0:0:0:
0,253,51222,5,0,3:0:0:0:
22,282,51399,1,0,0:0:0:0:
159,197,51575,5,0,1:0:0:0:
191,350,51752,1,0,3:0:0:0:
302,168,51928,6,0,P|277:99|233:39,2,131.99999597168,0|0|0,1:0|3:0|1:0,0:0:0:0:
431,279,52457,2,0,B|439:229|482:212|538:258|516:332|448:353,1,197.99999395752,0|0,3:0|0:0,0:0:0:0:
387,345,52810,2,0,P|354:302|365:238,1,88,0|0,3:0|0:0,0:0:0:0:
352,269,53163,6,0,P|368:219|388:199,1,65.9999979858399,0|0,3:0|0:0,0:0:0:0:
467,344,53340,2,0,P|346:334|280:398,1,197.99999395752,0|0,3:0|0:0,0:0:0:0:
291,378,53693,2,0,P|346:373|387:338,1,88,4|0,1:2|0:0,0:0:0:0:
411,290,54046,6,0,B|418:270|410:248|395:232|395:232|407:170,1,110,0|0,3:0|3:0,0:0:0:0:
413,176,54310,1,0,3:0:0:0:
483,206,54399,6,0,P|462:116|370:110,1,197.99999395752,4|0,1:2|3:0,0:0:0:0:
303,67,54663,5,0,3:0:0:0:
290,62,54752,2,0,P|270:111|301:153,1,110,0|0,3:0|3:0,0:0:0:0:
300,167,55016,1,0,3:0:0:0:
306,242,55104,6,0,B|208:250|256:143|112:171,1,197.99999395752,4|0,1:2|3:0,0:0:0:0:
74,237,55369,5,0,3:0:0:0:
68,225,55457,2,0,B|1:213|1:213|69:200,1,110,0|0,3:0|3:0,0:0:0:0:
56,204,55722,1,0,3:0:0:0:
69,125,55810,6,0,P|174:100|208:193,1,197.99999395752,4|0,1:2|3:0,0:0:0:0:
181,238,56075,5,0,3:0:0:0:
169,241,56163,2,0,P|160:299|180:364,1,110,0|0,3:0|3:0,0:0:0:0:
183,352,56428,1,0,3:0:0:0:
244,293,56516,6,0,P|341:308|433:346,1,197.99999395752,4|0,1:2|0:0,0:0:0:0:
433,346,56869,6,0,P|419:312|404:224,1,76.9999976501466,0|0,3:0|0:0,0:0:0:0:
343,364,57046,2,0,P|334:327|335:238,1,76.9999976501466,0|0,3:0|0:0,0:0:0:0:
441,338,57222,6,0,P|424:300|412:230,1,88,0|0,3:0|0:0,0:0:0:0:
252,325,57399,2,0,P|253:288|283:192,1,88,0|0,3:0|0:0,0:0:0:0:
448,329,57575,6,0,P|431:291|419:211,1,98.9999969787599,0|0,3:0|0:0,0:0:0:0:
174,263,57752,2,0,P|184:221|233:142,1,98.9999969787599,0|0,3:0|0:0,0:0:0:0:
455,320,57928,6,0,P|438:282|429:191,1,110,0|0,3:0|0:0,0:0:0:0:
114,183,58104,2,0,P|132:140|205:75,1,110,0|0,3:0|0:0,0:0:0:0:
463,139,58281,6,0,B|511:118|511:118|463:73|380:96|354:180,2,230.99999295044,4|2|2,1:2|1:2|1:2,0:0:0:0:
364,158,58987,2,0,P|295:118|272:36,1,153.999995300293,2|0,1:1|0:0,0:0:0:0:
271,51,59340,2,0,P|266:94|227:135,1,76.9999976501466,4|0,1:2|0:0,0:0:0:0:
81,349,59693,6,0,P|77:261|49:178,1,176,4|0,3:2|1:0,0:0:0:0:
10,106,59957,1,0,0:0:0:0:
26,93,60046,2,0,P|94:102|96:161,1,88,0|0,3:0|0:0,0:0:0:0:
190,212,60222,2,0,B|143:202|108:233|108:233|73:264|27:255,1,176,0|0,1:0|3:0,0:0:0:0:
438,323,60575,6,0,L|431:368,1,27.5,2|0,1:0|0:0,0:0:0:0:
508,361,60752,2,0,L|514:315,1,27.5,2|0,3:1|0:0,0:0:0:0:
190,212,60928,6,0,P|168:170|189:106,1,88,0|0,1:0|0:0,0:0:0:0:
310,263,61104,2,0,P|251:251|120:293,1,176,4|0,3:2|1:0,0:0:0:0:
114,357,61369,1,0,0:0:0:0:
128,368,61457,2,0,P|165:373|200:333,1,88,0|0,3:0|0:0,0:0:0:0:
309,181,61634,2,0,B|333:142|385:148|385:148|411:192|386:231,1,176,0|0,1:0|3:0,0:0:0:0:
57,33,61987,6,0,L|11:26,1,27.5,2|0,1:0|0:0,0:0:0:0:
22,105,62163,2,0,L|49:108,1,27.5,2|0,3:1|0:0,0:0:0:0:
309,180,62340,6,0,P|274:150|217:152,1,76.9999976501466,0|0,1:0|0:0,0:0:0:0:
141,225,62516,1,0,3:0:0:0:
243,305,62693,6,0,L|247:211,1,76.9999976501466,0|0,1:0|0:0,0:0:0:0:
134,380,62869,2,0,L|138:286,1,76.9999976501466,0|0,3:0|0:0,0:0:0:0:
382,293,63046,6,0,L|428:287,1,44,0|0,1:0|0:0,0:0:0:0:
141,225,63222,6,8,P|109:151|116:47,1,153.999995300293,0|0,3:0|1:0,0:0:0:0:
155,14,63487,1,0,0:0:0:0:
168,24,63575,2,0,P|188:59|185:97,1,76.9999976501466,0|0,3:0|0:0,0:0:0:0:
367,304,63752,6,0,L|461:293,1,76.9999976501466,0|0,1:0|0:0,0:0:0:0:
45,330,63928,6,0,P|142:314|217:251,1,197.99999395752,4|0,1:2|0:0,0:0:0:0:
369,226,64193,2,0,B|318:227|291:277|291:277|301:222|263:187,1,197.99999395752,4|0,1:2|0:0,0:0:0:0:
141,225,64457,2,0,P|143:274|170:315,1,98.9999969787599,0|0,3:0|0:0,0:0:0:0:
338,142,64634,6,0,P|270:88|185:94,1,176,4|0,3:2|0:0,0:0:0:0:
114,134,64899,1,0,3:3:0:0:
44,91,64987,5,0,1:3:0:0:
29,86,65075,1,0,3:3:0:0:
33,70,65163,1,0,1:3:0:0:
49,75,65252,1,0,3:3:0:0:
114,134,65340,6,0,L|122:205,1,55,4|0,3:2|0:3,0:0:0:0:
80,382,65516,6,0,P|35:350|35:273,1,98.9999969787599,0|0,1:0|0:0,0:0:0:0:
66,240,65693,2,0,P|120:230|174:285,1,98.9999969787599,0|0,3:0|0:0,0:0:0:0:
351,290,65869,6,0,P|362:247|356:215,1,76.9999976501466,0|0,1:0|0:0,0:0:0:0:
436,216,66046,2,0,P|423:173|401:148,1,76.9999976501466,0|0,3:0|0:0,0:0:0:0:
102,308,66222,5,0,1:0:0:0:
156,251,66310,2,0,P|219:232|284:244,1,131.99999597168,4|0,3:2|3:0,0:0:0:0:
351,290,66575,1,0,1:0:0:0:
413,72,66752,6,0,L|400:167,1,76.9999976501466,2|0,3:1|0:0,0:0:0:0:
423,319,66928,5,0,1:0:0:0:
318,361,67016,2,0,P|213:341|156:251,1,220,4|0,3:2|3:0,0:0:0:0:
176,140,67281,1,0,1:0:0:0:
432,60,67457,6,0,L|414:185,1,110,2|0,3:1|0:0,0:0:0:0:
262,99,67634,5,0,1:0:0:0:
187,44,67722,1,0,3:0:0:0:
103,76,67810,1,0,3:0:0:0:
81,119,67899,1,0,3:0:0:0:
80,146,67987,1,0,1:0:0:0:
84,161,68075,1,0,3:0:0:0:
48,236,68163,6,0,P|132:167|226:175,1,197.99999395752,4|0,3:2|1:0,0:0:0:0:
279,294,68428,2,0,P|258:184|266:75,1,197.99999395752
344,151,68693,2,0,P|366:200|326:265,1,98.9999969787599,0|0,1:0|0:0,0:0:0:0:
129,364,68869,5,0,3:0:0:0:
118,362,68957,1,0,3:0:0:0:
107,361,69046,1,0,1:0:0:0:
96,359,69134,1,0,3:0:0:0:
85,358,69222,1,0,3:0:0:0:
74,357,69310,1,0,3:0:0:0:
63,355,69399,2,0,P|114:335|137:293,1,98.9999969787599,0|0,1:0|0:0,0:0:0:0:
76,149,69575,6,0,P|52:209|59:274,2,132,2|2|2,1:2|1:2|1:2,0:0:0:0:
215,265,70281,2,0,P|254:180|171:223,1,220,4|0,1:2|0:0,0:0:0:0:
158,191,70546,1,0,3:0:0:0:
143,186,70634,6,0,P|149:206|150:238,6,38.4999988250733,0|0|0|0|0|0|0,1:0|0:0|0:0|0:0|0:0|0:0|0:0,0:0:0:0:
76,149,70987,6,0,P|166:70|262:56,1,176,4|0,3:2|1:0,0:0:0:0:
286,98,71252,1,0,0:0:0:0:
284,116,71340,2,0,P|263:139|194:119,1,88,0|0,3:0|0:0,0:0:0:0:
0,50,71516,2,0,P|80:8|118:89,1,176,0|0,1:0|3:0,0:0:0:0:
462,109,71869,6,0,L|411:100,1,27.5,2|0,1:0|0:0,0:0:0:0:
446,29,72046,2,0,L|497:38,1,27.5,2|0,3:1|0:0,0:0:0:0:
122,64,72222,6,0,B|101:104|101:104|115:160,1,88,0|0,1:0|0:0,0:0:0:0:
352,162,72399,2,0,P|272:119|164:123,1,176,4|0,3:2|1:0,0:0:0:0:
89,221,72663,1,0,0:0:0:0:
100,228,72752,2,0,P|150:225|169:182,1,88,0|0,3:0|0:0,0:0:0:0:
473,204,72928,2,0,B|478:166|453:129|414:115|414:115|435:140|431:171,1,176,0|0,1:0|3:0,0:0:0:0:
83,370,73281,6,0,L|42:384,1,27.5,2|0,1:0|0:0,0:0:0:0:
33,307,73457,2,0,L|74:293,1,27.5,2|0,3:1|0:0,0:0:0:0:
401,301,73634,6,0,L|394:385,1,65.9999979858399,0|0,1:0|0:0,0:0:0:0:
396,367,73810,2,2,P|345:301|352:158,1,230.99999295044,4|0,1:2|0:0,0:1:0:0:
429,135,74163,1,0,3:0:0:0:
61,137,74516,6,2,B|164:152|164:152|184:129|218:118|254:127,1,197.99999395752,4|0,1:2|0:0,0:1:0:0:
69,60,74869,2,0,P|39:59|2:85,1,65.9999979858399,8|0,3:0|0:0,0:0:0:0:
449,222,75222,6,0,P|423:230|386:295,1,88,0|0,3:0|0:0,0:0:0:0:
250,287,75399,2,0,P|237:311|257:383,1,88,0|0,3:3|0:3,0:0:0:0:
463,300,75575,6,0,P|403:231|289:229,1,176,0|0,1:0|0:0,0:0:0:0:
311,227,75840,1,0,3:0:0:0:
241,263,75928,2,0,L|135:243,1,88,0|0,1:0|0:0,0:0:0:0:
94,187,76104,5,0,3:0:0:0:
86,175,76193,1,0,3:0:0:0:
79,146,76281,1,0,3:0:0:0:
88,92,76369,1,0,3:0:0:0:
137,30,76457,1,0,3:0:0:0:
226,9,76546,1,0,3:0:0:0:
325,73,76634,6,0,L|338:149,1,55,0|0,3:0|0:0,0:0:0:0:
251,98,76810,2,0,L|264:174,1,55,0|0,3:0|0:0,0:0:0:0:
452,181,76987,5,2,3:1:0:0:
425,166,77075,2,0,P|332:172|267:243,1,176,0|0,3:0|3:0,0:0:0:0:
269,254,77340,1,0,3:0:0:0:
10,277,77516,6,0,P|-11:194|65:201,2,176,0|0|0,1:0|1:0|1:0,0:0:0:0:
274,226,78046,6,0,L|219:239,1,55,0|0,3:0|0:0,0:0:0:0:
146,255,78222,2,0,L|91:268,1,55,0|0,3:0|0:0,0:0:0:0:
96,114,78399,5,2,3:1:0:0:
86,102,78487,2,0,B|73:58|111:22|111:22|161:31|175:76,1,176,0|0,3:0|3:0,0:0:0:0:
174,92,78752,1,0,3:0:0:0:
414,202,78928,6,0,P|462:154|460:118,1,88,2|0,1:0|0:0,0:0:0:0:
410,76,79104,2,0,P|344:93|328:125,1,88,2|0,1:0|0:0,0:0:0:0:
327,185,79281,6,0,L|339:240,1,55,0|0,0:0|3:0,0:0:0:0:
63,302,79634,5,0,3:0:0:0:
12,251,79722,1,0,3:0:0:0:
26,180,79810,1,4,3:2:0:0:
319,188,79987,6,0,L|331:243,1,55,0|0,0:0|3:0,0:0:0:0:
257,283,80252,5,0,3:0:0:0:
231,287,80340,1,0,3:0:0:0:
208,273,80428,1,0,3:0:0:0:
133,311,80516,6,0,P|182:237|119:160,1,197.99999395752,4|0,3:2|3:0,0:0:0:0:
108,163,80781,1,0,3:0:0:0:
102,239,80869,6,0,L|45:254,1,44,2|0,1:2|0:0,0:0:0:0:
375,158,81134,2,0,L|431:142,1,44,2|0,1:2|0:0,0:0:0:0:
33,141,81399,6,0,L|107:162,1,76.9999976501466,2|0,1:2|0:0,0:0:0:0:
366,240,81575,1,0,3:0:0:0:
385,246,81663,1,0,3:0:0:0:
403,251,81752,1,0,3:0:0:0:
422,256,81840,1,0,3:0:0:0:
441,262,81928,1,4,3:2:0:0:
441,262,82281,6,0,P|516:165|396:214,1,330,4|0,3:2|3:0,0:0:0:0:
374,206,82899,1,0,3:0:0:0:
323,143,82987,6,0,B|358:230|297:286|297:286|246:236|246:236|196:283|196:283|131:207|186:122,1,461.999985900879,4|0,3:2|3:0,0:0:0:0:
164,136,83604,1,0,3:0:0:0:
124,203,83693,6,0,P|13:143|66:255,1,330,4|0,3:2|3:0,0:0:0:0:
68,272,84310,1,0,3:0:0:0:
0,325,84399,6,0,P|74:295|175:342,1,153.999995300293,4|0,3:2|0:0,0:0:0:0:
507,291,84752,2,0,P|441:337|277:336,1,230.99999295044,0|0,1:0|0:0,0:0:0:0:
189,378,85104,6,0,P|220:337|212:282,1,76.9999976501466,0|0,3:0|0:0,0:0:0:0:
184,246,85281,1,0,1:0:0:0:
354,158,85457,5,0,3:0:0:0:
377,150,85546,1,0,3:0:0:0:
363,139,85634,1,0,3:0:0:0:
370,165,85722,1,0,3:0:0:0:
439,247,85810,6,0,P|456:144|373:26,1,230.99999295044,4|0,3:2|0:0,0:0:0:0:
294,63,86163,2,0,P|277:166|360:284,1,230.99999295044,4|0,3:2|0:0,0:0:0:0:
367,151,86516,6,0,P|437:123|482:191,2,153.999995300293,2|2|2,1:2|1:2|1:2,0:0:0:0:
114,38,87222,6,0,B|100:119|100:119|93:125|93:125|77:229,2,187.000003566742,2|2|2,1:2|1:2|1:2,0:0:0:0:
164,349,87928,6,0,P|216:330|235:295,1,93.500001783371,2|0,1:2|0:0,0:0:0:0:
372,179,88104,2,0,P|318:163|282:180,1,93.500001783371,2|0,1:2|0:0,0:0:0:0:
330,340,88281,6,0,P|327:284|300:255,1,93.500001783371,2|0,1:2|0:0,0:0:0:0:
232,88,88457,2,0,P|201:133|206:173,1,93.500001783371,2|0,1:2|0:0,0:0:0:0:
105,194,88634,6,0,P|139:237|178:244,1,93.500001783371,2|0,1:2|0:3,0:0:0:0:
482,237,88810,6,0,L|488:274,1,27.5,2|0,0:1|0:0,0:0:0:0:
411,280,88987,2,0,L|405:243,1,27.5,2|0,0:1|0:0,0:0:0:0:
