osu file format v14

[General]
AudioFilename: audio.mp3
AudioLeadIn: 0
PreviewTime: 35661
Countdown: 0
SampleSet: Soft
StackLeniency: 0.3
Mode: 0
LetterboxInBreaks: 0
WidescreenStoryboard: 0

[Editor]
DistanceSpacing: 1
BeatDivisor: 4
GridSize: 32
TimelineZoom: 2.599999

[Metadata]
Title:Nimensei*Uraomote Life!
TitleUnicode:にめんせい☆ウラオモテライフ!
Artist:Doma Umaru (CV.Tanaka Aimi)
ArtistUnicode:土間うまる (CV.田中あいみ)
Creator:handsome
Version:Haruto's Easy
Source:干物妹!うまるちゃんR
Tags:himouto umaru chan r anime tv size short edit version delis dailycare haruto professionalbox probox haruto_aizawa my two faced little sister
BeatmapID:1438334
BeatmapSetID:679303

[Difficulty]
HPDrainRate:2
CircleSize:2.7
OverallDifficulty:3
ApproachRate:3
SliderMultiplier:0.999999999999999
SliderTickRate:1

[Events]
//Background and Video events
0,0,"umaru.jpg",0,0
Video,350,"opening.avi"
//Break Periods
//Storyboard Layer 0 (Background)
//Storyboard Layer 1 (Fail)
//Storyboard Layer 2 (Pass)
//Storyboard Layer 3 (Foreground)
//Storyboard Sound Samples

[TimingPoints]
852,352.941176470588,4,2,0,30,1,0
852,-100,4,2,0,30,0,0
1910,-100,4,2,1,60,0,0
27161,266.666666666667,4,2,2,70,1,0
27161,-133.333333333333,4,2,2,70,0,0
35694,266.666666666667,4,2,3,70,1,0
37105,352.941176470588,4,2,1,50,1,0
37105,-100,4,2,1,50,0,0
59693,-100,4,2,1,50,0,1
60575,-100,4,2,1,100,0,1
61104,-100,4,2,1,80,0,1
73281,-100,4,2,1,100,0,0
73810,-100,4,2,1,70,0,0
74869,-100,4,2,1,70,0,0
75222,-100,4,2,1,80,0,0
76634,-100,4,2,1,70,0,1
82281,-100,4,2,1,60,0,0
87928,-100,4,2,1,70,0,0
88810,-100,4,2,1,50,0,0

[Colours]
Combo1 : 255,180,21
Combo2 : 255,219,108

[HitObjects]
19,254,852,6,0,L|2:146,2,99.9999999999999,0|2|0,3:0|3:0|3:0,0:0:0:0:
62,344,1910,1,4,1:0:0:0:
120,262,2263,6,0,B|260:208|234:372|401:307,1,300,4|2,3:2|0:1,0:0:0:0:
453,225,3675,2,0,B|487:25|487:25|415:90,1,300,4|2,3:2|0:1,0:0:0:0:
343,160,5087,6,0,P|297:185|75:91,1,300,4|0,3:2|0:0,0:0:0:0:
25,24,6499,2,0,L|71:324,1,300,4|0,3:2|0:0,0:0:0:0:
170,311,7910,6,0,L|138:101,2,200,4|4|4,3:2|3:2|3:2,0:0:0:0:
261,352,9675,1,0,0:0:0:0:
252,252,10028,2,0,P|301:261|340:291,1,99.9999999999999,4|0,3:2|1:0,0:0:0:0:
414,223,10734,6,0,P|377:189|314:166,1,99.9999999999999,4|0,3:2|1:0,0:0:0:0:
233,149,11440,2,0,L|217:44,1,99.9999999999999,4|4,3:2|3:2,0:0:0:0:
123,14,12146,6,0,L|139:113,1,99.9999999999999,2|2,1:2|1:2,0:0:0:0:
233,149,12851,2,0,P|291:122|314:80,1,99.9999999999999,2|2,1:2|1:2,0:0:0:0:
386,28,13557,6,0,L|401:126,1,99.9999999999999,2|2,1:2|1:2,0:0:0:0:
414,226,14263,2,0,L|429:324,1,99.9999999999999,6|0,1:2|3:0,0:0:0:0:
334,285,14969,6,0,B|176:224|216:387|60:341,1,300,4|2,3:2|3:1,0:0:0:0:
109,253,16381,2,0,L|95:137,1,99.9999999999999,2|2,3:2|3:2,0:0:0:0:
10,103,17087,2,0,P|44:66|90:49,1,99.9999999999999,2|2,3:2|3:1,0:0:0:0:
179,97,17793,6,0,P|197:142|192:192,1,99.9999999999999,6|2,3:2|3:1,0:0:0:0:
109,253,18499,2,0,L|120:352,1,99.9999999999999,2|2,3:2|3:1,0:0:0:0:
203,295,19204,2,0,B|347:245|315:395|491:348,1,300,0|0,3:0|3:0,0:0:0:0:
507,252,20616,6,0,L|495:152,2,99.9999999999999,6|2|2,3:2|3:1|3:2,0:0:0:0:
415,211,21675,1,2,3:1:0:0:
326,163,22028,2,0,P|262:148|201:173,1,99.9999999999999,2|2,3:2|3:2,0:0:0:0:
144,209,22734,2,0,L|132:109,1,99.9999999999999,2|2,3:2|3:1,0:0:0:0:
256,192,23440,12,2,25557,1:0:0:0:
124,105,27161,6,0,L|362:68,2,225.000008583069,0|2|2,0:0|0:0|0:0,0:0:0:0:
100,199,29027,1,2,0:0:0:0:
78,294,29294,2,0,L|312:258,1,225.000008583069,2|2,0:1|0:0,0:0:0:0:
363,334,30361,2,0,P|394:241|301:161,1,225.000008583069,2|2,0:0|0:1,0:0:0:0:
214,149,31427,6,0,B|138:144|138:144|77:186|77:186|-3:182,1,225.000008583069,2|2,0:0|0:0,0:0:0:0:
26,278,32494,2,0,B|101:282|101:282|162:240|162:240|243:244,1,225.000008583069,2|2,0:0|0:0,0:0:0:0:
335,241,33561,2,0,P|419:183|450:14,1,275.000010490418,0|0,0:0|1:0,0:0:0:0:
449,10,37105,6,0,L|469:122,1,99.9999999999999,4|0,3:2|1:0,0:0:0:0:
488,206,37810,2,0,P|450:150|296:257,1,300,0|0,3:0|1:0,0:0:0:0:
392,230,39222,1,0,1:0:0:0:
356,323,39575,1,0,3:0:0:0:
256,336,39928,2,0,P|158:200|17:290,1,350,0|0,3:0|1:0,0:0:0:0:
22,273,42752,6,0,L|37:164,1,99.9999999999999,4|2,3:2|1:0,0:0:0:0:
65,78,43457,2,0,P|114:35|205:40,2,150,2|2|2,3:1|1:0|1:1,0:0:0:0:
154,123,44869,2,0,L|167:222,1,99.9999999999999,0|4,3:0|1:2,0:0:0:0:
189,370,45752,6,0,P|154:274|18:286,1,250,0|0,3:0|1:0,0:0:0:0:
93,351,46987,2,0,L|295:307,1,200,0|0,1:0|3:0,0:0:0:0:
385,283,48046,1,2,3:1:0:0:
481,256,48399,6,0,P|450:206|394:185,1,99.9999999999999,4|0,3:2|3:0,0:0:0:0:
345,115,49104,2,0,P|317:166|327:225,1,99.9999999999999,0|0,1:0|3:0,0:0:0:0:
385,283,49810,1,0,1:0:0:0:
456,352,50163,2,0,L|357:385,1,99.9999999999999,0|0,1:0|1:0,0:0:0:0:
290,311,50869,1,4,1:2:0:0:
219,239,51222,6,0,L|120:272,1,99.9999999999999,0|0,3:0|1:0,0:0:0:0:
32,311,51928,2,0,P|28:236|84:174,2,150,0|0|0,1:0|3:0|0:0,0:0:0:0:
102,381,53340,5,0,0:0:0:0:
196,348,53693,1,0,0:0:0:0:
292,319,54046,6,0,P|337:261|334:199,1,99.9999999999999,0|4,1:0|0:0,0:0:0:0:
427,186,54752,2,0,P|369:140|307:143,1,99.9999999999999,0|4,1:0|0:0,0:0:0:0:
297,48,55457,2,0,P|251:105|254:167,1,99.9999999999999,0|4,1:0|0:0,0:0:0:0:
161,180,56163,2,0,P|195:215|243:228,1,99.9999999999999,0|4,1:0|0:0,0:0:0:0:
256,192,56869,12,4,58281,1:2:0:0:
127,156,59693,6,0,P|162:145|262:194,2,150,4|0|2,3:2|1:0|3:1,0:0:0:0:
74,241,61104,2,0,L|110:340,1,99.9999999999999,4|0,3:2|3:0,0:0:0:0:
208,339,61810,2,0,L|173:245,1,99.9999999999999,0|2,3:0|3:1,0:0:0:0:
127,156,62516,6,0,B|95:65|95:65|108:2|186:6,1,200,0|0,3:0|3:0,0:0:0:0:
261,46,63575,1,0,3:0:0:0:
348,94,63928,2,0,L|288:256,2,150,4|0|0,1:2|3:0|1:3,0:0:0:0:
402,9,65340,6,0,P|444:42|450:98,1,99.9999999999999,4|0,3:2|3:0,0:0:0:0:
427,182,66046,2,0,L|391:279,1,99.9999999999999,0|0,3:0|3:0,0:0:0:0:
310,333,66752,2,0,B|141:273|181:414|16:360,1,300,0|0,3:0|3:0,0:0:0:0:
83,281,68163,6,0,P|37:194|62:100,1,200,4|0,3:2|3:0,0:0:0:0:
133,29,69222,1,0,3:0:0:0:
219,79,69575,2,0,P|264:165|239:259,1,200,2|4,1:2|1:2,0:0:0:0:
318,321,70634,1,0,1:0:0:0:
396,383,70987,6,0,P|419:313|368:234,2,150,4|0|0,0:0|1:0|3:0,0:0:0:0:
318,321,72399,2,0,L|208:362,1,99.9999999999999,4|0,3:2|3:0,0:0:0:0:
142,298,73104,2,0,L|32:339,1,99.9999999999999,0|2,3:0|3:1,0:0:0:0:
13,238,73810,6,0,L|123:197,1,99.9999999999999,4|0,1:2|3:0,0:0:0:0:
201,169,74516,2,0,L|311:128,1,99.9999999999999,4|8,1:2|3:0,0:0:0:0:
390,105,75222,2,0,P|365:61|322:36,2,99.9999999999999,0|0|0,3:0|1:0|1:0,0:0:0:0:
369,203,76281,1,0,3:0:0:0:
346,300,76634,6,0,L|236:341,2,99.9999999999999,0|0|0,3:0|3:0|3:0,0:0:0:0:
442,272,77693,1,0,1:0:0:0:
369,203,78046,2,0,P|308:203|268:237,2,99.9999999999999,0|0|0,3:0|3:0|3:0,0:0:0:0:
442,272,79104,1,2,1:0:0:0:
465,174,79457,6,8,P|434:121|385:103,2,99.9999999999999,0|4|0,3:0|3:2|3:0,0:0:0:0:
369,203,80516,1,4,3:2:0:0:
299,131,80869,2,0,B|236:111|236:111|169:125|169:125|94:103,1,200,2|0,1:2|3:0,0:0:0:0:
21,53,81928,1,4,3:2:0:0:
17,153,82281,6,0,L|39:265,1,99.9999999999999,4|0,3:2|0:0,0:0:0:0:
56,349,82987,2,0,P|83:261|198:239,2,200,4|4|4,3:2|3:2|3:2,0:0:0:0:
154,328,84752,1,0,1:0:0:0:
251,306,85104,6,0,L|349:286,1,99.9999999999999,0|0,3:0|3:0,0:0:0:0:
447,266,85810,1,4,3:2:0:0:
381,190,86163,1,4,3:2:0:0:
282,208,86516,6,0,P|285:158|312:117,1,99.9999999999999,2|2,1:2|1:2,0:0:0:0:
409,93,87222,2,0,P|431:103|479:177,1,99.9999999999999,2|2,1:2|1:2,0:0:0:0:
381,190,87928,2,0,L|350:299,2,99.9999999999999,2|2|2,1:2|1:2|1:2,0:0:0:0:
409,93,88987,1,2,0:1:0:0:
