osu file format v14

[General]
AudioFilename: audio.mp3
AudioLeadIn: 0
PreviewTime: 35661
Countdown: 0
SampleSet: Soft
StackLeniency: 0.7
Mode: 0
LetterboxInBreaks: 0
WidescreenStoryboard: 0

[Editor]
DistanceSpacing: 0.1
BeatDivisor: 4
GridSize: 8
TimelineZoom: 2

[Metadata]
Title:Nimensei*Uraomote Life!
TitleUnicode:にめんせい☆ウラオモテライフ!
Artist:Doma Umaru (CV.Tanaka Aimi)
ArtistUnicode:土間うまる (CV.田中あいみ)
Creator:handsome
Version:Delis' Insane
Source:干物妹!うまるちゃんR
Tags:himouto umaru chan r anime tv size short edit version delis dailycare haruto professionalbox probox haruto_aizawa my two faced little sister
BeatmapID:1436234
BeatmapSetID:679303

[Difficulty]
HPDrainRate:6
CircleSize:4
OverallDifficulty:8
ApproachRate:8
SliderMultiplier:1.8
SliderTickRate:1

[Events]
//Background and Video events
0,0,"umaru.jpg",0,0
Video,350,"opening.avi"
//Break Periods
//Storyboard Layer 0 (Background)
//Storyboard Layer 1 (Fail)
//Storyboard Layer 2 (Pass)
//Storyboard Layer 3 (Foreground)
//Storyboard Sound Samples

[TimingPoints]
852,352.941176470588,4,2,0,30,1,0
1204,-100,4,2,0,40,0,0
1469,-100,4,2,0,45,0,0
1646,-100,4,2,0,50,0,0
1822,-100,4,2,0,55,0,0
1910,-100,4,2,1,60,0,0
2263,-100,4,2,1,50,0,0
3146,-100,4,2,1,70,0,0
3675,-100,4,2,1,50,0,0
4557,-100,4,2,1,70,0,0
5087,-100,4,2,1,50,0,0
5793,-100,4,2,1,60,0,0
7910,-100,4,2,1,50,0,0
13557,-100,4,2,1,55,0,0
13910,-100,4,2,1,60,0,0
14263,-100,4,2,1,65,0,0
14969,-100,4,2,1,70,0,0
20616,-100,4,2,1,60,0,0
23440,-100,4,2,1,70,0,0
27161,266.666666666667,4,2,2,70,1,0
27338,-133.333333333333,4,2,2,70,0,0
35694,266.666666666667,4,2,3,70,1,0
35694,-200,4,2,3,70,0,0
36427,-153.846153846154,4,2,3,70,0,0
36760,-166.666666666667,4,2,1,70,0,0
37105,352.941176470588,4,2,1,50,1,0
41163,-100,4,2,1,40,0,0
42399,-100,4,2,1,50,0,0
48399,-100,4,2,1,60,0,0
54399,-100,4,2,1,80,0,0
54752,-100,4,2,1,60,0,0
55104,-100,4,2,1,80,0,0
55457,-100,4,2,1,60,0,0
55809,-100,4,2,1,80,0,0
56163,-100,4,2,1,60,0,0
56515,-100,4,2,1,80,0,0
56869,-100,4,2,1,50,0,0
57222,-100,4,2,1,60,0,0
57575,-100,4,2,1,70,0,0
57928,-100,4,2,1,80,0,0
58281,-100,4,2,1,70,0,0
59340,-66.6666666666667,4,2,1,70,0,0
59693,-83.3333333333333,4,2,1,80,0,1
60575,-83.3333333333333,4,2,1,100,0,1
60928,-83.3333333333333,4,2,1,80,0,1
61986,-83.3333333333333,4,2,1,100,0,1
62340,-83.3333333333333,4,2,1,80,0,1
69575,-83.3333333333333,4,2,1,80,0,0
70987,-83.3333333333333,4,2,1,80,0,1
71869,-83.3333333333333,4,2,1,100,0,1
72222,-83.3333333333333,4,2,1,80,0,1
73280,-83.3333333333333,4,2,1,100,0,1
73634,-83.3333333333333,4,2,1,80,0,1
73810,-100,4,2,1,70,0,1
75222,-100,4,2,1,80,0,1
76634,-100,4,2,1,70,0,1
80869,-83.3333333333333,4,2,1,70,0,1
82104,-100,4,2,1,70,0,0
82281,-100,4,2,1,60,0,0
87928,-100,4,2,1,70,0,0
88810,-100,4,2,1,50,0,0
89163,-100,4,2,1,20,0,0

[Colours]
Combo1 : 255,180,21
Combo2 : 255,219,108

[HitObjects]
256,128,852,5,0,3:0:0:0:
328,192,1028,1,0,3:0:0:0:
256,256,1204,1,2,3:0:0:0:
184,192,1381,1,0,3:0:0:0:
160,200,1469,1,2,3:3:0:0:
136,200,1557,1,0,3:0:0:0:
112,192,1646,1,2,3:3:0:0:
88,192,1734,1,0,3:0:0:0:
144,280,1910,5,4,1:0:0:0:
128,112,2087,1,0,0:0:0:0:
144,280,2263,2,0,B|181:312|242:299|256:256,2,135,4|0|0,3:2|0:0|0:0,0:0:0:0:
88,192,2969,1,0,0:0:0:0:
56,280,3146,1,2,0:1:0:0:
180,204,3322,5,2,0:1:0:0:
180,204,3675,2,0,B|212:160|272:156|312:192,2,135,4|0|0,3:2|0:0|0:0,0:0:0:0:
120,148,4381,1,0,0:0:0:0:
104,268,4557,1,2,0:1:0:0:
216,236,4734,1,2,0:1:0:0:
464,200,5087,6,0,B|444:312,1,90,4|0,3:2|0:0,0:0:0:0:
444,312,5351,1,0,0:0:0:0:
444,312,5440,1,0,0:0:0:0:
368,220,5616,1,0,0:0:0:0:
368,220,5793,2,0,B|380:132|392:80,1,135,2|2,0:0|0:0,0:0:0:0:
390,86,6146,1,0,0:0:0:0:
304,108,6322,1,2,0:0:0:0:
220,136,6499,2,0,B|236:88|216:28,1,90,4|0,3:2|0:0,0:0:0:0:
200,28,6763,1,0,0:0:0:0:
200,28,6851,1,0,0:0:0:0:
112,96,7028,6,0,B|80:56,2,45,0|0|8,3:0|3:0|3:0,0:0:0:0:
192,224,7469,1,4,3:0:0:0:
64,304,7734,1,0,3:0:0:0:
24,224,7910,6,0,B|80:172|164:188,1,135,4|0,3:2|0:0,0:0:0:0:
148,184,8263,1,0,0:0:0:0:
288,276,8440,5,0,3:0:0:0:
288,276,8528,1,0,3:0:0:0:
288,276,8616,2,0,B|232:328|148:312,1,135,4|0,3:2|0:0,0:0:0:0:
163,314,8969,1,0,0:0:0:0:
312,152,9146,5,0,3:0:0:0:
312,152,9234,1,0,3:0:0:0:
312,152,9322,2,0,B|384:120|452:136,2,135,4|0|0,3:2|0:0|3:0,0:0:0:0:
292,144,9940,1,0,3:0:0:0:
272,132,10028,2,0,B|220:136|176:136,1,90,4|0,3:2|0:0,0:0:0:0:
248,264,10381,2,0,B|300:260|344:260,1,90,0|0,1:0|0:0,0:0:0:0:
188,340,10734,5,0,3:0:0:0:
100,272,10910,1,0,1:0:0:0:
192,208,11087,1,0,3:0:0:0:
188,184,11175,1,0,3:0:0:0:
184,160,11263,1,0,3:0:0:0:
180,136,11351,1,0,3:0:0:0:
176,112,11440,1,4,3:2:0:0:
352,160,11793,1,4,3:2:0:0:
240,300,12146,5,2,1:2:0:0:
288,200,12322,1,2,1:2:0:0:
392,232,12499,1,2,1:2:0:0:
324,280,12851,5,2,1:2:0:0:
212,224,13028,1,2,1:2:0:0:
264,116,13204,1,2,1:2:0:0:
288,200,13557,5,2,1:2:0:0:
168,132,13734,1,2,1:2:0:0:
296,48,13910,1,2,1:2:0:0:
348,136,14087,1,2,1:2:0:0:
296,48,14263,1,6,1:2:0:0:
440,112,14440,5,0,3:0:0:0:
440,136,14528,1,0,3:0:0:0:
436,156,14616,1,0,3:0:0:0:
428,176,14704,1,0,3:0:0:0:
416,196,14793,1,0,3:0:0:0:
400,208,14881,1,0,3:0:0:0:
380,220,14969,1,4,3:2:0:0:
320,288,15146,5,2,1:2:0:0:
320,288,15234,1,0,0:0:0:0:
320,288,15322,2,0,B|256:264|216:264,1,90,2|0,3:1|0:0,0:0:0:0:
112,192,15675,1,2,3:2:0:0:
176,128,15851,1,2,1:2:0:0:
176,128,15940,1,0,0:0:0:0:
176,128,16028,2,0,B|216:144|280:152,1,90,2|2,3:1|1:0,0:0:0:0:
312,232,16381,5,2,3:2:0:0:
312,232,16469,1,6,0:2:0:0:
192,264,16646,1,0,0:0:0:0:
192,264,16734,1,2,3:2:0:0:
272,320,16910,1,2,1:2:0:0:
304,144,17087,5,2,3:2:0:0:
176,192,17263,1,0,1:0:0:0:
232,320,17440,1,2,3:1:0:0:
360,264,17616,1,0,1:0:0:0:
344,176,17793,5,6,3:2:0:0:
268,228,17969,1,2,1:2:0:0:
268,228,18057,1,0,0:0:0:0:
268,228,18146,2,0,B|268:296|272:336,1,90,2|0,3:1|0:0,0:0:0:0:
424,344,18499,1,2,3:2:0:0:
484,276,18675,1,2,1:2:0:0:
484,276,18763,1,0,0:0:0:0:
484,276,18851,2,0,B|484:208|480:168,1,90,2|2,3:1|1:0,0:0:0:0:
436,56,19204,5,0,3:0:0:0:
416,64,19293,1,0,0:0:0:0:
392,68,19381,1,2,1:0:0:0:
368,72,19469,1,0,0:0:0:0:
344,72,19557,1,2,3:1:0:0:
248,40,19734,1,0,1:0:0:0:
148,88,19910,5,2,3:1:0:0:
168,100,19999,1,0,0:0:0:0:
184,116,20087,1,0,3:0:0:0:
196,136,20175,1,0,3:0:0:0:
204,156,20263,1,0,3:0:0:0:
208,180,20351,1,0,3:0:0:0:
204,204,20440,1,0,3:0:0:0:
196,224,20528,1,0,3:0:0:0:
184,244,20616,2,0,B|136:256|92:272,1,90,6|2,3:2|1:0,0:0:0:0:
68,256,20881,5,0,0:0:0:0:
68,256,20969,1,2,3:1:0:0:
140,352,21146,1,0,1:0:0:0:
240,240,21322,1,2,3:2:0:0:
312,296,21499,1,2,1:2:0:0:
312,296,21587,1,0,0:0:0:0:
312,296,21675,2,0,B|400:300|432:296,1,90,2|2,3:1|1:0,0:0:0:0:
472,236,22028,5,2,3:2:0:0:
472,236,22116,1,6,0:0:0:0:
424,140,22293,1,0,0:0:0:0:
424,140,22381,1,2,3:2:0:0:
488,88,22557,1,2,1:2:0:0:
364,72,22734,1,2,3:2:0:0:
352,220,22910,1,0,1:0:0:0:
288,136,23087,2,0,B|184:156,1,90,2|2,3:1|3:2,0:0:0:0:
164,164,23351,5,2,3:2:0:0:
164,164,23440,2,0,B|112:168|80:112|124:60,2,135,2|2|2,1:2|1:2|1:2,0:0:0:0:
288,136,24146,2,0,B|340:132|372:188|328:240,2,135,2|2|2,1:2|1:2|1:2,0:0:0:0:
236,64,24851,5,2,1:0:0:0:
208,280,25116,1,2,1:2:0:0:
416,196,25381,1,2,1:0:0:0:
256,192,25557,12,4,27161,3:1:0:0:
328,260,27338,5,0,0:0:0:0:
328,260,27427,2,0,B|272:212|200:232,2,134.999995976687,2|2|2,0:0|0:0|0:0,0:0:0:0:
464,344,28227,2,0,B|440:240,1,90.0000034332277,2|2,0:0|0:0,0:0:0:0:
400,224,28494,2,0,B|488:240|520:168,1,135.000005149842,2|2,0:0|0:0,0:0:0:0:
400,80,29027,1,2,0:0:0:0:
224,56,29294,6,0,B|168:112|208:192,1,134.999995976687,2|2,0:1|0:0,0:0:0:0:
344,248,29827,2,0,B|384:320|320:384,1,134.999995976687,2|2,0:0|0:0,0:0:0:0:
112,336,30361,2,0,B|96:240,1,90.0000034332277,2|0,0:0|0:0,0:0:0:0:
97,247,30627,2,0,B|192:256,1,90.0000034332277,2|2,0:0|0:0,0:0:0:0:
224,288,30894,2,0,B|176:232|208:152,1,135.000005149842,2|2,0:1|0:1,0:0:0:0:
256,88,31338,1,4,1:0:0:0:
256,88,31427,1,0,0:0:0:0:
448,208,31694,6,0,B|424:356,2,134.999995976687,2|2|2,0:0|0:0|0:0,0:0:0:0:
460,112,32494,2,0,B|408:120|376:72,1,90.0000034332277,2|0,0:0|0:0,0:0:0:0:
360,56,32761,2,0,B|280:32|232:88,1,135.000005149842,2|2,0:0|0:0,0:0:0:0:
128,208,33294,1,2,0:0:0:0:
192,268,33472,5,0,0:0:0:0:
192,268,33561,2,0,B|216:304|288:304|312:268,1,135.000005149842,2|2,3:2|0:0,0:0:0:0:
376,176,34005,1,0,0:0:0:0:
376,176,34094,2,0,B|360:76,1,89.9999973177911,2|0,1:2|3:0,0:0:0:0:
256,208,34538,1,4,1:0:0:0:
208,176,35694,6,0,B|256:200|296:176,1,90,2|0,0:1|0:0,0:0:0:0:
184,248,36427,2,0,B|256:288|328:248,1,146.249993305207,2|12,0:1|0:1,0:0:0:0:
321,251,37105,6,0,B|323:327|323:347,1,90,4|0,3:2|0:0,0:0:0:0:
419,283,37458,1,0,1:0:0:0:
324,254,37634,1,0,3:0:0:0:
324,254,37722,1,0,1:0:0:0:
327,257,37811,1,0,3:0:0:0:
411,175,37987,1,0,3:0:0:0:
315,143,38164,1,0,1:0:0:0:
339,35,38340,5,0,3:0:0:0:
339,35,38693,2,0,B|299:63|247:55,1,90,0|0,3:0|1:0,0:0:0:0:
164,32,39046,1,0,3:0:0:0:
164,32,39134,1,0,1:0:0:0:
164,32,39223,1,0,3:0:0:0:
80,64,39399,1,0,0:0:0:0:
64,152,39576,1,0,1:0:0:0:
140,200,39752,1,0,0:0:0:0:
220,160,39928,2,0,B|288:240|240:340,1,180,0|0,3:0|0:0,0:0:0:0:
340,284,40458,5,0,3:0:0:0:
340,284,40546,1,0,3:0:0:0:
340,284,40634,2,0,B|388:280|428:316,1,90,0|0,1:0|0:0,0:0:0:0:
408,200,40987,1,0,1:0:0:0:
408,200,41164,1,4,3:2:0:0:
452,96,41340,6,0,B|272:144,1,180,0|0,3:2|1:2,0:0:0:0:
278,142,41870,1,0,0:2:0:0:
192,180,42046,1,0,3:0:0:0:
192,180,42134,1,2,0:3:0:0:
192,180,42223,1,0,0:0:0:0:
192,180,42311,1,0,0:0:0:0:
192,180,42399,2,0,B|136:188|92:160,1,90,4|0,1:2|1:0,0:0:0:0:
168,56,42752,6,0,B|224:4|308:40|304:120,1,180,4|2,3:2|1:0,0:0:0:0:
268,216,43281,1,0,0:0:0:0:
268,216,43370,1,0,1:0:0:0:
268,216,43457,1,2,3:1:0:0:
348,124,43634,1,0,0:0:0:0:
224,112,43811,1,2,3:1:0:0:
201,253,43987,6,0,B|211:319|314:329|340:262,1,180,2|2,1:0|3:1,0:0:0:0:
400,192,44517,1,2,1:1:0:0:
472,248,44693,1,2,1:1:0:0:
472,248,44781,1,0,1:0:0:0:
472,248,44870,2,0,B|468:296|472:344,1,90,0|0,3:0|3:0,0:0:0:0:
338,266,45223,2,0,B|342:218|338:170,1,90,4|0,1:2|0:0,0:0:0:0:
338,176,45752,5,0,3:0:0:0:
338,266,45928,1,0,1:0:0:0:
414,222,46105,1,0,3:0:0:0:
258,226,46281,1,0,1:0:0:0:
262,326,46458,1,0,3:0:0:0:
338,266,46634,1,0,1:0:0:0:
174,350,46811,5,0,3:0:0:0:
174,350,46899,1,0,3:0:0:0:
174,350,46987,1,0,1:0:0:0:
146,150,47252,1,0,1:0:0:0:
90,326,47517,1,0,3:0:0:0:
224,264,47693,5,0,3:0:0:0:
224,264,47870,2,0,B|280:256,1,45,0|0,0:0|1:0,0:0:0:0:
368,200,48046,2,2,B|300:208,1,45,2|0,3:1|0:0,0:0:0:0:
216,160,48223,2,0,B|282:152,1,45
340,104,48399,6,0,B|412:128|468:76,1,135,4|0,3:2|0:0,0:0:0:0:
465,78,48752,1,0,3:0:0:0:
436,232,48928,1,0,0:0:0:0:
372,284,49105,2,0,B|260:296,1,90,0|0,1:0|3:0,0:0:0:0:
200,340,49458,1,0,3:0:0:0:
152,260,49634,2,0,B|112:292|60:284,1,90,2|0,3:2|1:0,0:0:0:0:
92,128,49987,2,0,B|132:96|184:104,1,90,2|0,3:2|1:0,0:0:0:0:
304,224,50340,5,2,3:2:0:0:
304,224,50428,1,0,0:0:0:0:
304,224,50517,1,0,1:0:0:0:
204,152,50693,1,4,3:2:0:0:
216,240,50870,1,4,1:2:0:0:
288,136,51046,1,0,0:0:0:0:
152,176,51223,6,0,B|144:228|144:288,1,90,0|0,3:0|0:0,0:0:0:0:
360,208,51575,2,0,B|368:156|368:100,1,90,0|0,1:0|3:0,0:0:0:0:
248,268,51928,5,0,1:0:0:0:
256,148,52105,1,0,3:0:0:0:
360,208,52281,1,0,1:0:0:0:
152,176,52458,1,0,3:0:0:0:
156,252,52811,5,0,3:0:0:0:
160,328,53164,5,0,3:0:0:0:
104,256,53340,6,0,B|24:248|-20:252,1,90,0|0,3:0|0:0,0:0:0:0:
180,112,53693,2,0,B|260:120|304:116,1,90,4|0,1:2|0:0,0:0:0:0:
360,32,54046,5,0,3:0:0:0:
424,116,54223,1,0,3:0:0:0:
424,116,54311,1,0,3:0:0:0:
424,116,54399,1,4,1:2:0:0:
336,176,54575,1,0,3:0:0:0:
424,116,54752,2,0,B|476:120|516:120,1,90,0|0,3:0|3:0,0:0:0:0:
376,224,55105,2,0,B|324:220|284:220,1,90,4|0,1:2|3:0,0:0:0:0:
240,320,55458,5,0,3:0:0:0:
240,320,55546,2,0,B|288:328|340:324,1,90,0|0,0:0|3:0,0:0:0:0:
344,324,55811,1,4,1:2:0:0:
376,224,55987,1,0,3:0:0:0:
286,220,56164,1,0,3:0:0:0:
352,124,56340,1,0,3:0:0:0:
352,124,56428,1,0,3:0:0:0:
352,124,56517,2,0,B|416:124|468:120,1,90,4|0,1:2|0:0,0:0:0:0:
260,132,56870,5,0,3:0:0:0:
260,132,57223,1,0,3:0:0:0:
136,96,57399,1,0,3:0:0:0:
232,216,57575,1,0,3:0:0:0:
144,296,57752,1,0,3:0:0:0:
124,176,57928,1,0,3:0:0:0:
232,216,58105,1,0,3:0:0:0:
260,132,58281,6,0,B|276:84|248:24,1,90,4|0,1:2|0:0,0:0:0:0:
248,28,58546,2,0,B|292:52|340:44,1,90,2|0,1:2|0:0,0:0:0:0:
364,32,58811,2,0,B|352:84,1,45,2|0,1:2|0:0,0:0:0:0:
328,184,58987,5,2,1:1:0:0:
328,184,59340,2,0,B|344:320,1,134.999995976687,4|0,1:2|0:0,0:0:0:0:
256,272,59693,6,0,B|208:232|148:248,1,108.000002574921,4|0,3:2|1:0,0:0:0:0:
144,248,59958,1,0,0:0:0:0:
132,252,60046,2,0,B|104:132,1,108.000002574921,0|0,3:0|1:0,0:0:0:0:
280,96,60399,2,0,B|304:160|256:208,1,107.999996704102,0|2,3:0|1:0,0:0:0:0:
184,128,60752,2,0,B|160:64|208:16,1,107.999996704102,2|0,3:1|3:0,0:0:0:0:
356,52,61105,6,0,B|420:44|464:40,1,108.000002574921,4|0,3:2|1:0,0:0:0:0:
463,40,61370,1,0,0:0:0:0:
463,40,61458,1,0,3:0:0:0:
424,132,61634,1,0,1:0:0:0:
312,128,61811,2,0,B|284:180|304:240,1,108.000002574921,0|2,3:0|1:0,0:0:0:0:
200,256,62164,2,0,B|228:204|208:144,1,108.000002574921,2|0,3:1|1:0,0:0:0:0:
120,196,62517,5,0,3:0:0:0:
120,196,62693,2,0,B|-4:180,1,108.000002574921,0|0,1:0|3:0,0:0:0:0:
112,296,63046,1,0,1:0:0:0:
184,344,63223,2,8,B|292:356,1,108.000002574921,0|0,3:0|1:0,0:0:0:0:
316,348,63487,1,0,0:0:0:0:
316,348,63575,2,0,B|376:344|424:360,1,108.000002574921,0|0,3:0|1:0,0:0:0:0:
384,252,63928,5,4,1:2:0:0:
256,272,64105,1,0,0:0:0:0:
256,272,64193,1,4,1:2:0:0:
176,168,64370,1,0,0:0:0:0:
176,168,64458,1,0,3:0:0:0:
264,72,64634,2,0,B|380:20,1,108.000002574921,4|0,3:2|0:0,0:0:0:0:
362,27,64899,1,0,3:3:0:0:
362,27,64987,1,0,1:3:0:0:
152,44,65164,5,0,1:3:0:0:
152,44,65252,1,0,3:3:0:0:
152,44,65340,2,0,B|108:88|120:160,1,108.000002574921,4|0,3:2|1:0,0:0:0:0:
272,272,65693,2,0,B|316:228|304:156,1,108.000002574921,0|0,3:0|1:0,0:0:0:0:
88,268,66046,2,0,B|88:304|128:328|168:320,1,107.999996704102,0|0,3:0|1:0,0:0:0:0:
167,320,66310,2,0,B|341:366,1,161.999995056153,4|0,3:2|1:0,0:0:0:0:
400,320,66752,5,2,3:1:0:0:
488,248,66928,1,0,1:0:0:0:
488,248,67017,1,4,3:2:0:0:
380,200,67193,1,0,3:0:0:0:
380,200,67281,1,0,1:0:0:0:
468,112,67458,6,0,B|404:88|336:96,1,108.000002574921,2|0,3:1|1:0,0:0:0:0:
332,100,67723,1,0,3:0:0:0:
300,108,67811,1,0,3:0:0:0:
268,104,67899,1,0,3:0:0:0:
240,92,67987,1,0,1:0:0:0:
208,88,68075,1,0,3:0:0:0:
176,84,68164,2,0,B|124:128|48:104,1,108.000002574921,4|0,3:2|1:0,0:0:0:0:
48,92,68428,1,0,0:0:0:0:
48,92,68517,2,0,B|69:205,1,108.000002574921,0|0,0:0|1:0,0:0:0:0:
48,312,68870,5,0,3:0:0:0:
140,252,69046,1,0,1:0:0:0:
152,256,69134,1,0,3:0:0:0:
164,260,69223,1,0,3:0:0:0:
176,264,69311,1,0,3:0:0:0:
188,268,69399,1,0,1:0:0:0:
200,272,69487,1,0,0:0:0:0:
212,276,69575,1,2,1:2:0:0:
376,220,69840,1,2,1:2:0:0:
232,104,70105,1,2,1:2:0:0:
324,136,70281,5,4,1:2:0:0:
252,212,70458,1,0,0:0:0:0:
252,212,70546,1,0,3:0:0:0:
252,212,70634,1,0,1:0:0:0:
328,292,70811,1,0,0:0:0:0:
156,344,70987,6,0,B|120:296|136:240|152:232,1,108.000002574921,4|0,3:2|1:0,0:0:0:0:
142,242,71252,1,0,0:0:0:0:
142,242,71340,2,0,B|156:176|112:128,1,108.000002574921,0|0,3:0|1:0,0:0:0:0:
56,72,71693,1,0,3:0:0:0:
160,36,71870,2,0,B|224:60,1,54.0000012874604,2|0,1:0|0:0,0:0:0:0:
268,112,72046,2,0,B|336:80,1,54.0000012874604,2|0,3:1|0:0,0:0:0:0:
388,48,72223,1,0,1:0:0:0:
468,128,72399,6,0,B|408:152|400:224,1,108.000002574921,4|0,3:2|1:0,0:0:0:0:
402,207,72664,1,0,0:0:0:0:
402,207,72752,2,0,B|420:324,1,108.000002574921,0|0,3:0|1:0,0:0:0:0:
312,280,73105,1,0,3:0:0:0:
224,336,73281,2,0,B|160:316,1,54.0000012874604,2|0,1:0|0:0,0:0:0:0:
228,256,73458,2,0,B|216:188,1,54.0000012874604,2|0,3:1|0:0,0:0:0:0:
304,196,73634,1,0,1:0:0:0:
360,120,73811,6,2,B|408:84|472:104,1,90,4|0,1:2|0:0,0:0:0:0:
444,97,74164,1,0,3:0:0:0:
208,64,74517,6,2,B|152:16|64:40,1,135,4|0,1:2|0:0,0:0:0:0:
80,35,74870,1,8,3:0:0:0:
256,248,75223,5,0,3:0:0:0:
340,200,75399,1,0,3:3:0:0:
248,116,75575,1,0,1:0:0:0:
208,216,75752,1,0,0:0:0:0:
208,64,75928,5,0,1:0:0:0:
288,192,76105,1,0,3:0:0:0:
288,192,76193,1,0,3:0:0:0:
288,192,76281,2,0,B|336:192|396:184,1,90,0|0,3:0|3:0,0:0:0:0:
464,132,76634,5,4,3:2:0:0:
440,272,76811,1,0,3:0:0:0:
360,320,76987,1,2,3:1:0:0:
360,320,77075,2,0,B|320:292|260:304,1,90,0|0,3:0|3:0,0:0:0:0:
274,301,77340,2,0,B|176:332,1,90,0|0,3:0|1:0,0:0:0:0:
204,184,77693,2,0,B|96:196,1,90,0|0,1:0|1:0,0:0:0:0:
256,60,78046,5,4,3:2:0:0:
168,48,78222,1,0,3:0:0:0:
288,144,78399,1,2,3:1:0:0:
288,144,78487,2,0,B|296:240,1,90,0|0,3:0|3:0,0:0:0:0:
272,264,78752,1,0,3:0:0:0:
376,204,78928,1,2,1:0:0:0:
368,320,79105,1,2,1:0:0:0:
272,264,79281,1,0,0:0:0:0:
436,288,79458,5,0,3:0:0:0:
480,208,79634,1,0,3:0:0:0:
480,208,79723,1,0,3:0:0:0:
480,208,79811,2,0,B|476:160|476:100,1,90,4|0,3:2|0:0,0:0:0:0:
336,76,80164,1,0,3:0:0:0:
336,76,80252,1,0,3:0:0:0:
336,76,80340,1,0,3:0:0:0:
336,76,80428,1,0,3:0:0:0:
336,76,80517,2,0,B|340:152|336:180,1,90,4|0,3:2|3:0,0:0:0:0:
252,248,80870,6,0,B|280:192|236:136,1,108.000002574921,2|0,1:2|0:0,0:0:0:0:
152,156,81134,2,0,B|124:212|168:268,1,108.000002574921,2|0,1:2|0:0,0:0:0:0:
208,320,81399,1,2,1:2:0:0:
316,304,81575,1,0,3:0:0:0:
348,296,81664,1,0,3:0:0:0:
380,292,81752,1,0,3:0:0:0:
412,292,81840,1,0,3:0:0:0:
444,296,81928,1,4,3:2:0:0:
444,296,82281,2,0,B|376:292|344:216|396:160,1,180,4|0,3:2|0:0,0:0:0:0:
432,80,82811,5,0,3:0:0:0:
432,80,82899,1,0,3:0:0:0:
432,80,82987,2,0,B|424:152|352:180|296:128,1,180,4|0,3:2|0:0,0:0:0:0:
256,40,83517,5,0,3:0:0:0:
256,40,83605,1,0,3:0:0:0:
256,40,83693,2,0,B|236:240,1,180,4|0,3:2|0:0,0:0:0:0:
324,268,84223,5,0,3:0:0:0:
324,268,84311,1,0,3:0:0:0:
324,268,84399,2,0,B|324:216|332:160,1,90,4|0,3:2|0:0,0:0:0:0:
160,164,84752,2,0,B|160:216|152:272,1,90,0|0,1:0|0:0,0:0:0:0:
208,336,85105,5,0,3:0:0:0:
324,268,85281,1,0,1:0:0:0:
212,216,85458,1,0,3:0:0:0:
184,192,85546,1,0,3:0:0:0:
180,156,85634,1,0,3:0:0:0:
196,124,85723,1,0,3:0:0:0:
228,108,85811,2,0,B|180:116|132:116,1,90,4|0,3:2|0:0,0:0:0:0:
284,276,86164,2,0,B|332:268|380:268,1,90,4|0,3:2|0:0,0:0:0:0:
316,184,86517,5,2,1:2:0:0:
332,348,86693,1,2,1:2:0:0:
176,296,86870,1,2,1:2:0:0:
292,108,87223,5,2,1:2:0:0:
392,216,87399,1,2,1:2:0:0:
256,240,87575,1,2,1:2:0:0:
252,40,87928,5,2,1:2:0:0:
292,108,88105,1,2,1:2:0:0:
220,148,88281,1,2,1:2:0:0:
180,80,88458,1,2,1:2:0:0:
232,96,88634,1,2,1:2:0:0:
168,212,88811,5,2,0:1:0:0:
168,212,88899,1,0,0:0:0:0:
168,212,88987,2,0,B|208:248|192:312,1,90,2|0,0:1|0:0,0:0:0:0:
