osu file format v14

[General]
AudioFilename: audio.mp3
AudioLeadIn: 0
PreviewTime: 35661
Countdown: 0
SampleSet: Soft
StackLeniency: 0.5
Mode: 0
LetterboxInBreaks: 0
WidescreenStoryboard: 0

[Editor]
DistanceSpacing: 1
BeatDivisor: 4
GridSize: 4
TimelineZoom: 1.7

[Metadata]
Title:Nimensei*Uraomote Life!
TitleUnicode:にめんせい☆ウラオモテライフ!
Artist:Doma Umaru (CV.Tanaka Aimi)
ArtistUnicode:土間うまる (CV.田中あいみ)
Creator:handsome
Version:Dailycare's Hard
Source:干物妹!うまるちゃんR
Tags:himouto umaru chan r anime tv size short edit version delis dailycare haruto professionalbox probox haruto_aizawa my two faced little sister
BeatmapID:1436749
BeatmapSetID:679303

[Difficulty]
HPDrainRate:6
CircleSize:3.8
OverallDifficulty:6
ApproachRate:7.2
SliderMultiplier:1.56
SliderTickRate:1

[Events]
//Background and Video events
0,0,"umaru.jpg",0,0
Video,350,"opening.avi"
//Break Periods
//Storyboard Layer 0 (Background)
//Storyboard Layer 1 (Fail)
//Storyboard Layer 2 (Pass)
//Storyboard Layer 3 (Foreground)
//Storyboard Sound Samples

[TimingPoints]
852,352.941176470588,4,2,0,30,1,0
2263,-125,4,2,1,60,0,0
10734,-106.382978723404,4,2,1,60,0,0
14969,-106.382978723404,4,2,1,70,0,0
27161,266.666666666667,4,2,2,70,1,0
27338,-166.666666666667,4,2,2,70,0,0
35694,266.666666666667,4,2,3,70,1,0
37105,352.941176470588,4,2,1,60,1,0
37105,-106.382978723404,4,2,1,60,0,0
48046,-106.382978723404,4,2,1,70,0,0
48399,-100,4,2,1,70,0,0
59693,-100,4,2,1,80,0,1
69575,-100,4,2,1,80,0,0
70987,-100,4,2,1,80,0,1
82281,-125,4,2,1,60,0,0
85104,-100,4,2,1,60,0,0

[Colours]
Combo1 : 255,180,21
Combo2 : 255,219,108

[HitObjects]
157,201,852,5,0,3:0:0:0:
241,233,1028,1,0,3:0:0:0:
307,171,1204,1,2,3:0:0:0:
225,146,1381,1,0,3:0:0:0:
225,146,1469,1,2,3:3:0:0:
225,146,1557,2,0,P|220:100|216:50,2,78,0|0|4,3:0|3:0|1:0,0:0:0:0:
225,146,2264,6,0,P|295:125|407:196,1,187.2,4|0,3:2|0:0,0:0:0:0:
467,223,2970,1,0,0:0:0:0:
467,223,3146,2,0,P|475:189|477:142,1,62.4,2|2,0:1|0:1,0:0:0:0:
477,161,3676,6,0,P|407:140|295:211,1,187.2,4|0,3:2|0:0,0:0:0:0:
235,238,4381,1,0,0:0:0:0:
235,238,4558,2,0,P|227:204|225:157,1,62.4,2|2,0:1|0:1,0:0:0:0:
299,8,5087,6,0,P|300:59|291:87,1,62.4,4|0,3:2|0:0,0:0:0:0:
218,97,5440,2,0,P|217:46|226:18,1,62.4,0|0,0:0|0:0,0:0:0:0:
141,13,5793,2,0,P|103:16|35:38,2,93.6,2|2|2,0:0|0:0|0:0,0:0:0:0:
11,107,6499,5,4,3:2:0:0:
11,107,7205,2,0,B|26:139|26:139|15:210,2,93.6,8|4|0,3:0|3:0|3:0,0:0:0:0:
102,165,7911,6,0,P|139:169|234:65,1,187.2,4|0,3:2|3:0,0:0:0:0:
301,21,8617,2,0,P|279:51|321:185,1,187.2,4|0,3:2|3:0,0:0:0:0:
326,265,9323,2,0,P|310:230|173:200,1,187.2,4|0,3:2|3:0,0:0:0:0:
118,261,10029,2,0,P|118:309|124:386,1,124.8,4|0,3:2|1:0,0:0:0:0:
123,384,10734,6,0,L|220:362,1,73.3199988812256,0|0,3:0|1:0,0:0:0:0:
220,285,11087,2,0,L|270:302,3,36.6599994406128,0|0|0|0,3:0|3:0|3:0|3:0,0:0:0:0:
280,315,11440,2,0,P|309:263|298:166,1,146.639997762451,4|4,3:2|3:2,0:0:0:0:
165,66,12146,5,2,1:2:0:0:
88,101,12323,1,2,1:2:0:0:
156,149,12499,1,2,1:2:0:0:
347,66,12852,5,2,1:2:0:0:
424,101,13029,1,2,1:2:0:0:
356,149,13205,1,2,1:2:0:0:
128,289,13558,5,6,1:2:0:0:
181,226,13735,1,2,1:2:0:0:
256,192,13911,1,2,1:2:0:0:
331,226,14088,1,2,1:2:0:0:
384,289,14263,2,0,P|413:320|508:308,1,146.639997762451,2|0,1:2|0:0,0:0:0:0:
508,307,14970,6,0,L|490:215,1,73.3199988812256,4|2,3:2|1:2,0:0:0:0:
510,154,15323,2,0,P|522:113|468:19,1,146.639997762451,2|2,3:1|3:2,0:0:0:0:
416,79,15852,1,2,1:2:0:0:
332,65,16029,2,0,P|296:66|241:93,1,73.3199988812256,2|2,3:1|1:0,0:0:0:0:
206,141,16381,6,0,P|158:147|95:102,1,109.979998321838,2|0,3:2|0:0,0:0:0:0:
94,103,16734,2,0,L|81:183,1,73.3199988812256,2|2,3:2|1:2,0:0:0:0:
15,292,17087,2,0,L|1:194,1,73.3199988812256,2|0,3:2|1:0,0:0:0:0:
103,312,17440,1,2,3:1:0:0:
103,312,17793,6,0,P|140:313|185:327,1,73.3199988812256,6|2,3:2|1:2,0:0:0:0:
242,372,18146,2,0,P|220:318|269:227,1,146.639997762451,2|2,3:1|3:2,0:0:0:0:
299,165,18676,1,2,1:2:0:0:
222,122,18852,2,0,L|205:32,1,73.3199988812256,2|2,3:1|1:0,0:0:0:0:
284,8,19205,6,0,P|323:9|412:32,1,109.979998321838,0|0,3:0|0:0,0:0:0:0:
406,36,19558,2,0,L|490:21,1,73.3199988812256,2|0,3:1|1:0,0:0:0:0:
502,107,19911,2,0,L|418:122,1,73.3199988812256,2|0,3:1|3:0,0:0:0:0:
417,210,20264,2,0,L|501:195,1,73.3199988812256,0|0,3:0|3:0,0:0:0:0:
511,279,20617,6,0,P|520:337|436:373,1,146.639997762451,6|2,3:2|3:1,0:0:0:0:
370,351,21146,2,0,P|360:305|341:250,1,73.3199988812256,0|2,1:0|3:2,0:0:0:0:
293,216,21499,1,2,1:2:0:0:
230,272,21676,2,0,P|193:280|141:286,1,73.3199988812256,2|2,3:1|1:0,0:0:0:0:
82,328,22029,6,0,P|42:316|-1:246,1,109.979998321838,2|0,3:2|0:0,0:0:0:0:
5,245,22381,2,0,P|-12:194|-10:154,1,73.3199988812256,2|2,3:2|1:2,0:0:0:0:
114,113,22734,2,0,P|110:149|96:183,1,73.3199988812256,2|0,3:2|1:0,0:0:0:0:
26,79,23087,1,2,3:1:0:0:
96,18,23264,2,0,L|139:13,1,36.6599994406128,2|2,3:2|3:2,0:0:0:0:
196,57,23440,6,0,L|312:72,2,109.979998321838,2|2|2,1:2|1:2|1:2,0:0:0:0:
150,136,24146,2,0,L|229:222,2,109.979998321838,2|2|2,1:2|1:2|1:2,0:0:0:0:
66,172,24852,2,0,L|71:288,2,109.979998321838,2|2|2,1:0|1:2|1:0,0:0:0:0:
76,61,25558,5,2,1:0:0:0:
256,192,25646,12,4,27161,3:1:0:0:
84,72,27427,6,0,P|133:79|181:47,2,93.5999971435548,2|2|2,0:0|0:0|0:0,0:0:0:0:
30,159,28227,2,0,P|23:187|16:274,1,93.5999971435548,2|2,0:0|0:0,0:0:0:0:
4,334,28672,2,0,P|56:328|99:251,1,124.799996191406,0|2,0:0|0:0,0:0:0:0:
196,239,29294,6,0,P|230:237|268:255,1,62.3999980957032,2|0,0:1|0:0,0:0:0:0:
276,264,29561,2,0,L|289:154,2,93.5999971435548,2|2|2,0:0|0:0|0:0,0:0:0:0:
336,331,30361,2,0,P|377:305|438:320,1,93.5999971435548,2|2,0:0|0:0,0:0:0:0:
482,250,30805,2,0,P|504:205|492:145,1,93.5999971435548,2|2,0:0|0:0,0:0:0:0:
481,145,31161,2,0,L|468:80,1,62.3999980957032,2|4,0:1|1:0,0:0:0:0:
273,131,31694,6,0,L|286:27,2,93.5999971435548,2|2|2,0:0|0:0|0:0,0:0:0:0:
194,183,32494,2,0,P|165:190|94:159,1,93.5999971435548,2|2,0:0|0:0,0:0:0:0:
46,117,32938,2,0,P|55:151|72:256,1,124.799996191406,0|2,0:0|0:0,0:0:0:0:
211,288,33561,6,0,P|246:276|287:266,1,62.3999980957032,2|0,3:2|0:0,0:0:0:0:
280,249,33827,2,0,P|334:260|374:275,1,93.5999971435548,2|2,0:0|1:2,0:0:0:0:
451,261,34272,2,0,P|471:221|463:172,1,93.5999971435548,0|4,3:0|1:0,0:0:0:0:
464,174,35694,5,2,0:1:0:0:
347,208,36427,5,2,0:1:0:0:
227,243,37105,6,0,L|242:90,1,146.639997762451,4|0,3:2|1:0,0:0:0:0:
293,27,37634,1,0,0:0:0:0:
360,84,37810,2,0,P|398:95|445:98,1,73.3199988812256,0|0,3:0|3:0,0:0:0:0:
503,150,38163,1,0,1:0:0:0:
434,203,38340,6,0,P|407:246|418:354,1,146.639997762451,0|0,3:0|3:0,0:0:0:0:
325,371,38869,1,0,1:0:0:0:
264,317,39046,1,0,3:0:0:0:
264,317,39134,1,0,1:0:0:0:
264,317,39222,2,0,P|222:326|166:334,1,73.3199988812256,0|0,3:0|0:0,0:0:0:0:
112,375,39575,2,0,L|88:283,1,73.3199988812256,0|0,1:0|0:0,0:0:0:0:
17,259,39928,6,0,P|2:214|60:119,1,146.639997762451,0|0,3:0|1:0,0:0:0:0:
114,75,40457,1,0,3:0:0:0:
114,75,40546,1,0,3:0:0:0:
114,75,40634,2,0,L|156:226,1,146.639997762451,0|0,1:0|1:0,0:0:0:0:
229,265,41163,1,4,3:2:0:0:
296,207,41340,6,0,P|363:207|441:241,2,146.639997762451,0|0|0,3:2|1:2|3:0,0:0:0:0:
296,207,42399,2,0,P|302:163|304:116,1,73.3199988812256,4|0,1:2|1:0,3:3:0:0:
356,68,42752,6,0,P|307:81|205:23,1,146.639997762451,4|2,3:2|1:0,0:0:0:0:
149,97,43281,1,0,0:0:0:0:
149,97,43457,2,0,P|142:137|131:244,1,146.639997762451,2|2,3:1|3:1,0:0:0:0:
79,314,43987,6,0,P|51:281|65:179,1,146.639997762451,2|2,1:0|3:1,0:0:0:0:
10,113,44516,1,2,1:1:0:0:
58,41,44693,1,2,1:1:0:0:
58,41,44781,1,0,1:0:0:0:
58,41,44869,2,0,L|160:57,1,73.3199988812256,0|0,3:0|3:0,0:0:0:0:
190,121,45222,1,4,1:2:0:0:
273,92,45399,6,0,L|432:70,1,146.639997762451,0|0,0:0|3:0,0:0:0:0:
499,44,45928,2,0,P|500:88|488:124,1,73.3199988812256,0|0,1:0|3:0,0:0:0:0:
408,234,46281,2,0,P|407:190|419:154,1,73.3199988812256,0|0,1:0|3:0,0:0:0:0:
491,206,46634,2,0,L|532:213,2,36.6599994406128,0|0|0,1:0|1:0|3:0,0:0:0:0:
408,234,46987,6,0,P|356:223|292:279,2,109.979998321838,0|0|0,1:0|1:0|3:0,0:0:0:0:
290,335,47693,2,0,L|159:314,1,109.979998321838,0|0,3:0|1:0,0:0:0:0:
144,337,48046,2,2,L|102:344,1,36.6599994406128,2|0,3:1|0:0,0:0:0:0:
12,270,48399,6,0,P|3:228|4:188,1,78,4|0,3:2|0:0,0:0:0:0:
91,153,48752,2,0,P|100:195|99:235,1,78,0|0,3:0|0:0,0:0:0:0:
24,100,49104,2,0,L|201:126,1,156,0|0,1:0|3:0,0:0:0:0:
258,162,49634,6,0,P|275:120|275:68,1,78,2|0,3:2|1:0,0:0:0:0:
321,13,49987,2,0,P|348:48|393:74,1,78,2|0,3:2|1:0,0:0:0:0:
418,142,50340,2,0,P|373:148|328:174,1,78,2|0,3:2|1:0,0:0:0:0:
258,162,50693,1,4,3:2:0:0:
294,297,50869,1,4,1:2:0:0:
294,297,51222,6,0,P|352:341|434:324,1,156,0|0,3:0|1:0,0:0:0:0:
499,270,51752,1,0,3:0:0:0:
483,184,51928,2,0,P|425:140|343:157,1,156,0|0,1:0|1:0,0:0:0:0:
289,221,52457,6,0,P|221:232|126:252,2,156,0|0|0,3:0|3:0|3:0,0:0:0:0:
376,234,53340,2,0,P|393:282|393:314,1,78,0|0,3:0|0:0,0:0:0:0:
269,137,53693,2,0,P|271:98|286:62,1,78,4|0,1:2|0:0,0:0:0:0:
371,22,54046,5,0,3:0:0:0:
371,22,54222,1,0,3:0:0:0:
438,85,54399,2,0,L|463:242,1,156,4|0,1:2|3:0,0:0:0:0:
354,131,54928,2,0,L|340:229,1,78,0|4,3:0|1:2,0:0:0:0:
152,260,55457,5,0,3:0:0:0:
152,260,55634,1,0,3:0:0:0:
85,197,55810,2,0,L|60:40,1,156,4|0,1:2|3:0,0:0:0:0:
169,151,56340,2,0,L|183:53,1,78,0|4,3:0|1:2,0:0:0:0:
265,38,56693,1,0,0:0:0:0:
324,111,56869,6,0,P|372:143|451:133,1,117,0|0,3:0|0:0,0:0:0:0:
449,140,57222,2,0,L|459:228,1,78,0|0,3:0|3:0,0:0:0:0:
407,352,57575,2,0,L|397:274,1,78,0|0,3:0|3:0,0:0:0:0:
343,202,57928,1,0,3:0:0:0:
310,284,58104,1,0,3:0:0:0:
226,265,58281,6,0,L|75:284,2,117,4|2|2,1:2|1:2|1:2,0:0:0:0:
257,186,58987,1,2,1:1:0:0:
343,202,59340,5,4,1:2:0:0:
430,220,59693,6,0,L|405:86,1,117,4|0,3:2|0:0,0:0:0:0:
413,86,60046,2,0,P|465:88|501:105,1,78,0|0,3:0|1:0,0:0:0:0:
323,125,60399,2,0,P|242:127|170:73,1,156,0|2,3:0|3:1,0:0:0:0:
89,71,60928,1,0,1:0:0:0:
82,164,61104,6,0,L|107:298,1,117,4|0,3:2|0:0,0:0:0:0:
99,298,61457,2,0,P|47:296|11:279,1,78,0|0,3:0|1:0,0:0:0:0:
189,259,61810,2,0,P|269:256|342:311,1,156,0|2,3:0|3:1,0:0:0:0:
423,313,62340,1,0,1:0:0:0:
496,256,62516,6,0,L|505:173,1,78,0|0,3:0|1:0,0:0:0:0:
416,190,62869,2,0,L|407:107,1,78,0|0,3:0|1:0,0:0:0:0:
320,139,63222,2,0,L|284:7,2,117,0|0|0,3:0|0:0|1:0,0:0:0:0:
257,208,63928,6,0,P|214:214|173:195,1,78,4|0,3:2|3:0,3:0:0:0:
166,184,64193,2,0,P|170:248|156:301,1,117,4|0,1:2|3:0,0:0:0:0:
77,329,64634,2,0,P|68:270|43:159,1,156,4|0,3:2|1:3,0:0:0:0:
47,175,65340,6,0,P|42:123|64:78,1,78,4|0,3:2|1:0,0:0:0:0:
133,59,65693,1,0,3:0:0:0:
201,121,65869,1,0,1:0:0:0:
288,96,66046,2,0,P|353:87|423:82,2,117,0|4|0,3:0|3:2|1:0,0:0:0:0:
201,121,66752,6,0,L|194:199,1,78,2|0,3:1|1:0,0:0:0:0:
173,212,67016,2,0,P|204:252|180:342,1,117,4|0,3:2|1:0,0:0:0:0:
282,356,67457,2,0,P|360:365|448:382,1,156,2|0,3:1|3:0,0:0:0:0:
507,319,67987,1,0,1:0:0:0:
446,246,68163,6,0,P|437:203|468:120,1,117,4|0,3:2|0:0,0:0:0:0:
451,116,68516,2,0,P|471:75|496:44,1,78,0|0,0:0|1:0,0:0:0:0:
409,4,68869,2,0,P|388:44|364:76,1,78,0|0,3:0|1:0,0:0:0:0:
289,107,69222,1,0,3:0:0:0:
205,78,69399,1,0,1:0:0:0:
162,0,69575,6,0,P|106:5|25:39,2,117,2|2|2,1:2|1:2|1:2,0:0:0:0:
239,173,70281,2,0,L|151:157,1,78,4|0,1:2|0:0,0:0:0:0:
136,152,70546,2,0,L|125:103,1,39,0|0,3:0|1:0,3:0:0:0:
330,105,70987,6,0,P|381:102|443:154,1,117,4|0,3:2|0:0,0:0:0:0:
450,149,71340,2,0,P|461:96|477:49,1,78,0|0,3:0|1:0,0:0:0:0:
359,187,71693,2,0,P|375:244|302:319,1,156,0|2,3:0|3:1,0:0:0:0:
266,239,72222,1,0,1:0:0:0:
182,279,72399,6,0,P|131:282|69:230,1,117,4|0,3:2|0:0,0:0:0:0:
62,235,72752,2,0,P|51:288|35:335,1,78,0|0,3:0|1:0,0:0:0:0:
153,197,73104,2,0,P|137:140|210:65,1,156,0|2,3:0|3:1,0:0:0:0:
246,145,73634,1,0,1:0:0:0:
330,105,73810,5,4,1:2:0:0:
294,299,74516,5,4,1:2:0:0:
143,171,75222,5,0,3:0:0:0:
220,153,75575,1,0,1:0:0:0:
300,166,75928,1,0,1:0:0:0:
361,221,76281,1,0,3:0:0:0:
398,292,76634,6,0,L|419:114,1,156,0|2,3:0|3:1,0:0:0:0:
283,54,77340,2,0,L|262:232,1,156,0|0,3:0|1:0,0:0:0:0:
197,263,77869,1,0,1:0:0:0:
111,285,78046,6,0,P|65:280|-21:192,1,156,0|2,3:0|3:1,0:0:0:0:
52,65,78752,2,0,P|98:70|184:158,1,156,0|2,3:0|1:0,0:0:0:0:
255,167,79281,1,0,0:0:0:0:
337,157,79457,6,0,P|366:124|372:74,1,78,0|0,3:0|3:0,0:0:0:0:
412,21,79810,2,0,P|412:71|433:201,1,156,4|0,3:2|3:0,0:0:0:0:
472,247,80340,1,0,3:0:0:0:
423,314,80516,2,0,L|324:331,1,78,4|0,3:2|3:0,0:0:0:0:
280,378,80869,6,0,P|240:385|157:332,2,117,2|2|2,1:2|1:2|1:2,0:0:0:0:
242,294,81575,2,0,L|234:247,4,39,0|0|0|0|4,3:0|3:0|3:0|3:0|3:2,0:0:0:0:
224,167,82281,6,0,P|187:171|92:67,1,187.2,4|0,3:2|3:0,0:0:0:0:
25,23,82987,2,0,P|47:53|5:187,1,187.2,4|0,3:2|3:0,0:0:0:0:
0,267,83693,2,0,P|16:232|153:202,1,187.2,4|0,3:2|3:0,0:0:0:0:
224,167,84399,2,0,P|288:155|355:140,1,124.8,4|0,3:2|1:0,0:0:0:0:
346,142,85104,6,0,P|362:173|363:228,1,78,0|0,3:0|1:0,0:0:0:0:
278,225,85457,2,0,L|298:272,3,39,0|0|0|0,3:0|3:0|3:0|3:0,0:0:0:0:
289,291,85810,2,0,P|336:327|434:296,1,156,4|4,3:2|3:2,0:0:0:0:
346,142,86516,5,2,1:2:0:0:
423,107,86693,1,2,1:2:0:0:
355,59,86869,1,2,1:2:0:0:
164,142,87222,5,2,1:2:0:0:
87,107,87399,1,2,1:2:0:0:
155,59,87575,1,2,1:2:0:0:
384,289,87928,5,2,1:2:0:0:
331,226,88104,1,2,1:2:0:0:
256,192,88281,1,2,1:2:0:0:
181,226,88457,1,2,1:2:0:0:
128,289,88634,2,0,P|98:320|-6:287,1,156,2|2,1:2|0:1,0:0:0:0:
