osu file format v14

[General]
AudioFilename: umaru.mp3
AudioLeadIn: 0
PreviewTime: 222
Countdown: 0
SampleSet: None
StackLeniency: 0.7
Mode: 3
LetterboxInBreaks: 0
SpecialStyle: 0
WidescreenStoryboard: 1

[Editor]
DistanceSpacing: 0.5
BeatDivisor: 4
GridSize: 32
TimelineZoom: 2

[Metadata]
Title:Nimensei*Ura Omote Life!
TitleUnicode:にめんせい☆ウラオモテライフ!
Artist:Doma Umaru (CV.Tanaka Aimi)
ArtistUnicode:土間うまる (CV.田中あいみ)
Creator:Karen
Version:123
Source:干物妹!うまるちゃんR
Tags:
BeatmapID:1445616
BeatmapSetID:671910

[Difficulty]
HPDrainRate:6
CircleSize:4
OverallDifficulty:8
ApproachRate:9
SliderMultiplier:2.4
SliderTickRate:1

[Events]
//Background and Video events
0,0,"umr.jpg",0,0
//Break Periods
//Storyboard Layer 0 (Background)
//Storyboard Layer 1 (Fail)
//Storyboard Layer 2 (Pass)
//Storyboard Layer 3 (Foreground)
//Storyboard Sound Samples

[TimingPoints]
427,352.903810184804,4,2,1,0,1,0
26718,266.666666666667,4,2,1,0,1,0
26718,-133.333333333333,4,2,1,0,0,0
36680,352.903810184804,4,2,1,0,1,0
36680,-100,4,2,1,0,0,0
53266,-66.6666666666667,4,2,1,0,0,0
53442,-142.857142857143,4,2,1,0,0,0
53619,-71.4285714285714,4,2,1,0,0,0
53707,-142.857142857143,4,2,1,0,0,0
53795,-66.6666666666667,4,2,1,0,0,0
53884,-142.857142857143,4,2,1,0,0,0
53972,-66.6666666666667,4,2,1,0,0,0
54148,-142.857142857143,4,2,1,0,0,0
54236,-100,4,2,1,0,0,0
54325,-66.6666666666667,4,2,1,0,0,0
54413,-142.857142857143,4,2,1,0,0,0
54501,-66.6666666666667,4,2,1,0,0,0
54589,-142.857142857143,4,2,1,0,0,0
54678,-66.6666666666667,4,2,1,0,0,0
54854,-142.857142857143,4,2,1,0,0,0
54942,-100,4,2,1,0,0,0
55030,-66.6666666666667,4,2,1,0,0,0
55119,-142.857142857143,4,2,1,0,0,0
55207,-66.6666666666667,4,2,1,0,0,0
55295,-142.857142857143,4,2,1,0,0,0
55383,-66.6666666666667,4,2,1,0,0,0
55560,-142.857142857143,4,2,1,0,0,0
55648,-100,4,2,1,0,0,0
55736,-66.6666666666667,4,2,1,0,0,0
55825,-142.857142857143,4,2,1,0,0,0
55913,-100,4,2,1,0,0,0
57854,-66.6666666666667,4,2,1,0,0,0
57986,-200,4,2,1,0,0,0
58118,-66.6666666666667,4,2,1,0,0,0
58251,-200,4,2,1,0,0,0
58383,-66.6666666666667,4,2,1,0,0,0
58471,-166.666666666667,4,2,1,0,0,0
58560,-100,4,2,1,0,0,0
69147,-66.6666666666667,4,2,1,0,0,0
69279,-200,4,2,1,0,0,0
69411,-66.6666666666667,4,2,1,0,0,0
69544,-200,4,2,1,0,0,0
69676,-66.6666666666667,4,2,1,0,0,0
69764,-166.666666666667,4,2,1,0,0,0
69852,-100,4,2,1,0,0,0
73381,-66.6666666666667,4,2,1,0,0,0
73602,-200,4,2,1,0,0,0
73734,-100,4,2,1,0,0,0
74087,-66.6666666666667,4,2,1,0,0,0
74308,-200,4,2,1,0,0,0
74440,-100,4,2,1,0,0,0

[HitObjects]
448,192,427,5,0,0:0:0:0:
192,192,603,1,0,0:0:0:0:
320,192,779,1,0,0:0:0:0:
64,192,956,1,0,0:0:0:0:
448,192,1044,1,0,0:0:0:0:
320,192,1132,1,0,0:0:0:0:
192,192,1221,1,0,0:0:0:0:
320,192,1309,1,0,0:0:0:0:
192,192,1397,1,0,0:0:0:0:
448,192,1485,1,0,0:0:0:0:
64,192,1485,1,0,0:0:0:0:
64,192,1838,128,0,3162:0:0:0:0:
448,192,1838,1,0,0:0:0:0:
320,192,1838,1,0,0:0:0:0:
448,192,2720,128,0,2809:0:0:0:0:
448,192,2897,128,0,2985:0:0:0:0:
64,192,3250,1,0,0:0:0:0:
448,192,3250,1,0,0:0:0:0:
192,192,3250,128,0,4573:0:0:0:0:
320,192,4132,128,0,4220:0:0:0:0:
320,192,4308,128,0,4397:0:0:0:0:
192,192,4661,1,0,0:0:0:0:
64,192,4661,1,0,0:0:0:0:
320,192,4661,128,0,5985:0:0:0:0:
320,192,6073,1,0,0:0:0:0:
64,192,6073,1,0,0:0:0:0:
448,192,6073,128,0,7485:0:0:0:0:
320,192,6602,1,0,0:0:0:0:
192,192,6691,1,0,0:0:0:0:
64,192,6779,1,0,0:0:0:0:
320,192,6779,1,0,0:0:0:0:
320,192,7043,1,0,0:0:0:0:
64,192,7308,1,0,0:0:0:0:
320,192,7485,128,0,7749:0:0:0:0:
64,192,7485,1,0,0:0:0:0:
192,192,7749,128,0,8014:0:0:0:0:
448,192,8014,128,0,8190:0:0:0:0:
64,192,8014,1,0,0:0:0:0:
192,192,8102,1,0,0:0:0:0:
64,192,8190,128,0,8455:0:0:0:0:
320,192,8190,1,0,0:0:0:0:
192,192,8455,128,0,8720:0:0:0:0:
448,192,8720,128,0,8896:0:0:0:0:
320,192,8720,1,0,0:0:0:0:
192,192,8808,1,0,0:0:0:0:
64,192,8896,128,0,9161:0:0:0:0:
320,192,8896,1,0,0:0:0:0:
448,192,9161,128,0,9514:0:0:0:0:
64,192,9426,1,0,0:0:0:0:
192,192,9514,1,0,0:0:0:0:
448,192,9602,128,0,9955:0:0:0:0:
320,192,9602,1,0,0:0:0:0:
192,192,9955,128,0,10308:0:0:0:0:
448,192,10308,128,0,10572:0:0:0:0:
64,192,10308,1,0,0:0:0:0:
192,192,10484,1,0,0:0:0:0:
64,192,10572,128,0,10837:0:0:0:0:
448,192,10661,1,0,0:0:0:0:
320,192,10749,1,0,0:0:0:0:
192,192,10837,1,0,0:0:0:0:
448,192,10837,1,0,0:0:0:0:
320,192,10925,1,0,0:0:0:0:
64,192,11014,1,0,0:0:0:0:
192,192,11014,128,0,11543:0:0:0:0:
448,192,11014,1,0,0:0:0:0:
448,192,11367,128,0,11543:0:0:0:0:
320,192,11367,1,0,0:0:0:0:
64,192,11719,1,0,0:0:0:0:
448,192,11719,1,0,0:0:0:0:
320,192,11719,1,0,0:0:0:0:
448,192,11896,1,0,0:0:0:0:
64,192,11896,1,0,0:0:0:0:
192,192,11896,1,0,0:0:0:0:
64,192,12072,1,0,0:0:0:0:
320,192,12072,1,0,0:0:0:0:
448,192,12072,1,0,0:0:0:0:
64,192,12425,1,0,0:0:0:0:
192,192,12425,1,0,0:0:0:0:
320,192,12425,1,0,0:0:0:0:
192,192,12602,1,0,0:0:0:0:
320,192,12602,1,0,0:0:0:0:
448,192,12602,1,0,0:0:0:0:
320,192,12778,1,0,0:0:0:0:
192,192,12778,1,0,0:0:0:0:
64,192,12778,1,0,0:0:0:0:
64,192,13131,128,0,13484:0:0:0:0:
448,192,13131,1,0,0:0:0:0:
320,192,13307,128,0,14013:0:0:0:0:
192,192,13307,1,0,0:0:0:0:
192,192,13484,128,0,14102:0:0:0:0:
448,192,13484,1,0,0:0:0:0:
448,192,13660,128,0,13925:0:0:0:0:
64,192,13660,1,0,0:0:0:0:
64,192,13837,128,0,14190:0:0:0:0:
448,192,14013,1,0,0:0:0:0:
320,192,14102,1,0,0:0:0:0:
192,192,14190,1,0,0:0:0:0:
64,192,14278,1,0,0:0:0:0:
448,192,14366,1,0,0:0:0:0:
320,192,14454,1,0,0:0:0:0:
448,192,14543,1,0,0:0:0:0:
192,192,14543,1,0,0:0:0:0:
64,192,14543,128,0,14719:0:0:0:0:
448,192,14719,1,0,0:0:0:0:
64,192,14896,128,0,15072:0:0:0:0:
192,192,14896,1,0,0:0:0:0:
448,192,14896,1,0,0:0:0:0:
448,192,15072,1,0,0:0:0:0:
448,192,15248,1,0,0:0:0:0:
64,192,15248,128,0,15425:0:0:0:0:
320,192,15425,1,0,0:0:0:0:
192,192,15425,1,0,0:0:0:0:
64,192,15601,1,0,0:0:0:0:
320,192,15601,1,0,0:0:0:0:
192,192,15778,1,0,0:0:0:0:
448,192,15778,128,0,15954:0:0:0:0:
64,192,15954,1,0,0:0:0:0:
320,192,15954,1,0,0:0:0:0:
448,192,16131,128,0,16307:0:0:0:0:
64,192,16131,1,0,0:0:0:0:
320,192,16307,1,0,0:0:0:0:
192,192,16307,1,0,0:0:0:0:
448,192,16484,128,0,16660:0:0:0:0:
64,192,16484,1,0,0:0:0:0:
64,192,16660,1,0,0:0:0:0:
192,192,16660,1,0,0:0:0:0:
192,192,16837,1,0,0:0:0:0:
320,192,16837,1,0,0:0:0:0:
320,192,17013,1,0,0:0:0:0:
448,192,17013,128,0,17189:0:0:0:0:
192,192,17189,1,0,0:0:0:0:
320,192,17366,128,0,17542:0:0:0:0:
64,192,17366,1,0,0:0:0:0:
448,192,17366,1,0,0:0:0:0:
64,192,17542,1,0,0:0:0:0:
64,192,17719,1,0,0:0:0:0:
192,192,17719,1,0,0:0:0:0:
320,192,17719,128,0,17895:0:0:0:0:
448,192,17895,1,0,0:0:0:0:
64,192,18072,1,0,0:0:0:0:
320,192,18072,128,0,18248:0:0:0:0:
448,192,18072,1,0,0:0:0:0:
192,192,18248,1,0,0:0:0:0:
64,192,18425,1,0,0:0:0:0:
192,192,18425,1,0,0:0:0:0:
448,192,18425,1,0,0:0:0:0:
64,192,18601,1,0,0:0:0:0:
448,192,18601,128,0,18777:0:0:0:0:
64,192,18777,1,0,0:0:0:0:
320,192,18777,1,0,0:0:0:0:
448,192,18954,128,0,19130:0:0:0:0:
192,192,18954,1,0,0:0:0:0:
320,192,19130,1,0,0:0:0:0:
64,192,19130,128,0,19307:0:0:0:0:
448,192,19219,1,0,0:0:0:0:
192,192,19307,1,0,0:0:0:0:
192,192,19483,128,0,19660:0:0:0:0:
64,192,19483,1,0,0:0:0:0:
448,192,19483,1,0,0:0:0:0:
448,192,19660,1,0,0:0:0:0:
320,192,19748,1,0,0:0:0:0:
448,192,19836,128,0,20013:0:0:0:0:
64,192,19836,1,0,0:0:0:0:
192,192,19836,1,0,0:0:0:0:
320,192,19924,1,0,0:0:0:0:
192,192,20013,1,0,0:0:0:0:
64,192,20101,1,0,0:0:0:0:
192,192,20189,1,0,0:0:0:0:
448,192,20189,1,0,0:0:0:0:
320,192,20189,128,0,21071:0:0:0:0:
64,192,20366,1,0,0:0:0:0:
192,192,20542,1,0,0:0:0:0:
448,192,20542,1,0,0:0:0:0:
64,192,20630,1,0,0:0:0:0:
192,192,20718,1,0,0:0:0:0:
64,192,20895,1,0,0:0:0:0:
448,192,20895,1,0,0:0:0:0:
448,192,21071,1,0,0:0:0:0:
192,192,21071,1,0,0:0:0:0:
64,192,21248,1,0,0:0:0:0:
448,192,21248,1,0,0:0:0:0:
192,192,21336,1,0,0:0:0:0:
320,192,21424,1,0,0:0:0:0:
448,192,21424,128,0,22836:0:0:0:0:
64,192,21601,1,0,0:0:0:0:
64,192,21777,1,0,0:0:0:0:
320,192,21777,1,0,0:0:0:0:
192,192,21865,1,0,0:0:0:0:
320,192,21954,1,0,0:0:0:0:
64,192,22042,1,0,0:0:0:0:
192,192,22130,1,0,0:0:0:0:
320,192,22130,1,0,0:0:0:0:
64,192,22307,1,0,0:0:0:0:
64,192,22483,1,0,0:0:0:0:
320,192,22483,1,0,0:0:0:0:
192,192,22659,1,0,0:0:0:0:
64,192,22836,1,0,0:0:0:0:
192,192,22924,1,0,0:0:0:0:
64,192,23012,1,0,0:0:0:0:
448,192,23012,1,0,0:0:0:0:
320,192,23012,128,0,23277:0:0:0:0:
192,192,23277,128,0,23542:0:0:0:0:
64,192,23277,1,0,0:0:0:0:
448,192,23277,1,0,0:0:0:0:
64,192,23542,1,0,0:0:0:0:
448,192,23542,1,0,0:0:0:0:
320,192,23542,128,0,23718:0:0:0:0:
448,192,23718,128,0,23983:0:0:0:0:
64,192,23718,1,0,0:0:0:0:
192,192,23718,1,0,0:0:0:0:
192,192,23983,128,0,24248:0:0:0:0:
64,192,23983,1,0,0:0:0:0:
320,192,23983,1,0,0:0:0:0:
320,192,24248,128,0,24424:0:0:0:0:
64,192,24248,1,0,0:0:0:0:
448,192,24248,1,0,0:0:0:0:
448,192,24424,128,0,24600:0:0:0:0:
64,192,24424,1,0,0:0:0:0:
192,192,24424,1,0,0:0:0:0:
64,192,24689,1,0,0:0:0:0:
320,192,24689,1,0,0:0:0:0:
448,192,24689,128,0,24865:0:0:0:0:
64,192,24953,1,0,0:0:0:0:
192,192,24953,1,0,0:0:0:0:
448,192,24953,128,0,25894:0:0:0:0:
64,192,25130,128,0,25718:0:0:0:0:
192,192,25130,128,0,25777:0:0:0:0:
320,192,25130,128,0,25836:0:0:0:0:
64,192,25777,1,0,0:0:0:0:
192,192,25836,1,0,0:0:0:0:
320,192,25894,1,0,0:0:0:0:
448,192,25953,1,0,0:0:0:0:
64,192,26012,1,0,0:0:0:0:
192,192,26071,1,0,0:0:0:0:
320,192,26130,1,0,0:0:0:0:
448,192,26188,1,0,0:0:0:0:
64,192,26718,1,0,0:0:0:0:
192,192,26895,1,0,0:0:0:0:
320,192,27251,1,0,0:0:0:0:
64,192,27784,1,0,0:0:0:0:
320,192,28051,1,0,0:0:0:0:
192,192,28318,1,0,0:0:0:0:
64,192,28584,1,0,0:0:0:0:
448,192,28718,1,0,0:0:0:0:
320,192,28784,1,0,0:0:0:0:
192,192,28851,1,0,0:0:0:0:
64,192,28851,1,0,0:0:0:0:
448,192,29118,1,0,0:0:0:0:
64,192,29384,1,0,0:0:0:0:
320,192,29651,1,0,0:0:0:0:
64,192,29918,1,0,0:0:0:0:
320,192,30184,1,0,0:0:0:0:
192,192,30362,1,0,0:0:0:0:
64,192,30384,128,0,30718:0:0:0:0:
320,192,30406,1,0,0:0:0:0:
448,192,30451,1,0,0:0:0:0:
320,192,30629,1,0,0:0:0:0:
448,192,30718,1,0,0:0:0:0:
192,192,30918,1,0,0:0:0:0:
448,192,30918,1,0,0:0:0:0:
64,192,30918,1,0,0:0:0:0:
320,192,31051,1,0,0:0:0:0:
64,192,31251,1,0,0:0:0:0:
320,192,31518,1,0,0:0:0:0:
192,192,31784,1,0,0:0:0:0:
320,192,32051,1,0,0:0:0:0:
192,192,32251,1,0,0:0:0:0:
448,192,32318,1,0,0:0:0:0:
64,192,32518,1,0,0:0:0:0:
320,192,32584,1,0,0:0:0:0:
192,192,32784,1,0,0:0:0:0:
320,192,32940,1,0,0:0:0:0:
64,192,32984,1,0,0:0:0:0:
448,192,33051,1,0,0:0:0:0:
192,192,33118,1,0,0:0:0:0:
64,192,33118,128,0,33384:0:0:0:0:
320,192,33451,128,0,33584:0:0:0:0:
64,192,33584,1,0,0:0:0:0:
448,192,33651,1,0,0:0:0:0:
192,192,33651,128,0,33918:0:0:0:0:
64,192,33851,1,0,0:0:0:0:
448,192,33851,1,0,0:0:0:0:
320,192,33918,1,0,0:0:0:0:
192,192,34051,1,0,0:0:0:0:
320,192,34084,1,0,0:0:0:0:
64,192,34118,1,0,0:0:0:0:
448,192,34118,128,0,34984:0:0:0:0:
320,192,35251,128,0,35518:0:0:0:0:
320,192,35984,128,0,36318:0:0:0:0:
64,192,36318,1,0,0:0:0:0:
448,192,36318,1,0,0:0:0:0:
64,192,36680,1,0,0:0:0:0:
320,192,36680,1,0,0:0:0:0:
448,192,36680,1,0,0:0:0:0:
192,192,36856,1,0,0:0:0:0:
64,192,37032,1,0,0:0:0:0:
320,192,37032,1,0,0:0:0:0:
192,192,37209,1,0,0:0:0:0:
448,192,37209,1,0,0:0:0:0:
320,192,37297,1,0,0:0:0:0:
64,192,37385,1,0,0:0:0:0:
448,192,37385,1,0,0:0:0:0:
64,192,37562,1,0,0:0:0:0:
320,192,37562,1,0,0:0:0:0:
192,192,37738,1,0,0:0:0:0:
320,192,37738,1,0,0:0:0:0:
192,192,37915,1,0,0:0:0:0:
448,192,37915,1,0,0:0:0:0:
64,192,37915,128,0,38268:0:0:0:0:
448,192,38268,1,0,0:0:0:0:
192,192,38268,1,0,0:0:0:0:
448,192,38444,1,0,0:0:0:0:
320,192,38444,1,0,0:0:0:0:
64,192,38620,1,0,0:0:0:0:
192,192,38709,1,0,0:0:0:0:
448,192,38797,1,0,0:0:0:0:
64,192,38797,1,0,0:0:0:0:
320,192,38797,128,0,38973:0:0:0:0:
192,192,38973,1,0,0:0:0:0:
64,192,38973,1,0,0:0:0:0:
320,192,39150,128,0,39503:0:0:0:0:
64,192,39150,1,0,0:0:0:0:
448,192,39150,1,0,0:0:0:0:
192,192,39326,1,0,0:0:0:0:
64,192,39503,1,0,0:0:0:0:
448,192,39503,1,0,0:0:0:0:
448,192,39679,1,0,0:0:0:0:
192,192,39679,1,0,0:0:0:0:
64,192,39856,1,0,0:0:0:0:
448,192,39856,1,0,0:0:0:0:
192,192,40032,1,0,0:0:0:0:
448,192,40032,1,0,0:0:0:0:
320,192,40120,1,0,0:0:0:0:
64,192,40209,1,0,0:0:0:0:
448,192,40209,1,0,0:0:0:0:
192,192,40385,1,0,0:0:0:0:
320,192,40385,1,0,0:0:0:0:
64,192,40561,1,0,0:0:0:0:
448,192,40561,1,0,0:0:0:0:
192,192,40650,1,0,0:0:0:0:
64,192,40738,1,0,0:0:0:0:
448,192,40738,128,0,40914:0:0:0:0:
320,192,40738,1,0,0:0:0:0:
320,192,40914,1,0,0:0:0:0:
192,192,41003,1,0,0:0:0:0:
64,192,41091,1,0,0:0:0:0:
192,192,41179,1,0,0:0:0:0:
64,192,41267,1,0,0:0:0:0:
448,192,41267,1,0,0:0:0:0:
192,192,41355,1,0,0:0:0:0:
320,192,41444,1,0,0:0:0:0:
448,192,41532,1,0,0:0:0:0:
64,192,41532,1,0,0:0:0:0:
192,192,41620,1,0,0:0:0:0:
320,192,41708,1,0,0:0:0:0:
64,192,41708,1,0,0:0:0:0:
192,192,41797,1,0,0:0:0:0:
448,192,41797,1,0,0:0:0:0:
64,192,41885,1,0,0:0:0:0:
320,192,41885,1,0,0:0:0:0:
192,192,41973,1,0,0:0:0:0:
448,192,41973,1,0,0:0:0:0:
320,192,42061,1,0,0:0:0:0:
192,192,42150,1,0,0:0:0:0:
448,192,42150,1,0,0:0:0:0:
64,192,42238,1,0,0:0:0:0:
320,192,42238,1,0,0:0:0:0:
192,192,42326,1,0,0:0:0:0:
448,192,42326,1,0,0:0:0:0:
320,192,42502,1,0,0:0:0:0:
64,192,42679,1,0,0:0:0:0:
192,192,42679,1,0,0:0:0:0:
64,192,42855,1,0,0:0:0:0:
320,192,42944,1,0,0:0:0:0:
64,192,43032,1,0,0:0:0:0:
448,192,43032,1,0,0:0:0:0:
64,192,43208,1,0,0:0:0:0:
320,192,43208,1,0,0:0:0:0:
64,192,43385,1,0,0:0:0:0:
192,192,43385,1,0,0:0:0:0:
64,192,43561,1,0,0:0:0:0:
320,192,43561,1,0,0:0:0:0:
448,192,43561,128,0,43914:0:0:0:0:
64,192,43914,1,0,0:0:0:0:
192,192,43914,1,0,0:0:0:0:
64,192,44090,1,0,0:0:0:0:
320,192,44090,1,0,0:0:0:0:
192,192,44267,1,0,0:0:0:0:
448,192,44267,1,0,0:0:0:0:
320,192,44355,1,0,0:0:0:0:
64,192,44443,1,0,0:0:0:0:
448,192,44443,1,0,0:0:0:0:
64,192,44620,1,0,0:0:0:0:
320,192,44620,1,0,0:0:0:0:
64,192,44796,1,0,0:0:0:0:
448,192,44796,1,0,0:0:0:0:
320,192,44796,128,0,45149:0:0:0:0:
64,192,45149,1,0,0:0:0:0:
192,192,45149,1,0,0:0:0:0:
192,192,45326,1,0,0:0:0:0:
448,192,45326,1,0,0:0:0:0:
192,192,45502,1,0,0:0:0:0:
64,192,45502,1,0,0:0:0:0:
192,192,45679,1,0,0:0:0:0:
448,192,45679,1,0,0:0:0:0:
64,192,45855,1,0,0:0:0:0:
192,192,45855,1,0,0:0:0:0:
320,192,46031,1,0,0:0:0:0:
448,192,46031,1,0,0:0:0:0:
64,192,46120,1,0,0:0:0:0:
320,192,46208,1,0,0:0:0:0:
192,192,46208,1,0,0:0:0:0:
64,192,46296,1,0,0:0:0:0:
448,192,46384,1,0,0:0:0:0:
320,192,46384,1,0,0:0:0:0:
192,192,46473,1,0,0:0:0:0:
448,192,46561,1,0,0:0:0:0:
64,192,46561,1,0,0:0:0:0:
192,192,46649,1,0,0:0:0:0:
320,192,46737,1,0,0:0:0:0:
448,192,46825,1,0,0:0:0:0:
192,192,46825,1,0,0:0:0:0:
64,192,46914,1,0,0:0:0:0:
192,192,47002,1,0,0:0:0:0:
320,192,47090,1,0,0:0:0:0:
64,192,47090,1,0,0:0:0:0:
448,192,47178,1,0,0:0:0:0:
64,192,47267,1,0,0:0:0:0:
192,192,47267,1,0,0:0:0:0:
320,192,47355,1,0,0:0:0:0:
192,192,47443,1,0,0:0:0:0:
64,192,47531,1,0,0:0:0:0:
448,192,47531,1,0,0:0:0:0:
320,192,47620,1,0,0:0:0:0:
192,192,47620,1,0,0:0:0:0:
64,192,47708,1,0,0:0:0:0:
448,192,47708,1,0,0:0:0:0:
320,192,47796,1,0,0:0:0:0:
64,192,47972,1,0,0:0:0:0:
320,192,47972,1,0,0:0:0:0:
448,192,47972,1,0,0:0:0:0:
192,192,48061,1,0,0:0:0:0:
320,192,48149,1,0,0:0:0:0:
192,192,48237,1,0,0:0:0:0:
320,192,48325,1,0,0:0:0:0:
448,192,48325,1,0,0:0:0:0:
64,192,48414,1,0,0:0:0:0:
192,192,48502,1,0,0:0:0:0:
320,192,48590,1,0,0:0:0:0:
64,192,48590,1,0,0:0:0:0:
192,192,48678,1,0,0:0:0:0:
448,192,48678,1,0,0:0:0:0:
320,192,48766,1,0,0:0:0:0:
64,192,48855,1,0,0:0:0:0:
448,192,48855,1,0,0:0:0:0:
192,192,48943,1,0,0:0:0:0:
64,192,49031,1,0,0:0:0:0:
448,192,49031,1,0,0:0:0:0:
320,192,49119,1,0,0:0:0:0:
192,192,49208,1,0,0:0:0:0:
448,192,49208,1,0,0:0:0:0:
64,192,49296,1,0,0:0:0:0:
320,192,49384,1,0,0:0:0:0:
192,192,49384,1,0,0:0:0:0:
448,192,49472,1,0,0:0:0:0:
320,192,49560,1,0,0:0:0:0:
64,192,49560,1,0,0:0:0:0:
192,192,49649,1,0,0:0:0:0:
64,192,49737,1,0,0:0:0:0:
448,192,49825,1,0,0:0:0:0:
192,192,49825,1,0,0:0:0:0:
320,192,49913,1,0,0:0:0:0:
64,192,49913,1,0,0:0:0:0:
192,192,50002,1,0,0:0:0:0:
448,192,50002,1,0,0:0:0:0:
320,192,50090,1,0,0:0:0:0:
64,192,50090,1,0,0:0:0:0:
192,192,50178,1,0,0:0:0:0:
64,192,50266,1,0,0:0:0:0:
448,192,50266,1,0,0:0:0:0:
320,192,50266,1,0,0:0:0:0:
64,192,50443,1,0,0:0:0:0:
192,192,50443,1,0,0:0:0:0:
320,192,50443,128,0,50796:0:0:0:0:
64,192,50796,1,0,0:0:0:0:
448,192,50796,1,0,0:0:0:0:
192,192,50972,1,0,0:0:0:0:
64,192,51149,1,0,0:0:0:0:
320,192,51149,1,0,0:0:0:0:
192,192,51325,1,0,0:0:0:0:
64,192,51325,1,0,0:0:0:0:
320,192,51413,1,0,0:0:0:0:
448,192,51501,1,0,0:0:0:0:
64,192,51501,1,0,0:0:0:0:
64,192,51678,1,0,0:0:0:0:
192,192,51678,1,0,0:0:0:0:
320,192,51737,1,0,0:0:0:0:
192,192,51796,1,0,0:0:0:0:
448,192,51854,1,0,0:0:0:0:
64,192,51854,1,0,0:0:0:0:
64,192,52031,1,0,0:0:0:0:
192,192,52031,1,0,0:0:0:0:
320,192,52031,128,0,52295:0:0:0:0:
448,192,52384,128,0,52648:0:0:0:0:
64,192,52384,1,0,0:0:0:0:
192,192,52384,1,0,0:0:0:0:
64,192,52737,1,0,0:0:0:0:
320,192,52913,128,0,53266:0:0:0:0:
192,192,53090,1,0,0:0:0:0:
64,192,53266,1,0,0:0:0:0:
448,192,53266,1,0,0:0:0:0:
192,192,53619,1,0,0:0:0:0:
320,192,53619,1,0,0:0:0:0:
64,192,53795,1,0,0:0:0:0:
320,192,53795,1,0,0:0:0:0:
192,192,53972,128,0,54325:0:0:0:0:
320,192,53972,128,0,54236:0:0:0:0:
448,192,54236,1,0,0:0:0:0:
64,192,54325,1,0,0:0:0:0:
320,192,54325,1,0,0:0:0:0:
192,192,54501,1,0,0:0:0:0:
320,192,54501,1,0,0:0:0:0:
448,192,54678,128,0,55030:0:0:0:0:
192,192,54678,128,0,54942:0:0:0:0:
64,192,54942,1,0,0:0:0:0:
192,192,55030,1,0,0:0:0:0:
320,192,55030,1,0,0:0:0:0:
64,192,55207,1,0,0:0:0:0:
320,192,55207,1,0,0:0:0:0:
64,192,55383,128,0,55736:0:0:0:0:
448,192,55383,128,0,55648:0:0:0:0:
320,192,55648,1,0,0:0:0:0:
192,192,55736,1,0,0:0:0:0:
448,192,55736,1,0,0:0:0:0:
64,192,55913,1,0,0:0:0:0:
320,192,55913,1,0,0:0:0:0:
192,192,56001,1,0,0:0:0:0:
320,192,56089,128,0,56442:0:0:0:0:
64,192,56089,128,0,56442:0:0:0:0:
192,192,56442,1,0,0:0:0:0:
448,192,56442,1,0,0:0:0:0:
320,192,56619,1,0,0:0:0:0:
64,192,56795,1,0,0:0:0:0:
448,192,56795,1,0,0:0:0:0:
448,192,56971,1,0,0:0:0:0:
192,192,56971,1,0,0:0:0:0:
64,192,57148,1,0,0:0:0:0:
320,192,57148,1,0,0:0:0:0:
192,192,57324,1,0,0:0:0:0:
320,192,57324,1,0,0:0:0:0:
448,192,57501,1,0,0:0:0:0:
64,192,57501,1,0,0:0:0:0:
192,192,57501,1,0,0:0:0:0:
64,192,57677,1,0,0:0:0:0:
320,192,57677,1,0,0:0:0:0:
448,192,57677,1,0,0:0:0:0:
64,192,57854,1,0,0:0:0:0:
192,192,57854,1,0,0:0:0:0:
448,192,57854,1,0,0:0:0:0:
192,192,58118,1,0,0:0:0:0:
320,192,58118,1,0,0:0:0:0:
448,192,58118,1,0,0:0:0:0:
64,192,58383,1,0,0:0:0:0:
192,192,58383,1,0,0:0:0:0:
320,192,58383,1,0,0:0:0:0:
64,192,58560,128,0,58824:0:0:0:0:
320,192,58560,128,0,58824:0:0:0:0:
448,192,58560,128,0,58824:0:0:0:0:
192,192,58560,128,0,58824:0:0:0:0:
64,192,58912,1,0,0:0:0:0:
192,192,58912,1,0,0:0:0:0:
320,192,58912,1,0,0:0:0:0:
448,192,58912,1,0,0:0:0:0:
448,192,59001,1,0,0:0:0:0:
320,192,59089,1,0,0:0:0:0:
192,192,59177,1,0,0:0:0:0:
64,192,59265,1,0,0:0:0:0:
448,192,59265,1,0,0:0:0:0:
320,192,59265,1,0,0:0:0:0:
192,192,59442,1,0,0:0:0:0:
64,192,59618,1,0,0:0:0:0:
320,192,59618,1,0,0:0:0:0:
192,192,59795,1,0,0:0:0:0:
320,192,59883,1,0,0:0:0:0:
64,192,59971,1,0,0:0:0:0:
448,192,59971,1,0,0:0:0:0:
192,192,60059,1,0,0:0:0:0:
64,192,60148,1,0,0:0:0:0:
448,192,60148,128,0,60236:0:0:0:0:
320,192,60148,1,0,0:0:0:0:
448,192,60324,128,0,60412:0:0:0:0:
64,192,60324,1,0,0:0:0:0:
192,192,60324,1,0,0:0:0:0:
192,192,60501,1,0,0:0:0:0:
320,192,60501,1,0,0:0:0:0:
64,192,60677,1,0,0:0:0:0:
320,192,60677,1,0,0:0:0:0:
192,192,60853,1,0,0:0:0:0:
64,192,61030,1,0,0:0:0:0:
320,192,61030,1,0,0:0:0:0:
448,192,61206,1,0,0:0:0:0:
192,192,61206,1,0,0:0:0:0:
320,192,61295,1,0,0:0:0:0:
64,192,61383,1,0,0:0:0:0:
320,192,61471,1,0,0:0:0:0:
64,192,61559,128,0,61647:0:0:0:0:
192,192,61559,1,0,0:0:0:0:
448,192,61559,1,0,0:0:0:0:
64,192,61736,128,0,61824:0:0:0:0:
320,192,61736,1,0,0:0:0:0:
448,192,61736,1,0,0:0:0:0:
192,192,61912,1,0,0:0:0:0:
64,192,62089,1,0,0:0:0:0:
320,192,62089,1,0,0:0:0:0:
192,192,62265,1,0,0:0:0:0:
448,192,62265,1,0,0:0:0:0:
64,192,62441,1,0,0:0:0:0:
192,192,62441,1,0,0:0:0:0:
192,192,62618,1,0,0:0:0:0:
448,192,62618,1,0,0:0:0:0:
320,192,62706,1,0,0:0:0:0:
64,192,62794,1,0,0:0:0:0:
192,192,62794,1,0,0:0:0:0:
192,192,62971,1,0,0:0:0:0:
448,192,62971,1,0,0:0:0:0:
64,192,63147,1,0,0:0:0:0:
192,192,63147,1,0,0:0:0:0:
64,192,63324,1,0,0:0:0:0:
320,192,63324,1,0,0:0:0:0:
448,192,63500,128,0,63765:0:0:0:0:
192,192,63500,1,0,0:0:0:0:
320,192,63677,1,0,0:0:0:0:
64,192,63677,1,0,0:0:0:0:
64,192,63765,128,0,64030:0:0:0:0:
192,192,63765,1,0,0:0:0:0:
320,192,64030,128,0,64559:0:0:0:0:
192,192,64030,1,0,0:0:0:0:
448,192,64030,1,0,0:0:0:0:
64,192,64206,128,0,64735:0:0:0:0:
192,192,64206,1,0,0:0:0:0:
192,192,64471,1,0,0:0:0:0:
448,192,64559,128,0,64735:0:0:0:0:
192,192,64559,1,0,0:0:0:0:
192,192,64735,1,0,0:0:0:0:
320,192,64824,1,0,0:0:0:0:
448,192,64912,1,0,0:0:0:0:
64,192,64912,1,0,0:0:0:0:
192,192,64912,128,0,66323:0:0:0:0:
320,192,65088,1,0,0:0:0:0:
64,192,65088,1,0,0:0:0:0:
448,192,65265,1,0,0:0:0:0:
448,192,65353,1,0,0:0:0:0:
320,192,65441,1,0,0:0:0:0:
64,192,65441,1,0,0:0:0:0:
448,192,65618,1,0,0:0:0:0:
320,192,65618,1,0,0:0:0:0:
448,192,65794,1,0,0:0:0:0:
64,192,65794,1,0,0:0:0:0:
64,192,65882,1,0,0:0:0:0:
320,192,66059,1,0,0:0:0:0:
448,192,66147,1,0,0:0:0:0:
64,192,66147,1,0,0:0:0:0:
320,192,66323,128,0,67029:0:0:0:0:
64,192,66323,1,0,0:0:0:0:
192,192,66500,1,0,0:0:0:0:
448,192,66500,1,0,0:0:0:0:
64,192,66588,1,0,0:0:0:0:
64,192,66765,1,0,0:0:0:0:
192,192,66853,1,0,0:0:0:0:
448,192,66853,1,0,0:0:0:0:
448,192,67029,128,0,67735:0:0:0:0:
192,192,67029,1,0,0:0:0:0:
320,192,67206,1,0,0:0:0:0:
64,192,67206,1,0,0:0:0:0:
320,192,67294,1,0,0:0:0:0:
192,192,67382,1,0,0:0:0:0:
192,192,67470,1,0,0:0:0:0:
64,192,67559,1,0,0:0:0:0:
64,192,67647,1,0,0:0:0:0:
192,192,67735,1,0,0:0:0:0:
320,192,67735,128,0,69147:0:0:0:0:
64,192,67911,1,0,0:0:0:0:
448,192,67911,1,0,0:0:0:0:
192,192,68000,1,0,0:0:0:0:
64,192,68264,1,0,0:0:0:0:
448,192,68264,1,0,0:0:0:0:
192,192,68441,1,0,0:0:0:0:
64,192,68529,1,0,0:0:0:0:
448,192,68617,1,0,0:0:0:0:
192,192,68706,1,0,0:0:0:0:
64,192,68794,1,0,0:0:0:0:
448,192,68794,1,0,0:0:0:0:
64,192,68882,1,0,0:0:0:0:
448,192,68882,1,0,0:0:0:0:
192,192,68970,1,0,0:0:0:0:
192,192,69058,1,0,0:0:0:0:
448,192,69147,1,0,0:0:0:0:
64,192,69147,1,0,0:0:0:0:
64,192,69411,1,0,0:0:0:0:
192,192,69411,1,0,0:0:0:0:
448,192,69411,1,0,0:0:0:0:
64,192,69676,1,0,0:0:0:0:
320,192,69676,1,0,0:0:0:0:
448,192,69676,1,0,0:0:0:0:
64,192,69852,1,0,0:0:0:0:
192,192,69852,1,0,0:0:0:0:
448,192,69852,1,0,0:0:0:0:
448,192,70029,1,0,0:0:0:0:
320,192,70117,1,0,0:0:0:0:
64,192,70205,128,0,70470:0:0:0:0:
192,192,70205,128,0,70470:0:0:0:0:
448,192,70205,128,0,70470:0:0:0:0:
448,192,70558,1,0,0:0:0:0:
192,192,70558,1,0,0:0:0:0:
64,192,70558,1,0,0:0:0:0:
192,192,70735,1,0,0:0:0:0:
448,192,70735,1,0,0:0:0:0:
64,192,70911,1,0,0:0:0:0:
192,192,71088,1,0,0:0:0:0:
448,192,71088,1,0,0:0:0:0:
64,192,71264,1,0,0:0:0:0:
192,192,71441,1,0,0:0:0:0:
320,192,71441,128,0,71529:0:0:0:0:
448,192,71441,128,0,71529:0:0:0:0:
448,192,71617,128,0,71705:0:0:0:0:
320,192,71617,128,0,71705:0:0:0:0:
64,192,71617,1,0,0:0:0:0:
64,192,71793,1,0,0:0:0:0:
192,192,71793,1,0,0:0:0:0:
64,192,71970,1,0,0:0:0:0:
448,192,71970,1,0,0:0:0:0:
192,192,72146,1,0,0:0:0:0:
448,192,72146,1,0,0:0:0:0:
320,192,72235,1,0,0:0:0:0:
192,192,72323,1,0,0:0:0:0:
64,192,72323,1,0,0:0:0:0:
192,192,72499,1,0,0:0:0:0:
448,192,72499,1,0,0:0:0:0:
320,192,72676,1,0,0:0:0:0:
192,192,72676,1,0,0:0:0:0:
192,192,72852,128,0,72940:0:0:0:0:
320,192,72852,128,0,72940:0:0:0:0:
64,192,72852,1,0,0:0:0:0:
192,192,73029,128,0,73117:0:0:0:0:
320,192,73029,128,0,73117:0:0:0:0:
64,192,73029,1,0,0:0:0:0:
448,192,73205,1,0,0:0:0:0:
64,192,73205,1,0,0:0:0:0:
64,192,73381,1,0,0:0:0:0:
192,192,73381,128,0,73734:0:0:0:0:
320,192,73381,128,0,73734:0:0:0:0:
448,192,73734,1,0,0:0:0:0:
64,192,74087,1,0,0:0:0:0:
320,192,74087,128,0,74440:0:0:0:0:
448,192,74087,128,0,74440:0:0:0:0:
64,192,74440,1,0,0:0:0:0:
192,192,74528,1,0,0:0:0:0:
448,192,74617,1,0,0:0:0:0:
192,192,74793,1,0,0:0:0:0:
448,192,74793,128,0,75146:0:0:0:0:
64,192,74793,1,0,0:0:0:0:
64,192,74970,1,0,0:0:0:0:
320,192,74970,1,0,0:0:0:0:
64,192,75146,1,0,0:0:0:0:
320,192,75146,1,0,0:0:0:0:
192,192,75146,128,0,75499:0:0:0:0:
320,192,75322,1,0,0:0:0:0:
448,192,75411,1,0,0:0:0:0:
64,192,75499,1,0,0:0:0:0:
320,192,75499,128,0,75852:0:0:0:0:
64,192,75675,1,0,0:0:0:0:
192,192,75764,1,0,0:0:0:0:
448,192,75852,128,0,76205:0:0:0:0:
64,192,75852,1,0,0:0:0:0:
192,192,75940,1,0,0:0:0:0:
320,192,76028,1,0,0:0:0:0:
64,192,76205,1,0,0:0:0:0:
320,192,76205,1,0,0:0:0:0:
192,192,76381,1,0,0:0:0:0:
448,192,76558,1,0,0:0:0:0:
64,192,76558,1,0,0:0:0:0:
192,192,76646,1,0,0:0:0:0:
320,192,76646,1,0,0:0:0:0:
64,192,76734,1,0,0:0:0:0:
192,192,76793,1,0,0:0:0:0:
320,192,76852,1,0,0:0:0:0:
448,192,76911,1,0,0:0:0:0:
64,192,76911,1,0,0:0:0:0:
192,192,76969,1,0,0:0:0:0:
320,192,77028,1,0,0:0:0:0:
64,192,77087,1,0,0:0:0:0:
448,192,77087,1,0,0:0:0:0:
192,192,77263,1,0,0:0:0:0:
448,192,77263,1,0,0:0:0:0:
448,192,77440,1,0,0:0:0:0:
64,192,77440,1,0,0:0:0:0:
320,192,77499,1,0,0:0:0:0:
192,192,77558,1,0,0:0:0:0:
64,192,77616,1,0,0:0:0:0:
448,192,77616,1,0,0:0:0:0:
320,192,77616,1,0,0:0:0:0:
192,192,77793,1,0,0:0:0:0:
320,192,77793,1,0,0:0:0:0:
64,192,77969,1,0,0:0:0:0:
448,192,77969,1,0,0:0:0:0:
192,192,78057,1,0,0:0:0:0:
320,192,78057,1,0,0:0:0:0:
64,192,78146,1,0,0:0:0:0:
320,192,78234,1,0,0:0:0:0:
192,192,78234,1,0,0:0:0:0:
64,192,78322,1,0,0:0:0:0:
448,192,78322,1,0,0:0:0:0:
320,192,78381,1,0,0:0:0:0:
192,192,78440,1,0,0:0:0:0:
64,192,78499,1,0,0:0:0:0:
448,192,78499,1,0,0:0:0:0:
320,192,78557,1,0,0:0:0:0:
192,192,78616,1,0,0:0:0:0:
448,192,78675,1,0,0:0:0:0:
64,192,78675,1,0,0:0:0:0:
192,192,78734,1,0,0:0:0:0:
320,192,78793,1,0,0:0:0:0:
192,192,78852,1,0,0:0:0:0:
320,192,78910,1,0,0:0:0:0:
448,192,78969,1,0,0:0:0:0:
64,192,79028,1,0,0:0:0:0:
320,192,79028,1,0,0:0:0:0:
64,192,79204,1,0,0:0:0:0:
320,192,79204,1,0,0:0:0:0:
320,192,79293,1,0,0:0:0:0:
192,192,79293,1,0,0:0:0:0:
448,192,79381,128,0,79734:0:0:0:0:
64,192,79381,128,0,79734:0:0:0:0:
192,192,79734,1,0,0:0:0:0:
320,192,79734,1,0,0:0:0:0:
192,192,79822,1,0,0:0:0:0:
448,192,79822,1,0,0:0:0:0:
64,192,79910,1,0,0:0:0:0:
320,192,79910,1,0,0:0:0:0:
192,192,79998,1,0,0:0:0:0:
448,192,79998,1,0,0:0:0:0:
64,192,80087,128,0,80440:0:0:0:0:
320,192,80087,128,0,80263:0:0:0:0:
448,192,80263,1,0,0:0:0:0:
320,192,80351,1,0,0:0:0:0:
192,192,80440,1,0,0:0:0:0:
448,192,80440,1,0,0:0:0:0:
192,192,80616,1,0,0:0:0:0:
320,192,80704,128,0,80881:0:0:0:0:
64,192,80704,128,0,80881:0:0:0:0:
448,192,80704,128,0,80881:0:0:0:0:
320,192,80969,128,0,81145:0:0:0:0:
64,192,80969,128,0,81322:0:0:0:0:
192,192,80969,128,0,81234:0:0:0:0:
448,192,81145,1,0,0:0:0:0:
320,192,81234,1,0,0:0:0:0:
192,192,81322,1,0,0:0:0:0:
64,192,81410,1,0,0:0:0:0:
192,192,81498,1,0,0:0:0:0:
320,192,81498,1,0,0:0:0:0:
448,192,81498,1,0,0:0:0:0:
64,192,81851,1,0,0:0:0:0:
448,192,81851,1,0,0:0:0:0:
320,192,81910,1,0,0:0:0:0:
192,192,81969,1,0,0:0:0:0:
64,192,82028,1,0,0:0:0:0:
192,192,82086,1,0,0:0:0:0:
64,192,82145,1,0,0:0:0:0:
192,192,82204,1,0,0:0:0:0:
320,192,82263,1,0,0:0:0:0:
448,192,82322,1,0,0:0:0:0:
320,192,82381,1,0,0:0:0:0:
192,192,82439,1,0,0:0:0:0:
64,192,82498,1,0,0:0:0:0:
448,192,82557,1,0,0:0:0:0:
192,192,82557,1,0,0:0:0:0:
320,192,82616,1,0,0:0:0:0:
192,192,82675,1,0,0:0:0:0:
64,192,82733,1,0,0:0:0:0:
448,192,82792,1,0,0:0:0:0:
320,192,82851,1,0,0:0:0:0:
192,192,82910,1,0,0:0:0:0:
64,192,82969,1,0,0:0:0:0:
192,192,83028,1,0,0:0:0:0:
320,192,83086,1,0,0:0:0:0:
192,192,83145,1,0,0:0:0:0:
320,192,83204,1,0,0:0:0:0:
448,192,83263,1,0,0:0:0:0:
64,192,83263,1,0,0:0:0:0:
320,192,83322,1,0,0:0:0:0:
192,192,83380,1,0,0:0:0:0:
64,192,83439,1,0,0:0:0:0:
448,192,83498,1,0,0:0:0:0:
320,192,83557,1,0,0:0:0:0:
192,192,83616,1,0,0:0:0:0:
64,192,83675,1,0,0:0:0:0:
448,192,83733,1,0,0:0:0:0:
320,192,83792,1,0,0:0:0:0:
192,192,83851,1,0,0:0:0:0:
320,192,83910,1,0,0:0:0:0:
64,192,83969,1,0,0:0:0:0:
448,192,83969,1,0,0:0:0:0:
320,192,84027,1,0,0:0:0:0:
192,192,84086,1,0,0:0:0:0:
64,192,84145,1,0,0:0:0:0:
192,192,84204,1,0,0:0:0:0:
320,192,84263,1,0,0:0:0:0:
448,192,84322,1,0,0:0:0:0:
64,192,84380,1,0,0:0:0:0:
192,192,84439,1,0,0:0:0:0:
320,192,84498,1,0,0:0:0:0:
448,192,84557,1,0,0:0:0:0:
320,192,84616,1,0,0:0:0:0:
192,192,84674,1,0,0:0:0:0:
64,192,84674,1,0,0:0:0:0:
64,192,84851,1,0,0:0:0:0:
320,192,84851,1,0,0:0:0:0:
320,192,85027,1,0,0:0:0:0:
64,192,85027,1,0,0:0:0:0:
448,192,85116,1,0,0:0:0:0:
192,192,85116,1,0,0:0:0:0:
64,192,85204,1,0,0:0:0:0:
448,192,85204,1,0,0:0:0:0:
320,192,85292,1,0,0:0:0:0:
192,192,85292,1,0,0:0:0:0:
64,192,85380,128,0,86086:0:0:0:0:
448,192,85380,128,0,85733:0:0:0:0:
320,192,85733,1,0,0:0:0:0:
192,192,86086,1,0,0:0:0:0:
320,192,86086,1,0,0:0:0:0:
448,192,86086,1,0,0:0:0:0:
64,192,86262,1,0,0:0:0:0:
192,192,86262,1,0,0:0:0:0:
320,192,86262,1,0,0:0:0:0:
192,192,86439,1,0,0:0:0:0:
320,192,86439,1,0,0:0:0:0:
448,192,86439,1,0,0:0:0:0:
64,192,86792,1,0,0:0:0:0:
192,192,86792,1,0,0:0:0:0:
320,192,86792,1,0,0:0:0:0:
192,192,86968,1,0,0:0:0:0:
320,192,86968,1,0,0:0:0:0:
448,192,86968,1,0,0:0:0:0:
320,192,87145,1,0,0:0:0:0:
448,192,87145,1,0,0:0:0:0:
64,192,87145,1,0,0:0:0:0:
64,192,87498,1,0,0:0:0:0:
448,192,87498,128,0,87851:0:0:0:0:
64,192,87674,128,0,88027:0:0:0:0:
320,192,87674,1,0,0:0:0:0:
192,192,87851,1,0,0:0:0:0:
320,192,87851,128,0,88203:0:0:0:0:
448,192,88027,1,0,0:0:0:0:
192,192,88027,128,0,88380:0:0:0:0:
64,192,88203,1,0,0:0:0:0:
448,192,88203,128,0,88380:0:0:0:0:
64,192,88380,128,0,88468:0:0:0:0:
320,192,88380,1,0,0:0:0:0:
192,192,88468,1,0,0:0:0:0:
448,192,88556,1,0,0:0:0:0:
64,192,88556,128,0,88645:0:0:0:0:
320,192,88556,1,0,0:0:0:0:
