osu file format v14

[General]
AudioFilename: audio.mp3
AudioLeadIn: 0
PreviewTime: 59605
Countdown: 0
SampleSet: Normal
StackLeniency: 0.7
Mode: 1
LetterboxInBreaks: 0
WidescreenStoryboard: 0

[Editor]
DistanceSpacing: 1.2
BeatDivisor: 4
GridSize: 16
TimelineZoom: 3.299999

[Metadata]
Title:Nimensei*Uraomote Life!
TitleUnicode:にめんせい☆ウラオモテライフ!
Artist:Doma Umaru (CV. Tanaka Aimi)
ArtistUnicode:土間うまる (CV. 田中あいみ)
Creator:Tyistiana
Version:Oni
Source:干物妹!うまるちゃんR
Tags:himouto umaru chan r anime op opening tv size blackener
BeatmapID:1502287
BeatmapSetID:707590

[Difficulty]
HPDrainRate:5.5
CircleSize:5
OverallDifficulty:5.5
ApproachRate:5
SliderMultiplier:1.4
SliderTickRate:1

[Events]
//Background and Video events
0,0,"bg.png",0,0
//Break Periods
//Storyboard Layer 0 (Background)
//Storyboard Layer 1 (Fail)
//Storyboard Layer 2 (Pass)
//Storyboard Layer 3 (Foreground)
//Storyboard Sound Samples

[TimingPoints]
852,352.941176470588,4,1,0,50,1,0
2263,-100,4,1,0,85,0,0
27161,266.666666666667,4,1,0,60,1,0
27161,-133.333333333333,4,1,0,60,0,0
35694,352.941176470588,4,1,0,85,1,0
35694,-100,4,1,0,85,0,0
59693,-100,4,1,0,100,0,1
82282,-100,4,1,0,100,0,0

[HitObjects]
256,192,852,5,0,0:0:0:0:
256,192,1028,1,0,0:0:0:0:
256,192,1204,1,8,0:0:0:0:
256,192,1381,1,0,0:0:0:0:
256,192,1469,1,0,0:0:0:0:
256,192,1557,1,0,0:0:0:0:
256,192,1734,1,0,0:0:0:0:
256,192,1910,1,8,0:0:0:0:
256,192,2263,5,4,0:0:0:0:
256,192,3146,1,8,0:0:0:0:
256,192,3322,1,8,0:0:0:0:
256,192,3675,1,4,0:0:0:0:
256,192,4557,1,8,0:0:0:0:
256,192,4734,1,8,0:0:0:0:
256,192,5087,1,4,0:0:0:0:
256,192,6499,1,4,0:0:0:0:
256,192,7028,1,0,0:0:0:0:
256,192,7116,1,0,0:0:0:0:
256,192,7204,1,8,0:0:0:0:
256,192,7469,1,0,0:0:0:0:
256,192,7734,1,0,0:0:0:0:
256,192,7910,1,4,0:0:0:0:
256,192,8440,1,0,0:0:0:0:
256,192,8528,1,0,0:0:0:0:
256,192,8616,1,8,0:0:0:0:
256,192,9146,1,0,0:0:0:0:
256,192,9234,1,0,0:0:0:0:
256,192,9322,1,0,0:0:0:0:
256,192,9851,1,8,0:0:0:0:
256,192,9940,1,0,0:0:0:0:
256,192,10028,1,8,0:0:0:0:
256,192,10381,1,0,0:0:0:0:
256,192,10734,1,8,0:0:0:0:
256,192,10910,1,0,0:0:0:0:
256,192,11087,1,0,0:0:0:0:
256,192,11175,1,0,0:0:0:0:
256,192,11263,1,0,0:0:0:0:
256,192,11351,1,0,0:0:0:0:
256,192,11440,1,8,0:0:0:0:
256,192,11793,1,8,0:0:0:0:
256,192,12146,1,4,0:0:0:0:
256,192,12322,1,4,0:0:0:0:
256,192,12499,1,4,0:0:0:0:
256,192,12851,1,12,0:0:0:0:
256,192,13028,1,12,0:0:0:0:
256,192,13204,1,12,0:0:0:0:
256,192,13557,1,4,0:0:0:0:
256,192,13734,1,4,0:0:0:0:
256,192,13910,1,12,0:0:0:0:
256,192,14087,1,12,0:0:0:0:
256,192,14263,1,4,0:0:0:0:
256,192,14440,1,8,0:0:0:0:
256,192,14528,1,8,0:0:0:0:
256,192,14616,1,8,0:0:0:0:
256,192,14969,1,4,0:0:0:0:
256,192,15146,1,8,0:0:0:0:
256,192,15323,1,0,0:0:0:0:
256,192,15675,1,0,0:0:0:0:
256,192,15851,1,8,0:0:0:0:
256,192,16028,1,0,0:0:0:0:
256,192,16204,1,8,0:0:0:0:
256,192,16381,1,0,0:0:0:0:
256,192,16469,1,8,0:0:0:0:
256,192,16646,1,8,0:0:0:0:
256,192,16734,1,0,0:0:0:0:
256,192,16910,1,8,0:0:0:0:
256,192,17087,1,0,0:0:0:0:
256,192,17263,1,0,0:0:0:0:
256,192,17440,1,8,0:0:0:0:
256,192,17793,1,0,0:0:0:0:
256,192,17969,1,8,0:0:0:0:
256,192,18146,1,0,0:0:0:0:
256,192,18499,1,0,0:0:0:0:
256,192,18675,1,8,0:0:0:0:
256,192,18851,1,0,0:0:0:0:
256,192,19028,1,8,0:0:0:0:
256,192,19204,1,0,0:0:0:0:
256,192,19293,1,8,0:0:0:0:
256,192,19469,1,8,0:0:0:0:
256,192,19557,1,0,0:0:0:0:
256,192,19734,1,8,0:0:0:0:
256,192,19910,1,0,0:0:0:0:
256,192,20087,1,8,0:0:0:0:
256,192,20175,1,8,0:0:0:0:
256,192,20263,1,0,0:0:0:0:
256,192,20351,1,0,0:0:0:0:
256,192,20440,1,0,0:0:0:0:
256,192,20616,1,0,0:0:0:0:
256,192,20793,1,8,0:0:0:0:
256,192,20969,1,0,0:0:0:0:
256,192,21322,1,0,0:0:0:0:
256,192,21499,1,8,0:0:0:0:
256,192,21675,1,0,0:0:0:0:
256,192,21851,1,8,0:0:0:0:
256,192,22028,1,8,0:0:0:0:
256,192,22116,1,0,0:0:0:0:
256,192,22293,1,0,0:0:0:0:
256,192,22381,1,8,0:0:0:0:
256,192,22557,1,8,0:0:0:0:
256,192,22734,1,8,0:0:0:0:
256,192,22910,1,0,0:0:0:0:
256,192,23087,1,8,0:0:0:0:
256,192,23263,1,0,0:0:0:0:
256,192,23440,1,12,0:0:0:0:
256,192,23704,1,4,0:0:0:0:
256,192,23969,1,4,0:0:0:0:
256,192,24146,1,12,0:0:0:0:
256,192,24410,1,4,0:0:0:0:
256,192,24675,1,4,0:0:0:0:
256,192,24851,1,12,0:0:0:0:
256,192,25116,1,12,0:0:0:0:
256,192,25381,1,12,0:0:0:0:
256,192,25557,1,4,0:0:0:0:
256,192,25734,12,0,26969,0:0:0:0:
256,192,27161,5,0,0:0:0:0:
256,192,27427,1,8,0:0:0:0:
256,192,27694,1,0,0:0:0:0:
256,192,27961,1,8,0:0:0:0:
256,192,28227,1,0,0:0:0:0:
256,192,28405,1,0,0:0:0:0:
256,192,28494,1,8,0:0:0:0:
256,192,28694,1,0,0:0:0:0:
256,192,29027,1,0,0:0:0:0:
256,192,29294,1,0,0:0:0:0:
256,192,29561,1,8,0:0:0:0:
256,192,29738,1,0,0:0:0:0:
256,192,29827,1,0,0:0:0:0:
256,192,30094,1,8,0:0:0:0:
256,192,30361,1,0,0:0:0:0:
256,192,30538,1,0,0:0:0:0:
256,192,30627,1,8,0:0:0:0:
256,192,30827,1,8,0:0:0:0:
256,192,31072,1,8,0:0:0:0:
256,192,31161,1,0,0:0:0:0:
256,192,31361,1,12,0:0:0:0:
256,192,31694,1,0,0:0:0:0:
256,192,31961,1,8,0:0:0:0:
256,192,32228,1,0,0:0:0:0:
256,192,32494,1,8,0:0:0:0:
256,192,32672,1,0,0:0:0:0:
256,192,32761,1,8,0:0:0:0:
256,192,32938,1,8,0:0:0:0:
256,192,33294,1,8,0:0:0:0:
256,192,33472,1,0,0:0:0:0:
256,192,33561,1,0,0:0:0:0:
256,192,33827,1,8,0:0:0:0:
256,192,34094,1,0,0:0:0:0:
256,192,34272,1,8,0:0:0:0:
256,192,34361,1,0,0:0:0:0:
256,192,34538,1,12,0:0:0:0:
256,192,35694,1,0,0:0:0:0:
256,192,36399,1,0,0:0:0:0:
256,192,36752,1,8,0:0:0:0:
256,192,37105,5,0,0:0:0:0:
256,192,37282,1,0,0:0:0:0:
256,192,37370,1,0,0:0:0:0:
256,192,37458,1,8,0:0:0:0:
256,192,37635,1,8,0:0:0:0:
256,192,37811,1,0,0:0:0:0:
256,192,37988,1,0,0:0:0:0:
256,192,38076,1,0,0:0:0:0:
256,192,38164,1,0,0:0:0:0:
256,192,38341,1,0,0:0:0:0:
256,192,38694,1,0,0:0:0:0:
256,192,38870,1,8,0:0:0:0:
256,192,39046,1,8,0:0:0:0:
256,192,39135,1,8,0:0:0:0:
256,192,39223,1,0,0:0:0:0:
256,192,39399,1,0,0:0:0:0:
256,192,39576,1,8,0:0:0:0:
256,192,39929,1,0,0:0:0:0:
256,192,40282,1,8,0:0:0:0:
256,192,40458,1,0,0:0:0:0:
256,192,40546,1,0,0:0:0:0:
256,192,40635,1,0,0:0:0:0:
256,192,40988,1,0,0:0:0:0:
256,192,41164,1,0,0:0:0:0:
256,192,41252,1,0,0:0:0:0:
256,192,41341,1,8,0:0:0:0:
256,192,41517,1,0,0:0:0:0:
256,192,41694,1,8,0:0:0:0:
256,192,42046,1,8,0:0:0:0:
256,192,42223,1,0,0:0:0:0:
256,192,42399,1,8,0:0:0:0:
256,192,42488,1,8,0:0:0:0:
256,192,42576,1,8,0:0:0:0:
256,192,42752,1,0,0:0:0:0:
256,192,43105,1,8,0:0:0:0:
256,192,43282,1,0,0:0:0:0:
256,192,43458,1,8,0:0:0:0:
256,192,43811,1,8,0:0:0:0:
256,192,43988,1,0,0:0:0:0:
256,192,44341,1,0,0:0:0:0:
256,192,44517,1,8,0:0:0:0:
256,192,44693,1,0,0:0:0:0:
256,192,44870,1,8,0:0:0:0:
256,192,44958,1,0,0:0:0:0:
256,192,45046,1,8,0:0:0:0:
256,192,45223,1,8,0:0:0:0:
256,192,45752,1,8,0:0:0:0:
256,192,45929,1,0,0:0:0:0:
256,192,46105,1,0,0:0:0:0:
256,192,46282,1,8,0:0:0:0:
256,192,46458,1,0,0:0:0:0:
256,192,46546,1,0,0:0:0:0:
256,192,46635,1,8,0:0:0:0:
256,192,46811,1,0,0:0:0:0:
256,192,46988,1,8,0:0:0:0:
256,192,47252,1,0,0:0:0:0:
256,192,47517,1,0,0:0:0:0:
256,192,47693,1,8,0:0:0:0:
256,192,47958,1,0,0:0:0:0:
256,192,48046,1,8,0:0:0:0:
256,192,48399,1,4,0:0:0:0:
256,192,48576,1,8,0:0:0:0:
256,192,48752,1,0,0:0:0:0:
256,192,48929,1,8,0:0:0:0:
256,192,49017,1,8,0:0:0:0:
256,192,49105,1,0,0:0:0:0:
256,192,49282,1,8,0:0:0:0:
256,192,49458,1,0,0:0:0:0:
256,192,49635,1,12,0:0:0:0:
256,192,49811,1,0,0:0:0:0:
256,192,49988,1,12,0:0:0:0:
256,192,50164,1,0,0:0:0:0:
256,192,50341,1,8,0:0:0:0:
256,192,50429,1,8,0:0:0:0:
256,192,50517,1,0,0:0:0:0:
256,192,50693,1,12,0:0:0:0:
256,192,50870,1,12,0:0:0:0:
256,192,51223,1,0,0:0:0:0:
256,192,51399,1,0,0:0:0:0:
256,192,51576,1,8,0:0:0:0:
256,192,51752,1,8,0:0:0:0:
256,192,51929,1,0,0:0:0:0:
256,192,52105,1,0,0:0:0:0:
256,192,52193,1,0,0:0:0:0:
256,192,52282,1,8,0:0:0:0:
256,192,52458,1,8,0:0:0:0:
256,192,52811,1,8,0:0:0:0:
256,192,52988,1,0,0:0:0:0:
256,192,53164,1,0,0:0:0:0:
256,192,53341,1,8,0:0:0:0:
256,192,53693,1,8,0:0:0:0:
256,192,54046,1,0,0:0:0:0:
256,192,54223,1,0,0:0:0:0:
256,192,54399,1,12,0:0:0:0:
256,192,54752,1,8,0:0:0:0:
256,192,54929,1,0,0:0:0:0:
256,192,55105,1,12,0:0:0:0:
256,192,55458,1,0,0:0:0:0:
256,192,55635,1,0,0:0:0:0:
256,192,55811,1,12,0:0:0:0:
256,192,56164,1,8,0:0:0:0:
256,192,56341,1,0,0:0:0:0:
256,192,56517,1,12,0:0:0:0:
256,192,56693,1,0,0:0:0:0:
256,192,56870,1,8,0:0:0:0:
256,192,57223,1,0,0:0:0:0:
256,192,57399,1,0,0:0:0:0:
256,192,57576,1,0,0:0:0:0:
256,192,57752,1,0,0:0:0:0:
256,192,57929,1,0,0:0:0:0:
256,192,58282,1,12,0:0:0:0:
256,192,58546,1,12,0:0:0:0:
256,192,58811,1,4,0:0:0:0:
256,192,58988,1,12,0:0:0:0:
256,192,59341,1,12,0:0:0:0:
256,192,59693,1,4,0:0:0:0:
256,192,59870,1,0,0:0:0:0:
256,192,59958,1,0,0:0:0:0:
256,192,60046,1,0,0:0:0:0:
256,192,60223,1,8,0:0:0:0:
256,192,60399,1,0,0:0:0:0:
256,192,60576,1,8,0:0:0:0:
256,192,60664,1,0,0:0:0:0:
256,192,60752,1,8,0:0:0:0:
256,192,61105,1,8,0:0:0:0:
256,192,61282,1,0,0:0:0:0:
256,192,61370,1,0,0:0:0:0:
256,192,61458,1,8,0:0:0:0:
256,192,61635,1,0,0:0:0:0:
256,192,61811,1,8,0:0:0:0:
256,192,61988,1,8,0:0:0:0:
256,192,62076,1,0,0:0:0:0:
256,192,62164,1,8,0:0:0:0:
256,192,62517,1,0,0:0:0:0:
256,192,62693,1,8,0:0:0:0:
256,192,62782,1,0,0:0:0:0:
256,192,62870,1,8,0:0:0:0:
256,192,63046,1,0,0:0:0:0:
256,192,63223,1,8,0:0:0:0:
256,192,63488,1,8,0:0:0:0:
256,192,63752,1,0,0:0:0:0:
256,192,63841,1,0,0:0:0:0:
256,192,63929,1,8,0:0:0:0:
256,192,64105,1,8,0:0:0:0:
256,192,64193,1,0,0:0:0:0:
256,192,64370,1,0,0:0:0:0:
256,192,64458,1,8,0:0:0:0:
256,192,64635,1,0,0:0:0:0:
256,192,64988,1,8,0:0:0:0:
256,192,65164,1,0,0:0:0:0:
256,192,65252,1,0,0:0:0:0:
256,192,65341,1,0,0:0:0:0:
256,192,65517,1,0,0:0:0:0:
256,192,65693,1,8,0:0:0:0:
256,192,65870,1,0,0:0:0:0:
256,192,66046,1,8,0:0:0:0:
256,192,66223,1,8,0:0:0:0:
256,192,66311,1,0,0:0:0:0:
256,192,66488,1,0,0:0:0:0:
256,192,66576,1,8,0:0:0:0:
256,192,66752,1,8,0:0:0:0:
256,192,66929,1,8,0:0:0:0:
256,192,67017,1,0,0:0:0:0:
256,192,67193,1,0,0:0:0:0:
256,192,67282,1,8,0:0:0:0:
256,192,67458,1,8,0:0:0:0:
256,192,67811,1,0,0:0:0:0:
256,192,67899,1,0,0:0:0:0:
256,192,67988,1,0,0:0:0:0:
256,192,68164,1,8,0:0:0:0:
256,192,68429,1,0,0:0:0:0:
256,192,68693,1,0,0:0:0:0:
256,192,68870,1,8,0:0:0:0:
256,192,69046,1,0,0:0:0:0:
256,192,69135,1,8,0:0:0:0:
256,192,69223,1,0,0:0:0:0:
256,192,69399,1,0,0:0:0:0:
256,192,69576,1,12,0:0:0:0:
256,192,69841,1,12,0:0:0:0:
256,192,70105,1,4,0:0:0:0:
256,192,70282,1,12,0:0:0:0:
256,192,70635,1,12,0:0:0:0:
256,192,70988,1,12,0:0:0:0:
256,192,71164,1,0,0:0:0:0:
256,192,71252,1,0,0:0:0:0:
256,192,71341,1,0,0:0:0:0:
256,192,71517,1,8,0:0:0:0:
256,192,71693,1,0,0:0:0:0:
256,192,71870,1,8,0:0:0:0:
256,192,71958,1,0,0:0:0:0:
256,192,72046,1,8,0:0:0:0:
256,192,72399,1,8,0:0:0:0:
256,192,72576,1,8,0:0:0:0:
256,192,72664,1,0,0:0:0:0:
256,192,72752,1,0,0:0:0:0:
256,192,72929,1,0,0:0:0:0:
256,192,73105,1,8,0:0:0:0:
256,192,73282,1,8,0:0:0:0:
256,192,73370,1,0,0:0:0:0:
256,192,73458,1,8,0:0:0:0:
256,192,73811,1,4,0:0:0:0:
256,192,74164,1,8,0:0:0:0:
256,192,74517,1,4,0:0:0:0:
256,192,74870,1,8,0:0:0:0:
256,192,75223,1,4,0:0:0:0:
256,192,75399,1,0,0:0:0:0:
256,192,75576,1,8,0:0:0:0:
256,192,75752,1,8,0:0:0:0:
256,192,75929,1,4,0:0:0:0:
256,192,76105,1,0,0:0:0:0:
256,192,76282,1,8,0:0:0:0:
256,192,76370,1,8,0:0:0:0:
256,192,76458,1,8,0:0:0:0:
256,192,76635,1,4,0:0:0:0:
256,192,76988,1,8,0:0:0:0:
256,192,77341,1,0,0:0:0:0:
256,192,77517,1,0,0:0:0:0:
256,192,77693,1,8,0:0:0:0:
256,192,78046,1,4,0:0:0:0:
256,192,78399,1,8,0:0:0:0:
256,192,78752,1,0,0:0:0:0:
256,192,78929,1,8,0:0:0:0:
256,192,79105,1,8,0:0:0:0:
256,192,79282,1,8,0:0:0:0:
256,192,79458,1,0,0:0:0:0:
256,192,79635,1,0,0:0:0:0:
256,192,79723,1,0,0:0:0:0:
256,192,79811,1,8,0:0:0:0:
256,192,79988,1,8,0:0:0:0:
256,192,80164,1,0,0:0:0:0:
256,192,80341,1,0,0:0:0:0:
256,192,80429,1,0,0:0:0:0:
256,192,80517,1,8,0:0:0:0:
256,192,80693,1,8,0:0:0:0:
256,192,80870,1,4,0:0:0:0:
256,192,81135,1,4,0:0:0:0:
256,192,81399,1,4,0:0:0:0:
256,192,81576,1,12,0:0:0:0:
256,192,81752,1,0,0:0:0:0:
256,192,81841,1,0,0:0:0:0:
256,192,81929,1,8,0:0:0:0:
256,192,82282,1,0,0:0:0:0:
256,192,82811,1,0,0:0:0:0:
256,192,82899,1,0,0:0:0:0:
256,192,82988,1,8,0:0:0:0:
256,192,83517,1,8,0:0:0:0:
256,192,83605,1,8,0:0:0:0:
256,192,83693,1,0,0:0:0:0:
256,192,84223,1,0,0:0:0:0:
256,192,84311,1,0,0:0:0:0:
256,192,84399,1,8,0:0:0:0:
256,192,84752,1,0,0:0:0:0:
256,192,85105,1,8,0:0:0:0:
256,192,85282,1,0,0:0:0:0:
256,192,85370,1,0,0:0:0:0:
256,192,85458,1,0,0:0:0:0:
256,192,85635,1,0,0:0:0:0:
256,192,85811,1,8,0:0:0:0:
256,192,86164,1,8,0:0:0:0:
256,192,86517,1,4,0:0:0:0:
256,192,86693,1,4,0:0:0:0:
256,192,86870,1,4,0:0:0:0:
256,192,87223,1,12,0:0:0:0:
256,192,87399,1,12,0:0:0:0:
256,192,87576,1,12,0:0:0:0:
256,192,87929,1,4,0:0:0:0:
256,192,88105,1,4,0:0:0:0:
256,192,88282,1,12,0:0:0:0:
256,192,88458,1,12,0:0:0:0:
256,192,88635,1,4,0:0:0:0:
256,192,88811,1,8,0:0:0:0:
256,192,88988,1,0,0:0:0:0:
