osu file format v14

[General]
AudioFilename: audio.mp3
AudioLeadIn: 0
PreviewTime: 59604
Countdown: 0
SampleSet: Soft
StackLeniency: 0.7
Mode: 3
LetterboxInBreaks: 0
SpecialStyle: 0
WidescreenStoryboard: 1

[Editor]
DistanceSpacing: 1
BeatDivisor: 4
GridSize: 4
TimelineZoom: 1.8

[Metadata]
Title:Nimensei*Uraomote Life! (TV Size)
TitleUnicode:にめんせい☆ウラオモテライフ!(TV Size)
Artist:Doma Umaru (CV: Tanaka Aimi)
ArtistUnicode:土間うまる (CV: 田中あいみ)
Creator:Shima Rin
Version:Easy
Source:干物妹!うまるちゃんR
Tags:Himouto! Umaru-chan R Imouto Opening OP UMR FAMoss My Two Faced Little Sister Anime J-Pop Pop Japanese
BeatmapID:2650971
BeatmapSetID:1275911

[Difficulty]
HPDrainRate:6.5
CircleSize:4
OverallDifficulty:6.5
ApproachRate:9
SliderMultiplier:2.4
SliderTickRate:1

[Events]
//Background and Video events
0,0,"BG.jpg",0,0
//Break Periods
//Storyboard Layer 0 (Background)
//Storyboard Layer 1 (Fail)
//Storyboard Layer 2 (Pass)
//Storyboard Layer 3 (Foreground)
//Storyboard Layer 4 (Overlay)
//Storyboard Sound Samples

[TimingPoints]
852,352.941176470588,4,2,1,60,1,0
27161,266.666666666667,4,2,1,60,1,0
27161,-131.578947368421,4,2,1,60,0,0
35694,266.666666666667,4,2,1,60,1,0
35694,-131.578947368421,4,2,1,60,0,0
37105,352.941176470588,4,2,1,60,1,0
37105,-100,4,2,1,60,0,0
59693,-100,4,2,1,60,0,1
82281,-100,4,2,1,60,0,0

[HitObjects]
320,192,852,5,0,0:0:0:0:
64,192,1204,1,0,0:0:0:0:
448,192,1204,1,0,0:0:0:0:
192,192,1557,1,0,0:0:0:0:
320,192,1910,1,0,0:0:0:70:ClapReverb.wav
448,192,1910,1,0,0:0:0:0:
64,192,2263,128,2,3675:0:0:0:0:
192,192,2263,1,4,0:0:0:0:
320,192,3675,1,2,0:0:0:0:
448,192,3675,128,4,5087:0:0:0:0:
64,192,5087,1,4,0:0:0:0:
192,192,5087,128,2,6499:0:0:0:0:
320,192,6499,128,2,7910:0:0:0:0:
448,192,6499,1,4,0:0:0:0:
192,192,7204,1,2,0:0:0:0:
64,192,7469,1,2,0:0:0:0:
448,192,7734,1,2,0:0:0:0:
64,192,7910,128,2,8440:0:0:0:0:
192,192,7910,1,4,0:0:0:0:
192,192,8440,1,8,0:0:0:0:
320,192,8616,1,2,0:0:0:0:
448,192,8616,128,4,9146:0:0:0:0:
320,192,9146,1,8,0:0:0:0:
64,192,9322,1,2,0:0:0:0:
192,192,9322,128,4,9851:0:0:0:0:
64,192,9851,1,8,0:0:0:0:
320,192,10028,128,2,10734:0:0:0:0:
448,192,10028,1,4,0:0:0:0:
64,192,10381,1,8,0:0:0:0:
192,192,10734,1,6,0:0:0:0:
320,192,11087,1,8,0:0:0:0:
64,192,11440,1,6,0:0:0:0:
448,192,11793,1,2,0:0:0:0:
192,192,12146,128,2,12499:0:0:0:0:
320,192,12146,1,4,0:0:0:0:
64,192,12499,1,2,0:0:0:0:
192,192,12851,1,2,0:0:0:0:
320,192,12851,128,4,13204:0:0:0:0:
448,192,13204,1,2,0:0:0:0:
64,192,13557,128,2,13910:0:0:0:0:
192,192,13557,1,4,0:0:0:0:
320,192,13910,1,2,0:0:0:0:
448,192,13910,128,0,14263:0:0:0:0:
64,192,14263,128,2,14616:0:0:0:0:
192,192,14263,1,4,0:0:0:0:
64,192,14969,1,2,0:0:0:0:
448,192,14969,1,4,0:0:0:0:
192,192,15322,1,2,0:0:0:0:
320,192,15675,1,2,0:0:0:0:
192,192,16028,1,2,0:0:0:0:
448,192,16204,1,8,0:0:0:0:
320,192,16557,1,8,0:0:0:0:
192,192,16910,1,8,0:0:0:0:
64,192,17263,1,8,0:0:0:0:
448,192,17440,1,2,0:0:0:0:
192,192,17793,1,2,0:0:0:0:
320,192,17793,1,0,0:0:0:0:
64,192,18146,1,2,0:0:0:0:
448,192,18499,1,2,0:0:0:0:
64,192,18851,1,2,0:0:0:0:
320,192,19028,1,8,0:0:0:0:
448,192,19381,1,8,0:0:0:0:
192,192,19557,1,2,0:0:0:0:
320,192,19910,1,2,0:0:0:0:
64,192,20263,1,2,0:0:0:0:
320,192,20616,1,4,0:0:0:0:
448,192,20616,128,2,21322:0:0:0:0:
192,192,20969,1,2,0:0:0:0:
64,192,21322,1,2,0:0:0:0:
320,192,21499,1,8,0:0:0:0:
448,192,21675,1,2,0:0:0:0:
64,192,21851,128,8,23087:0:0:0:0:
192,192,21851,1,0,0:0:0:0:
192,192,23263,1,8,0:0:0:0:
320,192,23440,1,2,0:0:0:0:
448,192,23440,1,4,0:0:0:0:
192,192,23704,1,2,0:0:0:0:
448,192,23969,1,2,0:0:0:0:
64,192,24146,1,2,0:0:0:0:
192,192,24146,1,4,0:0:0:0:
320,192,24410,1,2,0:0:0:0:
64,192,24675,1,2,0:0:0:0:
320,192,24851,1,2,0:0:0:0:
448,192,24851,1,4,0:0:0:0:
192,192,25116,1,2,0:0:0:0:
448,192,25381,1,2,0:0:0:0:
64,192,25557,128,2,26263:0:0:0:0:
192,192,25557,1,4,0:0:0:0:
448,192,26263,128,0,26616:0:0:0:0:
64,192,27161,1,4,0:0:0:0:
448,192,27161,1,2,0:0:0:0:
320,192,27338,1,0,0:0:0:0:
192,192,27694,1,0,0:0:0:0:
192,192,29116,1,0,0:0:0:0:
448,192,29294,1,0,0:0:0:0:
320,192,30805,128,0,31161:0:0:0:0:
64,192,31338,1,4,0:0:0:0:
448,192,31338,1,8,0:0:0:0:
192,192,33561,1,2,0:0:0:0:
320,192,33827,1,0,0:0:0:0:
64,192,34094,1,8,0:0:0:0:
448,192,34272,1,2,0:0:0:0:
192,192,34538,1,2,0:0:0:0:
320,192,34538,128,4,35694:0:0:0:0:
64,192,35694,128,0,35960:0:0:0:0:
64,192,36405,128,0,36760:0:0:0:0:
320,192,36760,1,0,0:0:0:70:ClapReverb.wav
448,192,36760,1,0,0:0:0:0:
64,192,37105,1,2,0:0:0:0:
192,192,37105,1,4,0:0:0:0:
448,192,37457,1,8,0:0:0:0:
192,192,37810,1,2,0:0:0:0:
320,192,38163,1,8,0:0:0:0:
64,192,38340,1,2,0:0:0:0:
448,192,38340,128,4,38693:0:0:0:0:
192,192,38693,1,2,0:0:0:0:
320,192,38869,1,8,0:0:0:0:
448,192,39222,1,2,0:0:0:0:
64,192,39575,1,8,0:0:0:0:
192,192,39575,1,0,0:0:0:0:
320,192,39928,1,6,0:0:0:0:
192,192,40281,1,8,0:0:0:0:
448,192,40634,1,12,0:0:0:0:
320,192,40987,1,8,0:0:0:0:
64,192,41163,1,6,0:0:0:0:
448,192,41340,128,0,42399:0:0:0:0:
64,192,42399,1,8,0:0:0:0:
192,192,42399,1,0,0:0:0:0:
320,192,42752,1,2,0:0:0:0:
448,192,42752,1,4,0:0:0:0:
64,192,43105,1,8,0:0:0:0:
320,192,43457,1,2,0:0:0:0:
192,192,43810,1,8,0:0:0:0:
64,192,43987,128,2,44340:0:0:0:0:
448,192,43987,1,4,0:0:0:0:
320,192,44340,1,2,0:0:0:0:
192,192,44516,1,8,0:0:0:0:
64,192,44869,1,2,0:0:0:0:
192,192,45046,1,2,0:0:0:0:
320,192,45222,1,8,0:0:0:0:
448,192,45222,128,4,45575:0:0:0:0:
64,192,45752,1,2,0:0:0:0:
448,192,45928,1,8,0:0:0:0:
320,192,46281,1,12,0:0:0:0:
192,192,46634,1,8,0:0:0:0:
320,192,46810,1,2,0:0:0:0:
64,192,46987,1,8,0:0:0:0:
448,192,46987,1,0,0:0:0:0:
192,192,47252,1,2,0:0:0:0:
320,192,47516,1,2,0:0:0:0:
64,192,47693,1,2,0:0:0:0:
448,192,47693,1,4,0:0:0:0:
64,192,48399,1,2,0:0:0:0:
192,192,48399,1,4,0:0:0:0:
320,192,48752,1,12,0:0:0:0:
64,192,49104,1,8,0:0:0:0:
448,192,49104,1,0,0:0:0:0:
192,192,49457,1,8,0:0:0:0:
448,192,49634,1,6,0:0:0:0:
64,192,49987,1,6,0:0:0:0:
320,192,50340,1,0,0:0:0:0:
192,192,50693,1,12,0:0:0:0:
64,192,50869,1,4,0:0:0:0:
448,192,50869,128,8,51222:0:0:0:0:
192,192,51222,1,6,0:0:0:0:
320,192,51575,1,8,0:0:0:0:
64,192,51752,128,0,52104:0:0:0:0:
448,192,52104,1,2,0:0:0:0:
320,192,52281,1,8,0:0:0:0:
192,192,52457,128,6,52810:0:0:0:0:
448,192,52810,1,6,0:0:0:0:
64,192,53163,1,6,0:0:0:0:
320,192,53340,128,0,53693:0:0:0:0:
192,192,53693,128,6,54046:0:0:0:0:
448,192,54046,128,2,54399:0:0:0:0:
64,192,54399,1,8,0:0:0:0:
192,192,54399,1,4,0:0:0:0:
320,192,54752,128,2,55104:0:0:0:0:
64,192,55104,1,8,0:0:0:0:
448,192,55104,1,4,0:0:0:0:
192,192,55457,128,2,55810:0:0:0:0:
320,192,55810,1,4,0:0:0:0:
448,192,55810,1,8,0:0:0:0:
64,192,56163,128,2,56516:0:0:0:0:
192,192,56516,1,8,0:0:0:0:
320,192,56516,1,4,0:0:0:0:
448,192,56869,128,6,58281:0:0:0:0:
64,192,57222,1,2,0:0:0:0:
192,192,57575,1,2,0:0:0:0:
320,192,57928,1,2,0:0:0:0:
64,192,58281,1,2,0:0:0:0:
192,192,58281,1,4,0:0:0:0:
320,192,58546,1,6,0:0:0:0:
64,192,58810,1,6,0:0:0:0:
320,192,58987,1,6,0:0:0:0:
448,192,59163,1,0,0:0:0:0:
64,192,59340,128,8,59693:0:0:0:0:
192,192,59340,1,0,0:0:0:0:
320,192,59693,1,2,0:0:0:0:
448,192,59693,1,4,0:0:0:0:
64,192,60046,1,2,0:0:0:0:
192,192,60399,1,0,0:0:0:0:
320,192,60575,1,12,0:0:0:0:
64,192,60752,1,2,0:0:0:0:
448,192,60752,1,4,0:0:0:0:
192,192,61104,1,2,0:0:0:0:
448,192,61457,1,2,0:0:0:0:
320,192,61810,1,0,0:0:0:0:
192,192,61987,1,12,0:0:0:0:
64,192,62163,1,2,0:0:0:0:
448,192,62163,1,4,0:0:0:0:
320,192,62516,1,2,0:0:0:0:
192,192,62869,1,2,0:0:0:0:
448,192,63222,1,2,0:0:0:0:
64,192,63575,1,2,0:0:0:0:
320,192,63928,1,2,0:0:0:0:
448,192,63928,1,4,0:0:0:0:
192,192,64193,1,6,0:0:0:0:
64,192,64457,1,12,0:0:0:0:
320,192,64634,1,2,0:0:0:0:
448,192,64634,128,4,64987:0:0:0:0:
64,192,64987,1,8,0:0:0:0:
192,192,65340,1,2,0:0:0:0:
320,192,65340,1,4,0:0:0:0:
448,192,65693,1,2,0:0:0:0:
64,192,66046,1,2,0:0:0:0:
320,192,66399,1,0,0:0:0:0:
64,192,66752,1,2,0:0:0:0:
192,192,66752,1,4,0:0:0:0:
320,192,67104,1,0,0:0:0:0:
64,192,67457,128,2,67810:0:0:0:0:
448,192,67457,1,4,0:0:0:0:
320,192,68163,1,2,0:0:0:0:
448,192,68163,1,4,0:0:0:0:
64,192,68516,1,0,0:0:0:0:
192,192,68869,1,2,0:0:0:0:
320,192,69222,1,8,0:0:0:0:
64,192,69575,1,4,0:0:0:0:
448,192,69575,1,2,0:0:0:0:
192,192,69840,1,6,0:0:0:0:
320,192,70104,1,6,0:0:0:0:
64,192,70281,1,4,0:0:0:0:
448,192,70281,128,8,70634:0:0:0:0:
192,192,70634,1,12,0:0:0:0:
320,192,70987,1,2,0:0:0:0:
448,192,70987,1,4,0:0:0:0:
64,192,71340,1,2,0:0:0:0:
192,192,71693,1,2,0:0:0:0:
448,192,71869,1,12,0:0:0:0:
64,192,72046,1,2,0:0:0:0:
320,192,72046,1,4,0:0:0:0:
192,192,72399,1,2,0:0:0:0:
448,192,72752,1,2,0:0:0:0:
320,192,73104,1,2,0:0:0:0:
64,192,73281,1,12,0:0:0:0:
192,192,73457,1,2,0:0:0:0:
448,192,73457,1,4,0:0:0:0:
64,192,73810,1,2,0:0:0:0:
320,192,73810,128,0,74163:0:0:0:0:
192,192,74516,128,2,74869:0:0:0:0:
448,192,74516,1,4,0:0:0:0:
320,192,75222,1,2,0:0:0:0:
448,192,75222,1,4,0:0:0:0:
64,192,75575,1,8,0:0:0:0:
192,192,75928,1,2,0:0:0:0:
320,192,75928,1,4,0:0:0:0:
448,192,76281,1,2,0:0:0:0:
64,192,76634,128,4,77340:0:0:0:0:
192,192,76634,1,8,0:0:0:0:
448,192,76987,1,8,0:0:0:0:
320,192,77340,1,8,0:0:0:0:
192,192,77693,1,8,0:0:0:0:
64,192,78046,1,8,0:0:0:0:
448,192,78046,128,0,78752:0:0:0:0:
320,192,78399,1,8,0:0:0:0:
192,192,78752,1,8,0:0:0:0:
64,192,79104,1,8,0:0:0:0:
320,192,79457,1,2,0:0:0:0:
64,192,79810,128,8,80163:0:0:0:0:
192,192,79810,1,4,0:0:0:0:
448,192,80163,1,2,0:0:0:0:
192,192,80516,128,8,80869:0:0:0:0:
320,192,80516,1,4,0:0:0:0:
64,192,80869,1,8,0:0:0:0:
448,192,80869,1,4,0:0:0:0:
320,192,81134,1,6,0:0:0:0:
192,192,81399,1,6,0:0:0:0:
64,192,81575,1,4,0:0:0:0:
448,192,81575,1,2,0:0:0:0:
192,192,81928,1,2,0:0:0:0:
320,192,81928,1,0,0:0:0:70:ClapReverb.wav
64,192,82281,128,4,82987:0:0:0:0:
448,192,82281,1,0,0:0:0:0:
192,192,82987,1,2,0:0:0:0:
320,192,82987,128,4,83693:0:0:0:0:
192,192,83693,128,2,84399:0:0:0:0:
448,192,83693,1,4,0:0:0:0:
64,192,84399,1,2,0:0:0:0:
320,192,84399,128,4,85104:0:0:0:0:
448,192,85104,1,2,0:0:0:0:
64,192,85457,1,8,0:0:0:0:
320,192,85810,128,12,86163:0:0:0:0:
192,192,86163,128,6,86516:0:0:0:0:
64,192,86516,1,2,0:0:0:0:
448,192,86516,128,4,86869:0:0:0:0:
192,192,86869,1,2,0:0:0:0:
64,192,87222,128,2,87575:0:0:0:0:
448,192,87222,1,4,0:0:0:0:
320,192,87575,1,2,0:0:0:0:
192,192,87928,128,4,88281:0:0:0:0:
448,192,87928,1,2,0:0:0:0:
64,192,88281,1,2,0:0:0:0:
320,192,88281,128,0,88634:0:0:0:0:
64,192,88634,1,2,0:0:0:0:
448,192,88634,1,4,0:0:0:0:
192,192,88987,1,2,0:0:0:0:
320,192,88987,1,4,0:0:0:0:
