osu file format v14

[General]
AudioFilename: audio.mp3
AudioLeadIn: 0
PreviewTime: 59604
Countdown: 0
SampleSet: Soft
StackLeniency: 0.7
Mode: 3
LetterboxInBreaks: 0
SpecialStyle: 0
WidescreenStoryboard: 0

[Editor]
DistanceSpacing: 1
BeatDivisor: 6
GridSize: 4
TimelineZoom: 1.8

[Metadata]
Title:Nimensei*Uraomote Life! (TV Size)
TitleUnicode:にめんせい☆ウラオモテライフ!(TV Size)
Artist:Doma Umaru (CV: Tanaka Aimi)
ArtistUnicode:土間うまる (CV: 田中あいみ)
Creator:Shima Rin
Version:DaraDara
Source:干物妹!うまるちゃんR
Tags:Himouto! Umaru-chan R Imouto Opening OP UMR FAMoss My Two Faced Little Sister Anime J-Pop Pop Japanese
BeatmapID:2650970
BeatmapSetID:1275911

[Difficulty]
HPDrainRate:8
CircleSize:4
OverallDifficulty:8
ApproachRate:9
SliderMultiplier:2.4
SliderTickRate:1

[Events]
//Background and Video events
0,0,"BG.jpg",0,0
//Break Periods
//Storyboard Layer 0 (Background)
//Storyboard Layer 1 (Fail)
//Storyboard Layer 2 (Pass)
//Storyboard Layer 3 (Foreground)
//Storyboard Layer 4 (Overlay)
//Storyboard Sound Samples

[TimingPoints]
852,352.941176470588,4,2,1,60,1,0
11440,-80,4,2,1,60,0,0
11616,-133.333333333333,4,2,1,60,0,0
11793,-80,4,2,1,60,0,0
11969,-133.333333333333,4,2,1,60,0,0
12146,-80,4,2,1,60,0,0
12234,-133.333333333333,4,2,1,60,0,0
12322,-80,4,2,1,60,0,0
12410,-133.333333333333,4,2,1,60,0,0
12499,-80,4,2,1,60,0,0
12675,-133.333333333333,4,2,1,60,0,0
12851,-80,4,2,1,60,0,0
12940,-133.333333333333,4,2,1,60,0,0
13028,-80,4,2,1,60,0,0
13116,-133.333333333333,4,2,1,60,0,0
13204,-80,4,2,1,60,0,0
13381,-133.333333333333,4,2,1,60,0,0
13557,-80,4,2,1,60,0,0
13646,-133.333333333333,4,2,1,60,0,0
13734,-80,4,2,1,60,0,0
13822,-133.333333333333,4,2,1,60,0,0
13910,-80,4,2,1,60,0,0
13999,-133.333333333333,4,2,1,60,0,0
14087,-80,4,2,1,60,0,0
14175,-133.333333333333,4,2,1,60,0,0
14263,-100,4,2,1,60,0,0
23440,-80,4,2,1,60,0,0
23572,-133.333333333333,4,2,1,60,0,0
23704,-80,4,2,1,60,0,0
23837,-133.333333333333,4,2,1,60,0,0
23969,-80,4,2,1,60,0,0
24057,-133.333333333333,4,2,1,60,0,0
24146,-80,4,2,1,60,0,0
24278,-133.333333333333,4,2,1,60,0,0
24410,-80,4,2,1,60,0,0
24543,-133.333333333333,4,2,1,60,0,0
24675,-80,4,2,1,60,0,0
24763,-133.333333333333,4,2,1,60,0,0
24851,-80,4,2,1,60,0,0
24984,-133.333333333333,4,2,1,60,0,0
25116,-80,4,2,1,60,0,0
25249,-133.333333333333,4,2,1,60,0,0
25381,-80,4,2,1,60,0,0
25469,-133.333333333333,4,2,1,60,0,0
25557,-100,4,2,1,60,0,0
27161,266.666666666667,4,2,1,60,1,0
27161,-153.846153846154,4,2,1,60,0,0
35694,266.666666666667,4,2,1,60,1,0
35694,-142.857142857143,4,2,1,60,0,0
37105,352.941176470588,4,2,1,60,1,0
37105,-100,4,2,1,60,0,0
54046,-80,4,2,1,60,0,0
54134,-133.333333333333,4,2,1,60,0,0
54222,-80,4,2,1,60,0,0
54310,-133.333333333333,4,2,1,60,0,0
54399,-100,4,2,1,60,0,0
54752,-80,4,2,1,60,0,0
54840,-133.333333333333,4,2,1,60,0,0
54928,-80,4,2,1,60,0,0
55016,-133.333333333333,4,2,1,60,0,0
55104,-100,4,2,1,60,0,0
55457,-80,4,2,1,60,0,0
55546,-133.333333333333,4,2,1,60,0,0
55634,-80,4,2,1,60,0,0
55722,-133.333333333333,4,2,1,60,0,0
55810,-100,4,2,1,60,0,0
58281,-80,4,2,1,60,0,0
58413,-133.333333333333,4,2,1,60,0,0
58546,-80,4,2,1,60,0,0
58678,-133.333333333333,4,2,1,60,0,0
58810,-80,4,2,1,60,0,0
58899,-133.333333333333,4,2,1,60,0,0
58987,-80,4,2,1,60,0,0
59163,-133.333333333333,4,2,1,60,0,0
59340,-80,4,2,1,60,0,0
59516,-133.333333333333,4,2,1,60,0,0
59693,-100,4,2,1,60,0,1
69576,-80,4,2,1,60,0,1
69707,-133.333333333333,4,2,1,60,0,1
69840,-80,4,2,1,60,0,1
69972,-133.333333333333,4,2,1,60,0,1
70104,-80,4,2,1,60,0,1
70193,-133.333333333333,4,2,1,60,0,1
70281,-80,4,2,1,60,0,1
70369,-133.333333333333,4,2,1,60,0,1
70457,-100,4,2,1,60,0,1
70634,-80,4,2,1,60,0,1
70810,-133.333333333333,4,2,1,60,0,1
70987,-100,4,2,1,60,0,1
73810,-80,4,2,1,60,0,1
73987,-133.333333333333,4,2,1,60,0,1
74163,-100,4,2,1,60,0,1
74516,-80,4,2,1,60,0,1
74693,-133.333333333333,4,2,1,60,0,1
74869,-100,4,2,1,60,0,1
82281,-100,4,2,1,60,0,0
85810,-80,4,2,1,60,0,0
85987,-133.333333333333,4,2,1,60,0,0
86163,-80,4,2,1,60,0,0
86340,-133.333333333333,4,2,1,60,0,0
86516,-80,4,2,1,60,0,0
86604,-133.333333333333,4,2,1,60,0,0
86693,-80,4,2,1,60,0,0
86781,-133.333333333333,4,2,1,60,0,0
86869,-80,4,2,1,60,0,0
87046,-133.333333333333,4,2,1,60,0,0
87222,-80,4,2,1,60,0,0
87310,-133.333333333333,4,2,1,60,0,0
87399,-80,4,2,1,60,0,0
87487,-133.333333333333,4,2,1,60,0,0
87575,-80,4,2,1,60,0,0
87752,-133.333333333333,4,2,1,60,0,0
87928,-80,4,2,1,60,0,0
88016,-133.333333333333,4,2,1,60,0,0
88104,-80,4,2,1,60,0,0
88193,-133.333333333333,4,2,1,60,0,0
88281,-80,4,2,1,60,0,0
88369,-133.333333333333,4,2,1,60,0,0
88457,-80,4,2,1,60,0,0
88546,-133.333333333333,4,2,1,60,0,0
88634,-100,4,2,1,60,0,0

[HitObjects]
64,192,852,5,0,0:0:0:0:
448,192,852,1,0,0:0:0:0:
192,192,1028,1,0,0:0:0:0:
320,192,1028,1,0,0:0:0:0:
64,192,1204,1,0,0:0:0:0:
192,192,1204,1,0,0:0:0:0:
448,192,1204,1,0,0:0:0:0:
320,192,1381,1,0,0:0:0:0:
448,192,1381,1,0,0:0:0:0:
64,192,1469,1,0,0:0:0:0:
192,192,1469,1,0,0:0:0:0:
320,192,1557,1,0,0:0:0:0:
448,192,1557,1,0,0:0:0:0:
64,192,1646,1,0,0:0:0:0:
192,192,1646,1,0,0:0:0:0:
320,192,1734,1,0,0:0:0:0:
448,192,1734,1,0,0:0:0:0:
192,192,1822,1,0,0:0:0:0:
64,192,1910,1,0,0:0:0:70:ClapReverb.wav
320,192,1910,1,0,0:0:0:0:
448,192,1910,1,0,0:0:0:0:
64,192,2263,128,2,3675:0:0:0:0:
192,192,2263,1,4,0:0:0:0:
448,192,2263,1,0,0:0:0:0:
192,192,3675,128,2,5087:0:0:0:0:
320,192,3675,1,4,0:0:0:0:
448,192,3675,1,0,0:0:0:0:
64,192,5087,1,4,0:0:0:0:
320,192,5087,128,2,6499:0:0:0:0:
448,192,5087,1,0,0:0:0:0:
64,192,6499,1,2,0:0:0:0:
192,192,6499,1,4,0:0:0:0:
448,192,6499,128,0,7910:0:0:0:0:
64,192,7028,1,2,0:0:0:0:
320,192,7028,1,0,0:0:0:0:
192,192,7116,1,2,0:0:0:0:
64,192,7204,1,2,0:0:0:0:
320,192,7204,1,0,0:0:0:0:
192,192,7469,1,2,0:0:0:0:
320,192,7469,1,0,0:0:0:0:
64,192,7734,1,2,0:0:0:0:
192,192,7734,1,0,0:0:0:0:
64,192,7910,128,2,8440:0:0:0:0:
192,192,7910,1,4,0:0:0:0:
320,192,7910,1,0,0:0:0:0:
320,192,8440,1,8,0:0:0:0:
448,192,8440,1,0,0:0:0:0:
192,192,8528,1,8,0:0:0:0:
64,192,8616,1,2,0:0:0:0:
320,192,8616,1,4,0:0:0:0:
448,192,8616,128,0,9146:0:0:0:0:
64,192,9146,1,8,0:0:0:0:
192,192,9146,1,0,0:0:0:0:
320,192,9234,1,8,0:0:0:0:
64,192,9322,1,2,0:0:0:0:
192,192,9322,128,4,9851:0:0:0:0:
448,192,9322,1,0,0:0:0:0:
64,192,9851,1,8,0:0:0:0:
320,192,9851,1,0,0:0:0:0:
448,192,9940,1,8,0:0:0:0:
64,192,10028,1,2,0:0:0:0:
192,192,10028,1,4,0:0:0:0:
320,192,10028,128,0,10734:0:0:0:0:
64,192,10381,1,8,0:0:0:0:
448,192,10381,1,0,0:0:0:0:
192,192,10557,1,0,0:0:0:0:
64,192,10734,1,2,0:0:0:0:
192,192,10734,1,4,0:0:0:0:
448,192,10734,1,0,0:0:0:0:
320,192,10910,1,8,0:0:0:0:
448,192,10910,1,0,0:0:0:0:
64,192,11087,1,8,0:0:0:0:
192,192,11087,1,0,0:0:0:0:
320,192,11175,1,8,0:0:0:0:
448,192,11175,1,0,0:0:0:0:
64,192,11263,1,8,0:0:0:0:
192,192,11263,1,0,0:0:0:0:
320,192,11351,1,8,0:0:0:0:
64,192,11440,1,2,0:0:0:0:
192,192,11440,1,4,0:0:0:0:
448,192,11440,128,0,11616:0:0:0:0:
64,192,11793,1,2,0:0:0:0:
192,192,11793,1,0,0:0:0:0:
320,192,11793,128,0,11969:0:0:0:0:
64,192,12146,1,2,0:0:0:0:
192,192,12146,1,4,0:0:0:0:
448,192,12146,1,0,0:0:0:0:
64,192,12322,1,2,0:0:0:0:
192,192,12322,1,0,0:0:0:0:
448,192,12322,1,0,0:0:0:0:
64,192,12499,1,2,0:0:0:0:
192,192,12499,1,0,0:0:0:0:
448,192,12499,1,0,0:0:0:0:
64,192,12851,1,2,0:0:0:0:
320,192,12851,1,4,0:0:0:0:
448,192,12851,1,0,0:0:0:0:
64,192,13028,1,2,0:0:0:0:
320,192,13028,1,0,0:0:0:0:
448,192,13028,1,0,0:0:0:0:
64,192,13204,1,2,0:0:0:0:
320,192,13204,1,0,0:0:0:0:
448,192,13204,1,0,0:0:0:0:
64,192,13557,1,2,0:0:0:0:
192,192,13557,1,4,0:0:0:0:
448,192,13557,1,0,0:0:0:0:
64,192,13734,1,2,0:0:0:0:
192,192,13734,1,0,0:0:0:0:
320,192,13734,1,0,0:0:0:0:
192,192,13910,1,2,0:0:0:0:
320,192,13910,1,0,0:0:0:0:
448,192,13910,1,0,0:0:0:0:
64,192,14087,1,2,0:0:0:0:
320,192,14087,1,0,0:0:0:0:
448,192,14087,1,0,0:0:0:0:
64,192,14263,1,2,0:0:0:0:
192,192,14263,1,4,0:0:0:0:
448,192,14263,1,0,0:0:0:0:
64,192,14440,1,2,0:0:0:0:
448,192,14440,1,0,0:0:0:0:
192,192,14528,1,2,0:0:0:0:
320,192,14528,1,0,0:0:0:0:
64,192,14616,1,2,0:0:0:0:
448,192,14616,1,0,0:0:0:0:
192,192,14704,1,2,0:0:0:0:
320,192,14704,1,0,0:0:0:0:
64,192,14793,1,2,0:0:0:0:
448,192,14793,1,0,0:0:0:0:
192,192,14881,1,2,0:0:0:0:
64,192,14969,1,2,0:0:0:0:
320,192,14969,1,4,0:0:0:0:
448,192,14969,128,0,15146:0:0:0:0:
192,192,15146,1,8,0:0:0:0:
64,192,15322,1,2,0:0:0:0:
320,192,15322,1,0,0:0:0:0:
448,192,15322,128,0,15499:0:0:0:0:
64,192,15499,1,8,0:0:0:0:
192,192,15675,1,2,0:0:0:0:
320,192,15675,1,0,0:0:0:0:
448,192,15675,128,0,15851:0:0:0:0:
64,192,15851,1,8,0:0:0:0:
192,192,16028,128,2,16204:0:0:0:0:
320,192,16028,1,0,0:0:0:0:
448,192,16028,1,0,0:0:0:0:
64,192,16204,1,8,0:0:0:0:
320,192,16204,1,0,0:0:0:0:
448,192,16204,128,0,16381:0:0:0:0:
192,192,16381,1,2,0:0:0:0:
64,192,16557,1,8,0:0:0:0:
320,192,16557,1,0,0:0:0:0:
448,192,16557,128,0,16734:0:0:0:0:
64,192,16734,1,2,0:0:0:0:
192,192,16910,1,8,0:0:0:0:
320,192,16910,1,0,0:0:0:0:
448,192,16910,128,0,17087:0:0:0:0:
64,192,17087,1,2,0:0:0:0:
320,192,17087,1,0,0:0:0:0:
64,192,17263,1,8,0:0:0:0:
192,192,17263,1,0,0:0:0:0:
320,192,17263,128,0,17440:0:0:0:0:
64,192,17440,128,2,17616:0:0:0:0:
192,192,17440,1,0,0:0:0:0:
448,192,17440,1,0,0:0:0:0:
320,192,17616,1,8,0:0:0:0:
64,192,17793,128,2,17969:0:0:0:0:
192,192,17793,1,0,0:0:0:0:
448,192,17793,1,0,0:0:0:0:
320,192,17969,1,8,0:0:0:0:
64,192,18146,128,2,18322:0:0:0:0:
192,192,18146,1,0,0:0:0:0:
448,192,18146,1,0,0:0:0:0:
448,192,18322,1,8,0:0:0:0:
64,192,18499,128,2,18675:0:0:0:0:
192,192,18499,1,0,0:0:0:0:
320,192,18499,1,0,0:0:0:0:
448,192,18675,1,8,0:0:0:0:
64,192,18851,1,2,0:0:0:0:
192,192,18851,1,0,0:0:0:0:
320,192,18851,128,0,19028:0:0:0:0:
64,192,19028,1,8,0:0:0:0:
192,192,19028,1,0,0:0:0:0:
448,192,19028,128,0,19204:0:0:0:0:
320,192,19204,1,2,0:0:0:0:
64,192,19381,1,8,0:0:0:0:
192,192,19381,1,0,0:0:0:0:
448,192,19381,128,0,19557:0:0:0:0:
64,192,19557,1,2,0:0:0:0:
192,192,19557,1,0,0:0:0:0:
320,192,19557,128,0,19734:0:0:0:0:
448,192,19646,1,2,0:0:0:0:
64,192,19734,1,8,0:0:0:0:
192,192,19910,128,2,20087:0:0:0:0:
320,192,19910,1,0,0:0:0:0:
448,192,19910,1,0,0:0:0:0:
64,192,20087,1,8,0:0:0:0:
320,192,20087,1,0,0:0:0:0:
448,192,20175,1,8,0:0:0:0:
64,192,20263,128,2,20440:0:0:0:0:
192,192,20263,1,0,0:0:0:0:
320,192,20263,1,0,0:0:0:0:
448,192,20351,1,2,0:0:0:0:
192,192,20440,1,8,0:0:0:0:
320,192,20528,1,2,0:0:0:0:
64,192,20616,1,4,0:0:0:0:
192,192,20616,1,2,0:0:0:0:
448,192,20616,128,0,21322:0:0:0:0:
320,192,20793,1,8,0:0:0:0:
64,192,20969,1,2,0:0:0:0:
192,192,20969,1,0,0:0:0:0:
320,192,21057,1,2,0:0:0:0:
64,192,21146,1,8,0:0:0:0:
192,192,21322,1,2,0:0:0:0:
320,192,21322,1,0,0:0:0:0:
64,192,21499,1,8,0:0:0:0:
192,192,21499,1,0,0:0:0:0:
320,192,21499,128,0,21675:0:0:0:0:
64,192,21675,1,2,0:0:0:0:
192,192,21675,1,0,0:0:0:0:
448,192,21675,128,0,21851:0:0:0:0:
320,192,21763,1,2,0:0:0:0:
64,192,21851,1,8,0:0:0:0:
192,192,21851,128,0,23087:0:0:0:0:
320,192,22028,1,2,0:0:0:0:
448,192,22028,1,0,0:0:0:0:
64,192,22204,1,8,0:0:0:0:
320,192,22381,1,2,0:0:0:0:
448,192,22381,1,0,0:0:0:0:
64,192,22469,1,2,0:0:0:0:
320,192,22557,1,8,0:0:0:0:
64,192,22734,1,2,0:0:0:0:
448,192,22734,1,0,0:0:0:0:
320,192,22910,1,8,0:0:0:0:
64,192,23087,1,2,0:0:0:0:
448,192,23087,1,0,0:0:0:0:
192,192,23263,1,8,0:0:0:0:
320,192,23351,1,2,0:0:0:0:
64,192,23440,1,2,0:0:0:0:
192,192,23440,1,4,0:0:0:0:
448,192,23440,1,0,0:0:0:0:
64,192,23704,1,2,0:0:0:0:
192,192,23704,1,0,0:0:0:0:
320,192,23704,1,0,0:0:0:0:
64,192,23969,1,2,0:0:0:0:
192,192,23969,1,0,0:0:0:0:
448,192,23969,1,0,0:0:0:0:
64,192,24146,1,2,0:0:0:0:
320,192,24146,1,4,0:0:0:0:
448,192,24146,1,0,0:0:0:0:
192,192,24410,1,2,0:0:0:0:
320,192,24410,1,0,0:0:0:0:
448,192,24410,1,0,0:0:0:0:
64,192,24675,1,2,0:0:0:0:
320,192,24675,1,0,0:0:0:0:
448,192,24675,1,0,0:0:0:0:
64,192,24851,1,2,0:0:0:0:
192,192,24851,1,4,0:0:0:0:
448,192,24851,1,0,0:0:0:0:
64,192,25116,1,2,0:0:0:0:
192,192,25116,1,0,0:0:0:0:
448,192,25116,1,0,0:0:0:0:
192,192,25381,1,2,0:0:0:0:
320,192,25381,1,0,0:0:0:0:
448,192,25381,1,0,0:0:0:0:
64,192,25557,128,2,26616:0:0:0:0:
192,192,25557,128,4,26616:0:0:0:0:
448,192,25557,128,0,26616:0:0:0:0:
320,192,26263,128,0,26616:0:0:0:0:
64,192,27161,1,4,0:0:0:0:
192,192,27161,1,2,0:0:0:0:
448,192,27161,1,0,0:0:0:0:
320,192,27338,1,0,0:0:0:0:
448,192,27338,1,0,0:0:0:0:
192,192,27427,1,0,0:0:0:0:
320,192,27605,1,0,0:0:0:0:
64,192,27694,1,0,0:0:0:0:
448,192,27694,1,0,0:0:0:0:
192,192,27961,1,0,0:0:0:0:
64,192,28138,1,0,0:0:0:0:
448,192,28227,1,0,0:0:0:0:
320,192,28494,1,0,0:0:0:0:
448,192,28672,1,0,0:0:0:0:
64,192,28761,1,0,0:0:0:0:
448,192,29027,1,0,0:0:0:0:
64,192,29116,1,0,0:0:0:0:
192,192,29116,1,0,0:0:0:0:
320,192,29205,1,0,0:0:0:0:
448,192,29205,1,0,0:0:0:0:
64,192,29294,1,0,0:0:0:0:
192,192,29294,1,0,0:0:0:0:
320,192,29561,1,0,0:0:0:0:
64,192,29738,1,0,0:0:0:0:
320,192,29827,1,0,0:0:0:0:
192,192,30094,1,0,0:0:0:0:
448,192,30272,1,0,0:0:0:0:
192,192,30361,1,0,0:0:0:0:
320,192,30627,1,0,0:0:0:0:
64,192,30805,1,0,0:0:0:0:
448,192,30805,128,0,31161:0:0:0:0:
320,192,30894,1,0,0:0:0:0:
192,192,31161,1,0,0:0:0:0:
64,192,31338,1,4,0:0:0:0:
320,192,31338,1,8,0:0:0:0:
448,192,31338,1,0,0:0:0:0:
192,192,31694,1,0,0:0:0:0:
320,192,31872,1,0,0:0:0:0:
64,192,31961,1,0,0:0:0:0:
320,192,32227,1,0,0:0:0:0:
192,192,32405,1,0,0:0:0:0:
448,192,32494,1,0,0:0:0:0:
192,192,32761,1,0,0:0:0:0:
320,192,32938,1,0,0:0:0:0:
64,192,33027,1,0,0:0:0:0:
320,192,33294,1,0,0:0:0:0:
192,192,33472,1,0,0:0:0:0:
64,192,33561,128,2,33827:0:0:0:0:
448,192,33561,1,0,0:0:0:0:
192,192,33827,128,0,34094:0:0:0:0:
64,192,34094,1,8,0:0:0:0:
320,192,34094,128,0,34272:0:0:0:0:
448,192,34094,1,0,0:0:0:0:
64,192,34272,1,2,0:0:0:0:
192,192,34272,1,0,0:0:0:0:
448,192,34272,128,0,34361:0:0:0:0:
64,192,34538,128,2,35694:0:0:0:0:
320,192,34538,1,4,0:0:0:0:
448,192,34538,1,0,0:0:0:0:
448,192,35694,128,0,35960:0:0:0:0:
448,192,36405,128,0,36760:0:0:0:0:
64,192,36760,1,0,0:0:0:70:ClapReverb.wav
192,192,36760,1,0,0:0:0:0:
320,192,36760,1,0,0:0:0:0:
64,192,37105,128,2,37281:0:0:0:0:
320,192,37105,1,4,0:0:0:0:
448,192,37105,1,0,0:0:0:0:
192,192,37281,1,0,0:0:0:0:
64,192,37457,1,8,0:0:0:0:
320,192,37457,1,0,0:0:0:0:
448,192,37457,1,0,0:0:0:0:
192,192,37634,1,0,0:0:0:0:
320,192,37722,1,8,0:0:0:0:
448,192,37722,1,0,0:0:0:0:
64,192,37810,1,2,0:0:0:0:
192,192,37810,128,0,37987:0:0:0:0:
320,192,37987,1,2,0:0:0:0:
448,192,37987,1,0,0:0:0:0:
64,192,38163,1,8,0:0:0:0:
192,192,38163,1,0,0:0:0:0:
448,192,38163,1,0,0:0:0:0:
64,192,38340,1,2,0:0:0:0:
320,192,38340,128,4,38693:0:0:0:0:
448,192,38340,1,0,0:0:0:0:
192,192,38693,1,2,0:0:0:0:
448,192,38693,1,0,0:0:0:0:
64,192,38869,1,8,0:0:0:0:
192,192,38869,1,0,0:0:0:0:
320,192,38869,1,0,0:0:0:0:
448,192,39046,1,0,0:0:0:0:
64,192,39134,1,8,0:0:0:0:
192,192,39134,1,0,0:0:0:0:
320,192,39222,1,2,0:0:0:0:
448,192,39222,128,0,39399:0:0:0:0:
64,192,39399,1,2,0:0:0:0:
192,192,39399,1,0,0:0:0:0:
64,192,39575,1,8,0:0:0:0:
192,192,39575,1,0,0:0:0:0:
448,192,39575,128,0,39752:0:0:0:0:
320,192,39752,1,0,0:0:0:0:
64,192,39928,128,2,40105:0:0:0:0:
448,192,39928,1,4,0:0:0:0:
192,192,40105,1,2,0:0:0:0:
320,192,40105,1,0,0:0:0:0:
64,192,40281,1,8,0:0:0:0:
192,192,40281,1,0,0:0:0:0:
448,192,40281,1,0,0:0:0:0:
320,192,40457,1,2,0:0:0:0:
448,192,40457,1,0,0:0:0:0:
192,192,40546,1,2,0:0:0:0:
64,192,40634,1,8,0:0:0:0:
320,192,40634,1,4,0:0:0:0:
448,192,40634,128,0,40810:0:0:0:0:
192,192,40810,1,2,0:0:0:0:
320,192,40810,1,0,0:0:0:0:
64,192,40987,1,8,0:0:0:0:
448,192,40987,1,0,0:0:0:0:
320,192,41075,1,8,0:0:0:0:
64,192,41163,128,2,41340:0:0:0:0:
192,192,41163,1,4,0:0:0:0:
320,192,41340,1,0,0:0:0:0:
448,192,41340,1,0,0:0:0:0:
64,192,41693,1,0,0:0:0:0:
192,192,41693,1,0,0:0:0:0:
448,192,41693,1,0,0:0:0:0:
320,192,41781,1,0,0:0:0:0:
192,192,41869,1,0,0:0:0:0:
64,192,41957,1,0,0:0:0:0:
448,192,41957,1,0,0:0:0:0:
320,192,42046,1,0,0:0:0:0:
64,192,42134,1,0,0:0:0:0:
192,192,42134,1,0,0:0:0:0:
320,192,42222,1,0,0:0:0:0:
448,192,42222,1,0,0:0:0:0:
192,192,42310,1,0,0:0:0:0:
64,192,42399,1,8,0:0:0:0:
320,192,42399,1,0,0:0:0:0:
448,192,42399,1,0,0:0:0:0:
64,192,42575,1,8,0:0:0:0:
192,192,42575,1,0,0:0:0:0:
320,192,42663,1,8,0:0:0:0:
64,192,42752,1,2,0:0:0:0:
192,192,42752,1,4,0:0:0:0:
448,192,42752,128,0,42928:0:0:0:0:
320,192,42928,1,0,0:0:0:0:
64,192,43105,1,8,0:0:0:0:
192,192,43105,1,0,0:0:0:0:
448,192,43105,1,0,0:0:0:0:
320,192,43281,1,0,0:0:0:0:
64,192,43369,1,8,0:0:0:0:
192,192,43369,1,0,0:0:0:0:
320,192,43457,128,2,43634:0:0:0:0:
448,192,43457,1,0,0:0:0:0:
192,192,43634,1,2,0:0:0:0:
64,192,43810,1,8,0:0:0:0:
320,192,43810,1,0,0:0:0:0:
448,192,43810,1,0,0:0:0:0:
64,192,43987,1,2,0:0:0:0:
192,192,43987,128,4,44340:0:0:0:0:
448,192,43987,1,0,0:0:0:0:
64,192,44340,1,2,0:0:0:0:
320,192,44340,1,0,0:0:0:0:
192,192,44516,1,8,0:0:0:0:
320,192,44516,1,0,0:0:0:0:
448,192,44516,1,0,0:0:0:0:
64,192,44693,1,0,0:0:0:0:
320,192,44781,1,8,0:0:0:0:
448,192,44781,1,0,0:0:0:0:
64,192,44869,128,2,45046:0:0:0:0:
192,192,44869,1,0,0:0:0:0:
320,192,45046,1,2,0:0:0:0:
448,192,45046,1,0,0:0:0:0:
64,192,45222,128,8,45575:0:0:0:0:
192,192,45222,1,4,0:0:0:0:
448,192,45222,1,0,0:0:0:0:
320,192,45575,1,0,0:0:0:0:
64,192,45752,1,2,0:0:0:0:
192,192,45752,1,0,0:0:0:0:
64,192,45928,1,8,0:0:0:0:
320,192,45928,1,0,0:0:0:0:
448,192,45928,1,0,0:0:0:0:
192,192,46104,1,2,0:0:0:0:
320,192,46104,1,0,0:0:0:0:
64,192,46281,1,8,0:0:0:0:
192,192,46281,1,4,0:0:0:0:
448,192,46281,1,0,0:0:0:0:
64,192,46457,1,2,0:0:0:0:
320,192,46457,1,0,0:0:0:0:
192,192,46546,1,2,0:0:0:0:
320,192,46634,1,8,0:0:0:0:
448,192,46634,1,0,0:0:0:0:
64,192,46722,1,8,0:0:0:0:
192,192,46810,1,2,0:0:0:0:
448,192,46810,1,0,0:0:0:0:
320,192,46899,1,0,0:0:0:0:
64,192,46987,1,8,0:0:0:0:
192,192,46987,1,0,0:0:0:0:
448,192,46987,1,0,0:0:0:0:
320,192,47075,1,0,0:0:0:0:
192,192,47163,1,0,0:0:0:0:
64,192,47252,1,2,0:0:0:0:
320,192,47252,1,0,0:0:0:0:
448,192,47252,1,0,0:0:0:0:
192,192,47340,1,0,0:0:0:0:
320,192,47428,1,0,0:0:0:0:
64,192,47516,1,2,0:0:0:0:
192,192,47516,1,0,0:0:0:0:
448,192,47516,1,0,0:0:0:0:
320,192,47604,1,0,0:0:0:0:
64,192,47693,1,2,0:0:0:0:
192,192,47693,1,4,0:0:0:0:
448,192,47693,1,0,0:0:0:0:
320,192,47781,1,0,0:0:0:0:
192,192,47869,1,0,0:0:0:0:
64,192,47957,1,8,0:0:0:0:
448,192,47957,1,0,0:0:0:0:
192,192,48046,1,8,0:0:0:0:
320,192,48046,1,0,0:0:0:0:
64,192,48134,1,8,0:0:0:0:
448,192,48134,1,0,0:0:0:0:
192,192,48222,1,2,0:0:0:0:
320,192,48222,1,0,0:0:0:0:
64,192,48399,1,2,0:0:0:0:
320,192,48399,1,4,0:0:0:0:
448,192,48399,1,0,0:0:0:0:
192,192,48487,1,0,0:0:0:0:
320,192,48575,1,0,0:0:0:0:
448,192,48663,1,0,0:0:0:0:
64,192,48752,1,8,0:0:0:0:
192,192,48752,1,4,0:0:0:0:
320,192,48840,1,0,0:0:0:0:
192,192,48928,1,0,0:0:0:0:
320,192,49016,1,2,0:0:0:0:
448,192,49016,1,0,0:0:0:0:
64,192,49104,1,8,0:0:0:0:
192,192,49104,1,0,0:0:0:0:
320,192,49193,1,0,0:0:0:0:
64,192,49281,1,2,0:0:0:0:
448,192,49281,1,0,0:0:0:0:
192,192,49369,1,0,0:0:0:0:
320,192,49457,1,8,0:0:0:0:
448,192,49457,1,0,0:0:0:0:
64,192,49634,1,2,0:0:0:0:
192,192,49634,1,4,0:0:0:0:
448,192,49634,1,0,0:0:0:0:
192,192,49810,1,8,0:0:0:0:
320,192,49810,1,0,0:0:0:0:
64,192,49987,1,2,0:0:0:0:
320,192,49987,1,4,0:0:0:0:
448,192,49987,1,0,0:0:0:0:
192,192,50163,1,8,0:0:0:0:
320,192,50163,1,0,0:0:0:0:
64,192,50252,1,2,0:0:0:0:
448,192,50252,1,0,0:0:0:0:
320,192,50340,1,0,0:0:0:0:
64,192,50428,1,2,0:0:0:0:
192,192,50428,1,0,0:0:0:0:
320,192,50516,1,8,0:0:0:0:
448,192,50516,1,0,0:0:0:0:
64,192,50693,1,8,0:0:0:0:
192,192,50693,128,4,50781:0:0:0:0:
448,192,50693,1,0,0:0:0:0:
64,192,50869,1,4,0:0:0:0:
192,192,50869,128,8,51222:0:0:0:0:
448,192,50869,1,0,0:0:0:0:
64,192,51222,128,2,51752:0:0:0:0:
320,192,51222,1,4,0:0:0:0:
448,192,51222,1,0,0:0:0:0:
192,192,51399,128,0,51752:0:0:0:0:
320,192,51575,128,8,51752:0:0:0:0:
448,192,51752,1,0,0:0:0:0:
64,192,51840,1,2,0:0:0:0:
192,192,51928,1,8,0:0:0:0:
320,192,51928,1,0,0:0:0:0:
64,192,52104,1,2,0:0:0:0:
448,192,52104,128,0,52810:0:0:0:0:
192,192,52281,1,8,0:0:0:0:
320,192,52281,128,0,52810:0:0:0:0:
64,192,52457,1,2,0:0:0:0:
192,192,52457,128,4,52810:0:0:0:0:
64,192,52810,1,6,0:0:0:0:
64,192,53163,128,2,53340:0:0:0:0:
448,192,53163,1,4,0:0:0:0:
192,192,53340,128,0,54046:0:0:0:0:
320,192,53340,1,0,0:0:0:0:
64,192,53516,1,2,0:0:0:0:
448,192,53516,1,0,0:0:0:0:
64,192,53693,1,2,0:0:0:0:
320,192,53693,128,4,54046:0:0:0:0:
64,192,54046,1,2,0:0:0:0:
448,192,54046,1,0,0:0:0:0:
64,192,54222,1,2,0:0:0:0:
320,192,54222,1,0,0:0:0:0:
64,192,54399,128,8,54575:0:0:0:0:
192,192,54399,1,4,0:0:0:0:
448,192,54399,1,0,0:0:0:0:
320,192,54575,1,2,0:0:0:0:
448,192,54575,1,0,0:0:0:0:
192,192,54663,1,2,0:0:0:0:
64,192,54752,1,2,0:0:0:0:
320,192,54752,1,0,0:0:0:0:
192,192,54928,1,2,0:0:0:0:
448,192,54928,1,0,0:0:0:0:
64,192,55104,1,8,0:0:0:0:
320,192,55104,1,4,0:0:0:0:
448,192,55104,128,0,55281:0:0:0:0:
64,192,55281,1,2,0:0:0:0:
192,192,55281,1,0,0:0:0:0:
320,192,55369,1,2,0:0:0:0:
64,192,55457,1,2,0:0:0:0:
448,192,55457,1,0,0:0:0:0:
192,192,55634,1,2,0:0:0:0:
448,192,55634,1,0,0:0:0:0:
64,192,55810,1,4,0:0:0:0:
320,192,55810,1,8,0:0:0:0:
448,192,55810,128,0,55987:0:0:0:0:
64,192,55987,1,2,0:0:0:0:
192,192,55987,1,0,0:0:0:0:
320,192,56075,1,2,0:0:0:0:
64,192,56163,1,2,0:0:0:0:
448,192,56163,1,0,0:0:0:0:
192,192,56252,1,2,0:0:0:0:
320,192,56340,1,2,0:0:0:0:
448,192,56340,1,0,0:0:0:0:
192,192,56428,1,2,0:0:0:0:
64,192,56516,128,8,56693:0:0:0:0:
320,192,56516,1,4,0:0:0:0:
448,192,56516,1,0,0:0:0:0:
192,192,56693,128,0,56869:0:0:0:0:
64,192,56869,1,2,0:0:0:0:
320,192,56869,128,4,58281:0:0:0:0:
448,192,56869,1,0,0:0:0:0:
64,192,57222,1,2,0:0:0:0:
192,192,57222,1,0,0:0:0:0:
448,192,57222,1,0,0:0:0:0:
64,192,57399,1,2,0:0:0:0:
192,192,57399,1,0,0:0:0:0:
448,192,57399,1,0,0:0:0:0:
64,192,57575,1,2,0:0:0:0:
192,192,57575,1,0,0:0:0:0:
448,192,57575,1,0,0:0:0:0:
64,192,57752,1,2,0:0:0:0:
192,192,57752,1,0,0:0:0:0:
448,192,57752,1,0,0:0:0:0:
64,192,57928,1,2,0:0:0:0:
192,192,57928,1,0,0:0:0:0:
448,192,57928,1,0,0:0:0:0:
64,192,58104,1,2,0:0:0:0:
192,192,58104,1,0,0:0:0:0:
448,192,58104,1,0,0:0:0:0:
64,192,58281,128,2,58457:0:0:0:0:
192,192,58281,1,4,0:0:0:0:
448,192,58281,1,0,0:0:0:0:
64,192,58546,128,2,58810:0:0:0:0:
192,192,58546,1,4,0:0:0:0:
448,192,58546,1,0,0:0:0:0:
192,192,58810,128,2,58987:0:0:0:0:
320,192,58810,1,4,0:0:0:0:
448,192,58810,1,0,0:0:0:0:
64,192,58987,128,2,59340:0:0:0:0:
320,192,58987,1,4,0:0:0:0:
448,192,58987,1,0,0:0:0:0:
192,192,59340,1,8,0:0:0:0:
320,192,59340,128,0,59693:0:0:0:0:
448,192,59340,1,0,0:0:0:0:
64,192,59693,1,2,0:0:0:0:
192,192,59693,1,4,0:0:0:0:
448,192,59693,1,0,0:0:0:0:
192,192,59869,1,8,0:0:0:0:
320,192,59869,1,0,0:0:0:0:
64,192,60046,1,2,0:0:0:0:
448,192,60046,1,0,0:0:0:0:
192,192,60222,1,8,0:0:0:0:
320,192,60222,1,0,0:0:0:0:
64,192,60310,1,2,0:0:0:0:
448,192,60310,1,0,0:0:0:0:
320,192,60399,1,0,0:0:0:0:
192,192,60487,1,2,0:0:0:0:
64,192,60575,128,8,60663:0:0:0:0:
320,192,60575,1,4,0:0:0:0:
448,192,60575,1,0,0:0:0:0:
64,192,60752,128,2,60928:0:0:0:0:
192,192,60752,1,4,0:0:0:0:
320,192,60752,1,0,0:0:0:0:
192,192,60928,1,8,0:0:0:0:
448,192,60928,1,0,0:0:0:0:
64,192,61104,1,2,0:0:0:0:
320,192,61104,1,0,0:0:0:0:
448,192,61104,1,0,0:0:0:0:
192,192,61281,1,8,0:0:0:0:
320,192,61281,1,0,0:0:0:0:
64,192,61457,1,2,0:0:0:0:
448,192,61457,1,0,0:0:0:0:
192,192,61634,1,8,0:0:0:0:
320,192,61634,1,0,0:0:0:0:
64,192,61722,1,2,0:0:0:0:
448,192,61722,1,0,0:0:0:0:
192,192,61810,1,0,0:0:0:0:
320,192,61899,1,2,0:0:0:0:
64,192,61987,1,8,0:0:0:0:
192,192,61987,1,4,0:0:0:0:
448,192,61987,128,0,62075:0:0:0:0:
192,192,62163,1,2,0:0:0:0:
320,192,62163,1,4,0:0:0:0:
448,192,62163,128,0,62340:0:0:0:0:
64,192,62252,1,0,0:0:0:0:
320,192,62340,1,8,0:0:0:0:
192,192,62428,1,0,0:0:0:0:
64,192,62516,1,2,0:0:0:0:
320,192,62516,1,0,0:0:0:0:
448,192,62516,1,0,0:0:0:0:
192,192,62693,1,8,0:0:0:0:
448,192,62693,1,0,0:0:0:0:
64,192,62869,1,2,0:0:0:0:
320,192,62869,1,0,0:0:0:0:
448,192,62957,1,0,0:0:0:0:
64,192,63046,1,8,0:0:0:0:
192,192,63046,1,0,0:0:0:0:
320,192,63222,1,2,0:0:0:0:
448,192,63222,1,0,0:0:0:0:
64,192,63310,1,0,0:0:0:0:
192,192,63399,1,8,0:0:0:0:
448,192,63399,1,0,0:0:0:0:
64,192,63575,1,2,0:0:0:0:
320,192,63575,1,0,0:0:0:0:
192,192,63663,1,0,0:0:0:0:
320,192,63752,1,8,0:0:0:0:
448,192,63752,1,0,0:0:0:0:
64,192,63928,1,2,0:0:0:0:
192,192,63928,1,4,0:0:0:0:
448,192,63928,128,0,64104:0:0:0:0:
320,192,64104,1,8,0:0:0:0:
64,192,64193,1,2,0:0:0:0:
192,192,64193,128,4,64457:0:0:0:0:
448,192,64193,1,0,0:0:0:0:
64,192,64457,128,8,64546:0:0:0:0:
320,192,64457,1,4,0:0:0:0:
448,192,64457,1,0,0:0:0:0:
64,192,64634,128,2,64899:0:0:0:0:
192,192,64634,1,4,0:0:0:0:
448,192,64634,1,0,0:0:0:0:
320,192,64899,1,8,0:0:0:0:
448,192,64899,1,0,0:0:0:0:
64,192,64987,1,8,0:0:0:0:
192,192,64987,128,0,65163:0:0:0:0:
320,192,65163,1,8,0:0:0:0:
448,192,65163,1,0,0:0:0:0:
64,192,65252,1,8,0:0:0:0:
192,192,65340,1,2,0:0:0:0:
320,192,65340,1,4,0:0:0:0:
448,192,65340,1,0,0:0:0:0:
64,192,65516,1,8,0:0:0:0:
448,192,65516,1,0,0:0:0:0:
192,192,65693,1,2,0:0:0:0:
320,192,65693,1,0,0:0:0:0:
448,192,65781,1,2,0:0:0:0:
64,192,65869,1,8,0:0:0:0:
192,192,65869,1,0,0:0:0:0:
320,192,66046,1,2,0:0:0:0:
448,192,66046,1,0,0:0:0:0:
64,192,66222,1,8,0:0:0:0:
192,192,66222,1,0,0:0:0:0:
320,192,66310,1,2,0:0:0:0:
448,192,66310,1,0,0:0:0:0:
192,192,66399,1,0,0:0:0:0:
320,192,66487,1,2,0:0:0:0:
64,192,66575,1,8,0:0:0:0:
448,192,66575,1,0,0:0:0:0:
64,192,66752,128,2,66928:0:0:0:0:
192,192,66752,1,4,0:0:0:0:
320,192,66752,1,0,0:0:0:0:
320,192,66928,1,8,0:0:0:0:
448,192,66928,1,0,0:0:0:0:
64,192,67016,1,2,0:0:0:0:
192,192,67016,1,0,0:0:0:0:
320,192,67104,1,0,0:0:0:0:
192,192,67193,1,2,0:0:0:0:
64,192,67281,1,8,0:0:0:0:
448,192,67281,1,0,0:0:0:0:
192,192,67457,1,2,0:0:0:0:
320,192,67457,1,4,0:0:0:0:
448,192,67457,128,0,67634:0:0:0:0:
64,192,67634,1,8,0:0:0:0:
192,192,67722,1,2,0:0:0:0:
320,192,67810,1,2,0:0:0:0:
448,192,67810,1,0,0:0:0:0:
192,192,67899,1,2,0:0:0:0:
64,192,67987,1,2,0:0:0:0:
448,192,67987,1,0,0:0:0:0:
320,192,68075,1,2,0:0:0:0:
64,192,68163,128,2,68340:0:0:0:0:
192,192,68163,1,4,0:0:0:0:
448,192,68163,1,0,0:0:0:0:
192,192,68340,1,8,0:0:0:0:
320,192,68340,1,0,0:0:0:0:
64,192,68428,1,2,0:0:0:0:
320,192,68516,1,0,0:0:0:0:
448,192,68516,1,0,0:0:0:0:
64,192,68693,1,8,0:0:0:0:
192,192,68693,1,0,0:0:0:0:
320,192,68869,1,2,0:0:0:0:
448,192,68869,1,0,0:0:0:0:
64,192,68957,1,2,0:0:0:0:
192,192,69046,1,8,0:0:0:0:
320,192,69046,1,0,0:0:0:0:
448,192,69134,1,8,0:0:0:0:
64,192,69222,1,8,0:0:0:0:
192,192,69222,1,0,0:0:0:0:
320,192,69310,1,8,0:0:0:0:
64,192,69399,1,2,0:0:0:0:
448,192,69399,1,0,0:0:0:0:
64,192,69575,128,4,69752:0:0:0:0:
192,192,69575,1,2,0:0:0:0:
320,192,69575,1,0,0:0:0:0:
192,192,69840,128,2,70016:0:0:0:0:
320,192,69840,1,4,0:0:0:0:
448,192,69840,1,0,0:0:0:0:
64,192,70104,1,4,0:0:0:0:
320,192,70104,128,2,70281:0:0:0:0:
448,192,70104,1,0,0:0:0:0:
64,192,70281,1,4,0:0:0:0:
192,192,70281,1,8,0:0:0:0:
448,192,70281,128,0,70457:0:0:0:0:
64,192,70457,1,2,0:0:0:0:
320,192,70457,1,0,0:0:0:0:
192,192,70546,1,2,0:0:0:0:
64,192,70634,128,8,70810:0:0:0:0:
320,192,70634,1,4,0:0:0:0:
448,192,70634,1,0,0:0:0:0:
64,192,70987,1,2,0:0:0:0:
192,192,70987,1,4,0:0:0:0:
448,192,70987,1,0,0:0:0:0:
64,192,71163,1,8,0:0:0:0:
320,192,71163,1,0,0:0:0:0:
192,192,71340,1,2,0:0:0:0:
448,192,71340,1,0,0:0:0:0:
320,192,71516,1,8,0:0:0:0:
448,192,71516,1,0,0:0:0:0:
64,192,71693,1,2,0:0:0:0:
192,192,71693,1,0,0:0:0:0:
448,192,71781,1,0,0:0:0:0:
64,192,71869,128,8,71957:0:0:0:0:
192,192,71869,1,4,0:0:0:0:
320,192,71869,1,0,0:0:0:0:
64,192,72046,128,2,72222:0:0:0:0:
320,192,72046,1,4,0:0:0:0:
448,192,72046,1,0,0:0:0:0:
192,192,72222,1,8,0:0:0:0:
448,192,72222,1,0,0:0:0:0:
64,192,72399,1,2,0:0:0:0:
320,192,72399,1,0,0:0:0:0:
448,192,72399,1,0,0:0:0:0:
192,192,72575,1,8,0:0:0:0:
448,192,72575,1,0,0:0:0:0:
64,192,72752,1,2,0:0:0:0:
320,192,72752,1,0,0:0:0:0:
64,192,72928,1,8,0:0:0:0:
192,192,72928,1,0,0:0:0:0:
320,192,73104,1,2,0:0:0:0:
448,192,73104,1,0,0:0:0:0:
64,192,73193,1,0,0:0:0:0:
192,192,73281,1,8,0:0:0:0:
320,192,73281,1,4,0:0:0:0:
448,192,73281,128,0,73369:0:0:0:0:
64,192,73457,1,2,0:0:0:0:
192,192,73457,1,4,0:0:0:0:
448,192,73457,128,0,73634:0:0:0:0:
320,192,73546,1,0,0:0:0:0:
64,192,73634,1,8,0:0:0:0:
192,192,73722,1,0,0:0:0:0:
64,192,73810,1,2,0:0:0:0:
320,192,73810,128,0,74163:0:0:0:0:
448,192,73810,1,0,0:0:0:0:
64,192,74163,1,8,0:0:0:0:
192,192,74163,1,0,0:0:0:0:
64,192,74516,1,2,0:0:0:0:
192,192,74516,128,4,74869:0:0:0:0:
448,192,74516,1,0,0:0:0:0:
320,192,74869,1,2,0:0:0:0:
448,192,74869,1,0,0:0:0:0:
64,192,75222,1,2,0:0:0:0:
192,192,75222,1,4,0:0:0:0:
320,192,75399,1,2,0:0:0:0:
448,192,75399,1,0,0:0:0:0:
64,192,75575,1,8,0:0:0:0:
320,192,75575,1,0,0:0:0:0:
192,192,75752,1,2,0:0:0:0:
448,192,75752,1,0,0:0:0:0:
320,192,75840,1,2,0:0:0:0:
64,192,75928,1,2,0:0:0:0:
192,192,75928,1,4,0:0:0:0:
320,192,76104,1,8,0:0:0:0:
448,192,76104,1,0,0:0:0:0:
192,192,76193,1,8,0:0:0:0:
64,192,76281,1,2,0:0:0:0:
448,192,76281,1,0,0:0:0:0:
320,192,76369,1,2,0:0:0:0:
64,192,76457,1,2,0:0:0:0:
192,192,76457,1,0,0:0:0:0:
64,192,76634,128,4,77340:0:0:0:0:
320,192,76634,1,8,0:0:0:0:
448,192,76634,1,0,0:0:0:0:
192,192,76810,1,2,0:0:0:0:
320,192,76987,1,8,0:0:0:0:
448,192,76987,1,0,0:0:0:0:
192,192,77075,1,2,0:0:0:0:
320,192,77252,1,2,0:0:0:0:
192,192,77340,1,8,0:0:0:0:
448,192,77340,1,0,0:0:0:0:
64,192,77516,1,2,0:0:0:0:
320,192,77516,1,0,0:0:0:0:
64,192,77693,1,8,0:0:0:0:
192,192,77693,1,0,0:0:0:0:
448,192,77693,1,0,0:0:0:0:
192,192,77869,1,2,0:0:0:0:
320,192,77869,1,0,0:0:0:0:
64,192,78046,1,8,0:0:0:0:
320,192,78046,1,0,0:0:0:0:
448,192,78046,128,0,78752:0:0:0:0:
192,192,78222,1,2,0:0:0:0:
64,192,78399,1,8,0:0:0:0:
320,192,78399,1,0,0:0:0:0:
192,192,78487,1,2,0:0:0:0:
320,192,78663,1,2,0:0:0:0:
64,192,78752,1,8,0:0:0:0:
192,192,78752,1,0,0:0:0:0:
320,192,78928,1,2,0:0:0:0:
448,192,78928,1,0,0:0:0:0:
64,192,79104,1,8,0:0:0:0:
192,192,79104,1,0,0:0:0:0:
448,192,79104,1,0,0:0:0:0:
192,192,79281,1,2,0:0:0:0:
320,192,79281,1,0,0:0:0:0:
64,192,79457,1,2,0:0:0:0:
320,192,79457,1,0,0:0:0:0:
448,192,79457,1,0,0:0:0:0:
64,192,79634,1,2,0:0:0:0:
448,192,79634,1,0,0:0:0:0:
320,192,79722,1,2,0:0:0:0:
64,192,79810,1,8,0:0:0:0:
192,192,79810,128,4,80163:0:0:0:0:
448,192,79810,1,0,0:0:0:0:
320,192,80163,1,2,0:0:0:0:
448,192,80163,1,0,0:0:0:0:
64,192,80252,1,2,0:0:0:0:
192,192,80252,1,0,0:0:0:0:
320,192,80340,1,2,0:0:0:0:
448,192,80340,1,0,0:0:0:0:
192,192,80428,1,2,0:0:0:0:
64,192,80516,1,8,0:0:0:0:
320,192,80516,128,4,80693:0:0:0:0:
448,192,80516,1,0,0:0:0:0:
64,192,80693,1,8,0:0:0:0:
192,192,80693,1,0,0:0:0:0:
320,192,80781,1,8,0:0:0:0:
64,192,80869,1,8,0:0:0:0:
192,192,80869,128,4,81046:0:0:0:0:
448,192,80869,1,0,0:0:0:0:
320,192,81046,1,2,0:0:0:0:
448,192,81046,1,0,0:0:0:0:
64,192,81134,128,2,81310:0:0:0:0:
192,192,81134,1,4,0:0:0:0:
320,192,81310,1,2,0:0:0:0:
448,192,81310,1,0,0:0:0:0:
64,192,81399,1,4,0:0:0:0:
192,192,81399,128,2,81575:0:0:0:0:
64,192,81575,1,4,0:0:0:0:
320,192,81575,128,2,81752:0:0:0:0:
448,192,81575,1,0,0:0:0:0:
64,192,81752,1,2,0:0:0:0:
448,192,81752,1,0,0:0:0:0:
192,192,81840,1,2,0:0:0:0:
64,192,81928,1,2,0:0:0:0:
320,192,81928,128,0,82281:0:0:0:70:ClapReverb.wav
448,192,81928,1,0,0:0:0:0:
64,192,82281,128,4,83516:0:0:0:0:
192,192,82281,1,0,0:0:0:0:
448,192,82281,1,0,0:0:0:0:
320,192,82810,1,8,0:0:0:0:
448,192,82810,1,0,0:0:0:0:
192,192,82899,1,8,0:0:0:0:
320,192,82987,1,2,0:0:0:0:
448,192,82987,128,4,84222:0:0:0:0:
192,192,83516,1,8,0:0:0:0:
320,192,83516,1,0,0:0:0:0:
64,192,83604,1,8,0:0:0:0:
192,192,83693,128,2,84752:0:0:0:0:
320,192,83693,1,4,0:0:0:0:
64,192,84222,1,8,0:0:0:0:
320,192,84222,1,0,0:0:0:0:
448,192,84310,1,8,0:0:0:0:
64,192,84399,1,2,0:0:0:0:
320,192,84399,128,4,85104:0:0:0:0:
64,192,84752,1,2,0:0:0:0:
448,192,84752,1,0,0:0:0:0:
64,192,85104,1,2,0:0:0:0:
192,192,85104,1,0,0:0:0:0:
448,192,85104,1,0,0:0:0:0:
192,192,85281,1,8,0:0:0:0:
320,192,85281,1,0,0:0:0:0:
64,192,85457,1,8,0:0:0:0:
448,192,85457,1,0,0:0:0:0:
192,192,85546,1,8,0:0:0:0:
320,192,85546,1,0,0:0:0:0:
64,192,85634,1,8,0:0:0:0:
448,192,85634,1,0,0:0:0:0:
192,192,85722,1,8,0:0:0:0:
64,192,85810,1,4,0:0:0:0:
320,192,85810,128,8,86163:0:0:0:0:
448,192,85810,1,0,0:0:0:0:
64,192,86163,1,2,0:0:0:0:
192,192,86163,128,4,86516:0:0:0:0:
448,192,86163,1,0,0:0:0:0:
64,192,86516,1,2,0:0:0:0:
320,192,86516,1,4,0:0:0:0:
448,192,86516,1,0,0:0:0:0:
64,192,86693,1,2,0:0:0:0:
320,192,86693,1,0,0:0:0:0:
448,192,86693,1,0,0:0:0:0:
64,192,86869,1,2,0:0:0:0:
320,192,86869,1,0,0:0:0:0:
448,192,86869,1,0,0:0:0:0:
64,192,87222,1,2,0:0:0:0:
192,192,87222,1,4,0:0:0:0:
448,192,87222,1,0,0:0:0:0:
64,192,87399,1,2,0:0:0:0:
192,192,87399,1,0,0:0:0:0:
448,192,87399,1,0,0:0:0:0:
64,192,87575,1,2,0:0:0:0:
192,192,87575,1,0,0:0:0:0:
448,192,87575,1,0,0:0:0:0:
192,192,87928,1,4,0:0:0:0:
320,192,87928,1,2,0:0:0:0:
448,192,87928,1,0,0:0:0:0:
64,192,88104,1,2,0:0:0:0:
320,192,88104,1,0,0:0:0:0:
448,192,88104,1,0,0:0:0:0:
64,192,88281,1,2,0:0:0:0:
192,192,88281,1,0,0:0:0:0:
320,192,88281,1,0,0:0:0:0:
64,192,88457,1,2,0:0:0:0:
192,192,88457,1,0,0:0:0:0:
448,192,88457,1,0,0:0:0:0:
192,192,88634,1,2,0:0:0:0:
320,192,88634,1,4,0:0:0:0:
448,192,88634,1,0,0:0:0:0:
64,192,88810,1,2,0:0:0:0:
320,192,88810,1,0,0:0:0:0:
192,192,88899,1,2,0:0:0:0:
64,192,88987,1,2,0:0:0:0:
320,192,88987,1,4,0:0:0:0:
448,192,88987,128,0,89340:0:0:0:0:
