osu file format v14

[General]
AudioFilename: audio.mp3
AudioLeadIn: 0
PreviewTime: 58442
Countdown: 0
SampleSet: Normal
StackLeniency: 0.4
Mode: 0
LetterboxInBreaks: 0
WidescreenStoryboard: 0

[Editor]
DistanceSpacing: 0.5
BeatDivisor: 4
GridSize: 4
TimelineZoom: 2.5

[Metadata]
Title:Kakushinteki*Metamaruphose!
TitleUnicode:かくしん的☆めたまるふぉ~ぜっ!
Artist:Doma Umaru [CV.Tanaka Aimi]
ArtistUnicode:土間うまる [CV.田中あいみ]
Creator:Xavier Owens II
Version:Loafing Around
Source:干物妹!うまるちゃん
Tags:Himouto! Umaruchan opening anime tv
BeatmapID:3647931
BeatmapSetID:1781309

[Difficulty]
HPDrainRate:5
CircleSize:4
OverallDifficulty:8
ApproachRate:9.4
SliderMultiplier:1.4
SliderTickRate:1

[Events]
//Background and Video events
0,0,"thumb-1920-711500.png",0,0
//Break Periods
//Storyboard Layer 0 (Background)
//Storyboard Layer 1 (Fail)
//Storyboard Layer 2 (Pass)
//Storyboard Layer 3 (Foreground)
//Storyboard Layer 4 (Overlay)
//Storyboard Sound Samples

[TimingPoints]
-69,215.827338129496,4,1,1,60,1,0
578,-100,4,1,2,60,0,0
794,-66.6666666666667,4,1,1,60,0,0
955,-66.6666666666667,4,2,1,5,0,0
1010,-66.6666666666667,4,1,2,60,0,0
1386,-66.6666666666667,4,2,1,5,0,0
1441,-66.6666666666667,4,1,1,60,0,0
1657,-66.6666666666667,4,1,2,70,0,0
1818,-66.6666666666667,4,1,1,5,0,0
1873,-66.6666666666667,4,1,1,70,0,0
2466,-66.6666666666667,4,1,1,5,0,0
2520,-66.6666666666667,4,1,1,70,0,0
2681,-66.6666666666667,4,1,1,5,0,0
2736,-66.6666666666667,4,1,1,70,0,0
3545,-66.6666666666667,4,1,1,5,0,0
3600,-66.6666666666667,4,1,1,70,0,0
4138,-66.6666666666667,4,1,1,5,0,0
4247,-66.6666666666667,4,1,1,70,0,0
5271,-66.6666666666667,4,1,1,5,0,0
5326,-66.6666666666667,4,1,1,70,0,0
5703,-66.6666666666667,4,1,1,5,0,0
5758,-66.6666666666667,4,1,1,70,0,0
6135,-66.6666666666667,4,1,1,5,0,0
6189,-66.6666666666667,4,1,1,70,0,0
6566,-66.6666666666667,4,1,1,5,0,0
6621,-66.6666666666667,4,1,1,70,0,0
6836,-66.6666666666667,4,1,1,95,0,0
7161,-66.6666666666667,4,1,2,95,0,0
7700,-66.6666666666667,4,1,1,60,0,0
8077,-66.6666666666667,4,1,1,5,0,0
8132,-57.1428571428571,4,1,1,60,0,0
8293,-57.1428571428571,4,1,1,5,0,0
8348,-50,4,1,1,60,0,0
8509,-50,4,1,1,5,0,0
8564,-50,4,2,3,60,0,0
9373,-50,4,2,3,5,0,0
9427,-50,4,2,3,60,0,0
10236,-50,4,2,3,5,0,0
10290,-50,4,2,3,60,0,0
11099,-50,4,2,3,5,0,0
11154,-50,4,2,3,60,0,0
11531,-50,4,2,3,5,0,0
11585,-50,4,1,1,60,0,0
11801,-66.6666666666667,4,1,1,60,0,0
11908,-66.6666666666667,4,1,1,5,0,0
12017,-66.6666666666667,4,1,2,60,0,0
12394,-66.6666666666667,4,1,1,5,0,0
12448,-66.6666666666667,4,1,1,60,0,0
12880,-100,4,1,3,60,0,0
13257,-100,4,1,1,5,0,0
13312,-100,4,1,1,60,0,0
13743,-133.333333333333,4,1,3,60,0,0
14498,-133.333333333333,4,1,1,5,0,0
14553,-133.333333333333,4,1,1,60,0,0
14823,-133.333333333333,4,1,2,60,0,0
15470,-66.6666666666667,4,1,1,60,0,0
16063,-66.6666666666667,4,1,1,5,0,0
16118,-66.6666666666667,4,1,1,60,0,0
16279,-66.6666666666667,4,1,1,5,0,0
16333,-66.6666666666667,4,1,1,60,0,0
17197,-133.333333333333,4,1,1,60,0,0
17520,-133.333333333333,4,1,1,5,0,0
17628,-133.333333333333,4,1,1,60,0,0
17951,-133.333333333333,4,1,1,5,0,0
18060,-133.333333333333,4,1,1,60,0,0
18383,-133.333333333333,4,1,1,5,0,0
18491,-133.333333333333,4,1,1,60,0,0
20218,-33.3333333333333,4,1,3,60,0,0
20379,-33.3333333333333,4,2,1,5,0,0
20434,-66.6666666666667,4,1,2,60,0,0
20650,-66.6666666666667,4,1,2,60,0,0
22538,-66.6666666666667,4,2,2,5,0,0
22592,-66.6666666666667,4,1,2,60,0,0
22969,-66.6666666666667,4,2,2,5,0,0
23024,-66.6666666666667,4,1,2,60,0,0
23887,-50,4,1,2,60,0,0
24048,-50,4,2,2,5,0,0
24103,-50,4,1,2,60,0,0
24535,-66.6666666666667,4,1,2,60,0,0
24642,-66.6666666666667,4,2,2,5,0,0
24751,-66.6666666666667,4,1,2,60,0,0
26477,-40,4,1,2,60,0,0
26693,-66.6666666666667,4,1,2,60,0,0
27502,-66.6666666666667,4,2,1,5,0,0
27556,-100,4,1,0,60,0,0
28095,-100,4,2,0,5,0,0
28312,-100,4,1,0,60,0,0
29012,-100,4,2,0,5,0,0
29067,-100,4,1,0,60,0,0
29228,-100,4,2,0,5,0,0
29283,-100,4,1,0,60,0,0
29297,-100,4,1,0,5,0,0
29390,-100,4,1,0,10,0,0
29444,-100,4,1,0,15,0,0
29498,-100,4,1,0,20,0,0
29552,-100,4,1,0,30,0,0
29606,-100,4,2,0,5,0,0
29660,-100,4,1,0,50,0,0
29714,-100,4,1,0,60,0,0
29822,-100,4,2,0,5,0,0
30038,-100,4,1,0,60,0,0
31333,-100,4,2,0,5,0,0
31441,-100,4,1,0,60,0,0
31710,-100,4,2,0,5,0,0
31765,-100,4,1,0,60,0,0
32466,-100,4,2,0,5,0,0
32520,-100,4,1,0,60,0,0
32681,-100,4,2,0,5,0,0
32736,-100,4,1,0,60,0,0
33059,-100,4,2,0,5,0,0
33168,-100,4,1,0,60,0,0
34192,-100,4,2,0,5,0,0
34247,-100,4,1,0,60,0,0
34408,-100,4,2,0,5,0,0
34463,-100,4,1,0,60,0,0
35919,-100,4,2,0,5,0,0
35974,-100,4,1,0,60,0,0
38509,-100,4,2,0,5,0,0
38564,-100,4,1,0,60,0,0
38725,-100,4,2,0,5,0,0
38779,-100,4,1,0,60,0,0
39372,-100,4,2,0,5,0,0
39427,-100,4,1,0,60,0,0
41369,301.507537688442,3,2,0,60,1,0
41369,-100,3,2,0,60,0,0
41595,-100,3,2,0,5,0,0
41670,-100,3,2,0,60,0,0
41896,-100,3,2,0,5,0,0
41972,-100,3,2,0,60,0,0
42198,-100,3,2,0,5,0,0
42273,-66.6666666666667,3,2,0,60,0,0
43781,-100,3,2,0,60,0,0
44007,-100,3,2,0,5,0,0
44082,-66.6666666666667,3,2,0,60,0,0
44987,-100,3,2,0,60,0,0
45213,-100,3,2,0,5,0,0
45288,-100,3,2,0,60,0,0
45816,-100,3,2,0,5,0,0
45891,-66.6666666666667,3,2,0,60,0,0
46796,-100,3,2,0,60,0,0
47022,-100,3,2,0,5,0,0
47097,-100,3,2,0,60,0,0
47625,-100,3,2,0,5,0,0
47700,-66.6666666666667,3,2,0,60,0,0
48605,-100,3,2,0,60,0,0
48831,-100,3,2,0,5,0,0
48906,-100,3,2,0,60,0,0
49434,-100,3,2,0,5,0,0
49509,-66.6666666666667,3,2,0,60,0,0
50414,-50,3,2,0,60,0,0
51321,215.827338129496,4,1,0,60,1,0
51752,-50,4,1,2,60,0,0
51913,-50,4,2,1,5,0,0
51968,-133.333333333333,4,1,3,60,0,0
52129,-133.333333333333,4,2,1,5,0,0
52184,215.827338129496,4,1,1,60,1,0
52184,-100,4,1,1,60,0,0
53910,-80,4,1,1,60,0,0
56608,-80,4,1,1,65,0,0
56716,-80,4,1,1,70,0,0
56824,-80,4,1,1,75,0,0
56932,-80,4,1,1,80,0,0
57363,-80,4,1,2,60,0,0
58227,-133.333333333333,4,1,2,60,0,0
59036,-133.333333333333,4,2,1,5,0,0
59090,-66.6666666666667,4,1,2,60,0,1
59251,-66.6666666666667,4,2,2,5,0,1
59306,-66.6666666666667,4,1,2,60,0,1
59737,-133.333333333333,4,1,2,60,0,1
59953,-50,4,1,2,60,0,1
60114,-50,4,2,2,5,0,1
60169,-66.6666666666667,4,1,2,60,0,1
60330,-66.6666666666667,4,2,2,5,0,1
60385,-66.6666666666667,4,1,2,60,0,1
60601,-100,4,1,2,60,0,1
61032,-66.6666666666667,4,1,2,60,0,1
61625,-66.6666666666667,4,2,2,5,0,1
61680,-66.6666666666667,4,1,2,60,0,1
62327,-50,4,1,2,60,0,1
62488,-50,4,2,2,5,0,1
62543,-50,4,1,2,60,0,1
62759,-66.6666666666667,4,1,3,60,0,1
63407,-100,4,1,3,60,0,1
64054,-50,4,1,3,60,0,1
64215,-50,4,2,2,5,0,1
64270,-66.6666666666667,4,1,3,60,0,1
64431,-66.6666666666667,4,2,2,5,0,1
64486,-100,4,1,2,60,0,1
64647,-100,4,2,2,5,0,1
64701,-100,4,1,2,60,0,1
64917,-66.6666666666667,4,1,2,60,0,1
65078,-66.6666666666667,4,2,2,5,0,1
65133,-66.6666666666667,4,1,2,60,0,1
66157,-66.6666666666667,4,2,2,5,0,1
66212,-66.6666666666667,4,1,2,60,0,1
69450,-50,4,1,3,60,0,1
69989,-50,4,1,2,60,0,1
70097,-133.333333333333,4,1,3,60,0,1
70258,-133.333333333333,4,2,2,5,0,1
70313,-50,4,1,2,60,0,1
70475,-50,4,1,3,60,0,1
70583,-50,4,1,3,60,0,1
70960,-100,4,1,3,60,0,1
71121,-100,4,2,2,5,0,1
71176,-50,4,1,3,60,0,1
71337,-50,4,2,2,5,0,1
71392,-66.6666666666667,4,1,2,60,0,1
71553,-66.6666666666667,4,2,2,5,0,1
71608,-66.6666666666667,4,1,2,60,0,1
73064,-66.6666666666667,4,2,2,5,0,1
73119,-66.6666666666667,4,1,2,60,0,1
73280,-66.6666666666667,4,2,2,5,0,1
73335,-66.6666666666667,4,1,2,60,0,1
73550,-50,4,1,2,60,0,1
73711,-50,4,2,2,5,0,1
73766,-50,4,1,2,60,0,1
74143,-50,4,2,2,5,0,1
74198,-50,4,1,2,60,0,1
74575,-50,4,2,2,5,0,1
74630,-50,4,1,2,60,0,1
75061,-66.6666666666667,4,1,2,60,0,1
75438,-66.6666666666667,4,2,2,5,0,1
75493,-66.6666666666667,4,1,2,60,0,1
76356,-133.333333333333,4,1,2,60,0,1
77165,-133.333333333333,4,2,2,5,0,1
77219,-66.6666666666667,4,1,2,60,0,1
77380,-66.6666666666667,4,2,2,5,0,1
77435,-66.6666666666667,4,1,2,60,0,1
77651,-50,4,1,3,60,0,1
78028,-50,4,2,2,5,0,1
78083,-66.6666666666667,4,1,2,60,0,0
78244,-66.6666666666667,4,2,2,5,0,0
78299,-66.6666666666667,4,1,2,60,0,0
78891,-66.6666666666667,4,2,2,5,0,0
78946,-66.6666666666667,4,1,2,60,0,0
79107,-66.6666666666667,4,2,2,5,0,0
79162,-66.6666666666667,4,1,2,60,0,0
79755,-66.6666666666667,4,2,2,5,0,0
79809,-66.6666666666667,4,1,2,60,0,0
79970,-66.6666666666667,4,2,2,5,0,0
80025,-66.6666666666667,4,1,2,60,0,0
81536,-100,4,1,2,60,0,0
81679,-100,4,2,2,5,0,0
81752,-80,4,1,2,60,0,0
82111,-80,4,2,2,5,0,0
82183,-66.6666666666667,4,1,2,60,0,0
82542,-66.6666666666667,4,2,2,5,0,0
82615,-66.6666666666667,4,1,2,60,0,0
82831,-57.1428571428571,4,1,2,60,0,0
82974,-57.1428571428571,4,2,2,5,0,0
83047,-57.1428571428571,4,1,2,60,0,0
83263,-50,4,1,2,60,0,0
83694,-44.4444444444445,4,1,2,60,0,0
83837,-44.4444444444445,4,2,2,5,0,0
83910,-40,4,1,2,60,0,0
84269,-40,4,2,2,5,0,0
84342,-36.3636363636364,4,1,2,60,0,0
84701,-36.3636363636364,4,2,2,5,0,0
84773,-100,4,1,2,60,0,0
85708,-100,4,2,2,5,0,0
85781,-100,4,1,2,60,0,0
86716,-50,4,1,3,60,0,0
86932,-50,4,1,2,60,0,0
87040,-50,4,1,2,60,0,0
87309,-50,4,2,2,5,0,0
87363,-100,4,1,2,60,0,0
87542,-100,4,2,2,5,0,0
87579,-100,4,1,2,60,0,0
88011,-133.333333333333,4,1,0,40,0,0

[Colours]
Combo1 : 255,221,183
Combo2 : 255,128,64

[HitObjects]
184,26,578,6,4,P|193:43|187:63,3,35,4|4|4|4,0:3|0:3|0:3|0:3,0:3:0:0:
114,55,794,2,0,P|189:83|253:166,1,157.500006008148,8|0,0:0|0:0,0:0:0:0:
186,201,1010,6,0,P|151:193|129:168,3,52.5000020027161,4|4|2|10,0:3|0:3|0:3|0:3,0:3:0:0:
41,168,1225,2,0,P|135:169|206:225,1,157.500006008148,8|0,0:3|0:0,0:0:0:0:
230,274,1441,1,8,0:0:0:0:
230,274,1549,1,8,0:0:0:0:
367,200,1657,6,0,P|373:122|327:54,1,157.500006008148,4|0,0:2|0:0,0:0:0:0:
263,98,1873,2,0,P|261:145|293:198,1,105.000004005432,12|0,0:0|0:0,0:0:0:0:
463,225,2089,6,2,P|422:200|360:201,1,105.000004005432
431,299,2305,2,0,P|357:305|285:358,1,157.500006008148,12|0,0:0|0:0,0:0:0:0:
207,317,2520,6,0,P|139:306|113:213,1,157.500006008148,0|0,0:0|0:0,0:0:0:0:
153,164,2736,1,12,0:0:0:0:
153,164,2844,1,0,0:0:0:0:
115,91,2952,6,2,P|71:62|12:52,1,105.000004005432
189,237,3168,5,12,0:0:0:0:
230,219,3240,5,2,0:0:0:0:
236,173,3312,5,2,0:0:0:0:
153,164,3384,6,0,P|83:190|12:254,1,157.500006008148,2|0,0:0|0:0,0:0:0:0:
64,169,3600,1,12,0:0:0:0:
64,169,3707,1,0,0:0:0:0:
164,337,3815,6,2,P|168:285|189:237,1,105.000004005432
266,257,4031,2,0,P|262:309|241:357,1,105.000004005432,12|0,0:0|0:0,0:0:0:0:
359,210,4247,5,2,0:0:0:0:
371,253,4355,1,2,0:0:0:0:
376,108,4463,5,12,0:0:0:0:
445,211,4571,1,2,0:0:0:0:
472,48,4679,5,12,0:0:0:0:
472,48,4787,1,0,0:0:0:0:
376,108,4895,2,0,P|324:86|250:81,1,105.000004005432,4|0,0:0|0:0,0:0:0:0:
472,48,5110,6,0,P|482:124|406:173,1,157.500006008148,2|0,0:0|0:0,0:0:0:0:
341,212,5326,1,12,0:0:0:0:
341,212,5434,1,0,0:0:0:0:
424,171,5542,6,0,P|367:223|379:320,1,157.500006008148,2|0,0:0|0:0,0:0:0:0:
455,318,5758,2,0,P|488:284|491:214,1,105.000004005432,12|0,0:0|0:0,0:0:0:0:
219,235,5974,6,0,P|235:310|325:348,1,157.500006008148,2|0,0:0|0:0,0:0:0:0:
209,334,6189,1,12,0:0:0:0:
209,334,6297,1,0,0:0:0:0:
266,171,6405,6,0,P|226:122|137:89,1,157.500006008148,2|0,0:0|0:0,0:0:0:0:
66,77,6621,1,12,0:0:0:0:
49,62,6729,2,0,L|39:10,1,52.5000020027161,0|0,0:0|0:0,0:0:0:0:
140,90,6837,5,8,0:0:0:0:
174,112,6909,5,8,0:0:0:0:
184,166,6981,5,8,0:0:0:0:
147,222,7053,5,8,0:0:0:0:
70,213,7125,5,8,0:0:0:0:
25,290,7197,5,4,0:3:0:0:
77,361,7269,5,4,0:3:0:0:
167,354,7341,5,4,0:3:0:0:
205,322,7413,5,2,0:3:0:0:
211,285,7484,5,2,0:3:0:0:
222,267,7556,5,8,0:3:0:0:
234,265,7628,5,8,0:3:0:0:
241,273,7700,5,8,0:0:0:0:
77,361,7916,6,0,P|27:292|-8:206,1,157.500006008148,2|0,0:0|0:0,0:0:0:0:
140,310,8132,6,0,P|120:204|119:110,1,183.750001752377,2|0,0:0|0:0,0:0:0:0:
241,273,8348,6,0,P|274:184|337:70,1,210,2|0,0:0|0:0,0:0:0:0:
309,8,8564,5,4,1:2:0:0:
256,192,8618,12,0,9373,0:0:0:0:
212,302,9427,5,4,1:2:0:0:
256,192,9481,12,0,10236,0:0:0:0:
195,145,10290,5,4,1:2:0:0:
256,192,10344,12,0,11099,0:0:0:0:
273,203,11154,5,4,1:2:0:0:
256,192,11207,12,0,11531,0:0:0:0:
25,177,11585,5,12,0:0:0:0:
354,131,11801,2,0,P|385:82|430:44,1,105.000004005432,0|0,0:0|0:0,0:0:0:0:
355,348,12017,6,0,P|277:168|101:52,1,367.500014019013,4|0,0:2|0:0,0:0:0:0:
222,71,12448,6,0,P|222:32|232:0,2,70.0000026702882,0|0|0,0:0|0:0|0:0,0:0:0:0:
74,109,12664,2,0,P|52:77|44:45,2,70.0000026702882,0|0|0,0:0|0:0|0:0,0:0:0:0:
277,377,12880,6,0,P|168:278|56:234,1,245,4|0,0:2|0:0,0:0:0:0:
156,220,13312,6,0,P|151:183|138:159,2,46.6666666666667,0|0|0,0:0|0:0|0:0,0:0:0:0:
234,232,13528,2,0,P|244:202|243:172,2,46.6666666666667,0|0|0,0:0|0:0|0:0,0:0:0:0:
297,284,13743,6,0,P|468:208|446:53,1,367.500014019013,4|0,0:2|0:0,0:0:0:0:
446,138,14553,5,8,0:0:0:0:
446,138,14607,1,8,0:0:0:0:
371,35,14715,1,8,0:0:0:0:
463,272,15038,5,4,0:3:0:0:
395,223,15110,5,4,0:3:0:0:
320,188,15182,5,4,0:3:0:0:
249,169,15254,5,2,0:3:0:0:
189,162,15326,5,2,0:3:0:0:
136,162,15398,5,2,0:3:0:0:
86,169,15470,6,0,P|27:140|30:7,1,210.000008010865,6|0,0:0|0:0,0:0:0:0:
113,17,15794,1,0,0:0:0:0:
162,92,15902,6,0,P|127:153|120:274,1,157.500006008148,6|0,0:0|0:0,0:0:0:0:
231,130,16118,2,0,P|231:200|285:308,1,157.500006008148,0|0,0:0|0:0,0:0:0:0:
377,359,16333,6,0,P|273:310|163:294,3,210.000008010865,6|0|6|0,0:0|0:0|0:0|0:0,0:0:0:0:
29,208,17197,5,6,0:0:0:0:
29,208,17269,5,0,0:0:0:0:
29,208,17341,5,0,0:0:0:0:
29,208,17413,6,0,P|32:239|42:266,1,52.5,0|0,0:0|0:0,0:0:0:0:
128,167,17628,5,6,0:0:0:0:
128,167,17700,5,0,0:0:0:0:
128,167,17772,5,0,0:0:0:0:
128,167,17844,6,0,P|138:196|155:219,1,52.5,0|0,0:0|0:0,0:0:0:0:
206,110,18060,5,6,0:0:0:0:
206,110,18132,5,0,0:0:0:0:
206,110,18204,5,0,0:0:0:0:
206,110,18276,6,0,P|224:135|246:153,1,52.5,0|0,0:0|0:0,0:0:0:0:
259,54,18491,5,6,0:0:0:0:
259,54,18563,5,0,0:0:0:0:
259,54,18635,5,0,0:0:0:0:
259,54,18707,6,0,P|283:73|309:85,1,52.5,0|0,0:0|0:0,0:0:0:0:
29,208,18923,5,8,0:0:0:0:
37,259,19031,1,8,0:0:0:0:
120,167,19139,5,8,0:0:0:0:
113,246,19247,1,8,0:0:0:0:
240,149,19355,5,8,0:0:0:0:
190,254,19463,1,8,0:0:0:0:
370,159,19571,5,8,0:0:0:0:
252,290,19679,1,8,0:0:0:0:
497,242,19787,5,8,0:0:0:0:
497,242,20218,6,0,P|362:198|329:27,1,315.000012016297,4|0,0:2|0:0,0:0:0:0:
384,231,20434,2,0,P|388:193|369:158,1,78.7500030040742,2|0,0:0|0:0,0:0:0:0:
237,118,20650,5,14,0:0:0:0:
159,125,20758,1,0,0:0:0:0:
237,118,20866,1,0,0:0:0:0:
38,343,21082,6,0,P|10:290|-1:237,1,105.000004005432,14|0,0:0|0:0,0:0:0:0:
100,293,21297,2,0,P|99:231|109:182,1,105.000004005432
313,149,21513,5,14,0:0:0:0:
237,118,21621,1,0,0:0:0:0:
313,149,21729,1,0,0:0:0:0:
237,118,21837,1,0,0:0:0:0:
375,98,21945,6,0,P|392:40|399:-13,1,105.000004005432,14|0,0:0|0:0,0:0:0:0:
436,163,22161,2,0,P|475:117|504:73,1,105.000004005432
237,118,22377,6,0,P|289:154|337:279,1,157.500006008148,14|0,0:0|0:0,0:0:0:0:
377,299,22592,2,0,P|432:288|441:228,1,105.000004005432
237,118,22808,6,0,P|289:154|337:279,1,157.500006008148,14|0,0:0|0:0,0:0:0:0:
377,299,23024,2,0,P|432:288|441:228,1,105.000004005432
159,125,23240,5,14,0:0:0:0:
106,181,23348,2,0,P|40:156|-2:128,1,105.000004005432,2|0,0:0|0:0,0:0:0:0:
269,192,23564,5,2,0:0:0:0:
144,257,23672,2,0,P|75:268|30:263,1,105.000004005432,14|0,0:0|0:0,0:0:0:0:
447,247,23887,6,0,P|365:253|300:368,1,210
380,350,24103,5,14,0:0:0:0:
299,353,24211,1,0,0:0:0:0:
380,350,24319,1,0,0:0:0:0:
106,181,24535,6,0,P|147:200|195:238,1,105.000004005432,14|0,0:0|0:0,0:0:0:0:
39,223,24751,2,0,P|68:261|96:315,1,105.000004005432
430,285,24966,5,14,0:0:0:0:
380,350,25074,1,0,0:0:0:0:
430,285,25182,1,0,0:0:0:0:
380,350,25290,1,0,0:0:0:0:
409,205,25398,6,0,P|445:173|504:147,1,105.000004005432,14|0,0:0|0:0,0:0:0:0:
320,131,25614,2,0,P|335:85|373:33,1,105.000004005432
59,110,25830,5,14,0:0:0:0:
136,99,25938,1,0,0:0:0:0:
205,60,26046,1,0,0:0:0:0:
47,86,26154,5,2,0:0:0:0:
154,122,26261,1,8,0:0:0:0:
223,207,26369,1,0,2:0:0:0:
0,171,26477,6,0,P|40:269|52:367,1,175,14|0,0:0|0:0,0:0:0:0:
256,0,26693,5,4,2:0:0:0:
256,192,26747,12,0,27502,0:0:0:0:
399,142,27556,6,0,P|341:180|300:237,1,140,0|0,0:0|2:0,0:0:0:0:
318,313,27880,1,0,0:0:0:0:
333,318,27988,2,0,P|365:295|417:295,1,70
48,332,28312,5,0,1:0:0:0:
241,287,28528,1,0,1:0:0:0:
48,332,28743,1,0,0:0:0:0:
127,342,28851,6,0,P|163:300|145:235,1,105
80,260,29067,2,0,P|64:193|27:141,1,105
102,51,29283,6,2,P|159:128|272:135,1,210,0|0,0:0|0:0,0:0:0:0:
302,231,29715,2,0,P|336:190|334:161,1,70
430,48,30038,5,0,0:0:0:0:
191,42,30254,1,0,0:0:0:0:
259,70,30362,2,0,P|271:103|265:137,1,70,0|0,2:0|0:0,0:0:0:0:
209,197,30578,5,0,0:0:0:0:
409,238,30794,1,0,0:0:0:0:
130,298,31010,6,0,P|203:227|300:268,1,210
457,156,31441,2,0,P|433:245|432:339,1,175
409,238,31765,5,0,0:0:0:0:
265,137,31981,1,0,0:0:0:0:
77,147,32197,1,0,2:0:0:0:
153,170,32305,6,0,P|188:132|188:81,1,105
112,75,32520,2,0,P|81:42|3:19,1,105
3,168,32736,6,0,P|108:173|190:269,1,210
0,266,33168,2,0,P|40:308|133:309,1,140
209,85,33492,1,0,0:0:0:0:
471,115,33707,5,0,0:0:0:0:
402,74,33815,2,0,P|402:56|394:41,1,35
332,89,33923,2,0,P|323:73|309:63,1,35
272,172,34031,6,0,P|281:122|327:99,1,105
396,262,34247,2,0,P|373:216|371:164,1,105
490,335,34463,6,0,P|375:273|273:266,1,210
93,196,34895,2,0,P|121:280|168:283,1,140,0|0,0:0|2:0,0:0:0:0:
224,234,35218,5,0,0:0:0:0:
1,345,35434,2,0,P|16:311|18:268,1,70,0|0,0:0|2:0,0:0:0:0:
224,234,35650,5,0,0:0:0:0:
303,244,35758,2,0,P|288:163|269:139,1,105
152,296,35974,2,0,P|192:309|225:338,1,70,0|0,0:0|2:0,0:0:0:0:
190,118,36189,6,0,P|266:115|343:10,1,210,0|0,0:0|2:0,0:0:0:0:
372,176,36621,2,0,P|412:114|413:27,1,140,0|0,0:0|2:0,0:0:0:0:
508,93,36945,6,0,P|500:39|476:20,1,70
275,74,37161,2,0,P|283:128|307:147,1,70
445,140,37377,1,0,0:0:0:0:
368,119,37484,5,0,0:0:0:0:
175,174,37700,1,0,0:0:0:0:
111,352,37916,6,0,P|165:325|186:248,1,140,0|0,0:0|2:0,0:0:0:0:
271,289,38240,1,0,0:0:0:0:
262,303,38348,2,0,P|319:314|372:355,1,105
436,347,38564,2,0,P|444:310|408:247,1,105
194,341,38779,5,0,0:0:0:0:
340,235,39103,1,0,0:0:0:0:
270,197,39211,6,0,P|259:144|261:77,1,105
301,0,39427,1,0,0:0:0:0:
45,76,39643,6,0,P|107:83|161:151,1,140,0|0,0:0|2:0,0:0:0:0:
157,138,40074,6,0,P|112:85|45:76,1,140,0|0,0:0|2:0,0:0:0:0:
44,76,40506,6,0,P|112:85|157:138,1,140,0|0,0:0|2:0,0:0:0:0:
156,136,40938,6,0,P|138:131|126:114,2,35,0|0|0,2:0|2:0|2:0,0:0:0:0:
346,293,41369,6,0,P|348:230|382:175,1,105
443,212,41670,2,0,P|440:274|406:329,1,105,2|0,0:0|0:0,0:0:0:0:
289,348,41972,2,0,P|235:300|241:261,1,105,2|0,0:0|0:0,0:0:0:0:
149,223,42273,6,0,P|254:249|349:295,2,210.000008010865,0|2|2,0:0|0:0|0:0,0:0:0:0:
345,292,43178,5,0,0:0:0:0:
345,292,43328,1,0,0:0:0:0:
298,228,43479,1,2,0:0:0:0:
298,228,43629,1,0,0:0:0:0:
345,292,43781,2,0,P|386:243|363:201,1,105,2|0,0:0|0:0,0:0:0:0:
477,222,44082,6,0,P|395:194|284:94,2,210.000008010865,0|2|2,0:0|0:0|0:0,0:0:0:0:
275,38,44987,6,0,P|222:51|201:100,1,105
204,196,45288,1,2,0:0:0:0:
204,196,45439,1,0,0:0:0:0:
145,246,45590,2,0,P|88:213|94:154,1,105,2|0,0:0|0:0,0:0:0:0:
59,329,45891,6,0,P|185:276|287:277,2,210.000008010865,0|2|2,0:0|0:0|0:0,0:0:0:0:
256,273,46796,6,0,P|286:272|321:206,1,105
256,137,47097,1,2,0:0:0:0:
256,137,47248,1,0,0:0:0:0:
322,213,47399,2,0,P|330:167|369:96,1,105,2|0,0:0|0:0,0:0:0:0:
351,37,47700,6,0,P|479:69|486:159,2,210.000008010865,0|2|2,0:0|0:0|0:0,0:0:0:0:
272,30,48454,1,0,0:0:0:0:
208,116,48605,6,0,P|151:136|98:139,1,105
38,108,48906,1,2,0:0:0:0:
38,108,49057,1,0,0:0:0:0:
71,210,49208,2,0,P|106:241|178:217,1,105,2|0,0:0|0:0,0:0:0:0:
284,189,49509,6,0,P|194:237|176:337,2,210.000008010865,0|2|2,0:0|0:0|0:0,0:0:0:0:
414,220,50414,5,0,0:0:0:0:
421,215,50489,1,0,0:0:0:0:
435,216,50564,1,0,0:0:0:0:
451,226,50640,1,0,0:0:0:0:
462,256,50715,1,0,0:0:0:0:
451,291,50791,1,0,0:0:0:0:
412,310,50866,1,0,0:0:0:0:
364,287,50941,1,0,0:0:0:0:
326,225,51017,1,0,0:0:0:0:
301,147,51092,1,0,0:0:0:0:
231,84,51167,1,0,0:0:0:0:
140,47,51243,1,0,0:0:0:0:
35,38,51321,1,8,1:0:0:0:
35,38,51752,6,0,P|128:66|154:183,1,210,4|0,0:2|0:0,0:0:0:0:
35,38,51968,2,0,P|60:57|111:60,1,78.7500030040742,4|0,0:2|0:0,0:0:0:0:
126,236,52184,5,4,0:0:0:0:
126,236,52291,1,0,0:0:0:0:
126,236,52399,2,0,P|130:266|151:307,1,70,8|0,0:0|0:0,0:0:0:0:
223,228,52615,5,4,0:0:0:0:
223,228,52722,1,0,0:0:0:0:
223,228,52830,2,0,P|234:255|265:290,1,70,8|0,0:0|0:0,0:0:0:0:
324,180,53047,5,4,0:0:0:0:
324,180,53154,1,0,0:0:0:0:
324,180,53262,2,0,P|342:203|381:228,1,70,8|0,0:0|0:0,0:0:0:0:
401,72,53478,5,4,0:0:0:0:
401,72,53585,1,0,0:0:0:0:
401,72,53693,2,0,P|425:90|468:104,1,70,8|0,0:0|0:0,0:0:0:0:
15,315,53910,5,4,0:0:0:0:
15,315,54018,1,0,0:0:0:0:
15,315,54126,2,0,P|59:337|97:366,1,87.5,8|0,0:0|0:0,0:0:0:0:
93,194,54342,5,4,0:0:0:0:
93,194,54450,1,0,0:0:0:0:
93,194,54558,2,0,P|130:227|159:264,1,87.5,8|0,0:0|0:0,0:0:0:0:
238,75,54773,5,4,0:0:0:0:
238,75,54881,1,0,0:0:0:0:
238,75,54989,2,0,P|265:117|283:160,1,87.5,8|0,0:0|0:0,0:0:0:0:
463,16,55205,5,4,0:0:0:0:
472,21,55313,1,0,0:0:0:0:
472,21,55421,2,0,P|487:68|494:115,1,87.5,8|0,0:0|0:0,0:0:0:0:
0,328,55637,5,4,0:0:0:0:
13,346,55745,1,0,0:0:0:0:
95,347,55853,5,8,0:0:0:0:
99,251,55960,1,0,0:0:0:0:
219,206,56068,5,4,0:0:0:0:
299,317,56176,1,0,0:0:0:0:
166,300,56284,5,8,0:0:0:0:
139,145,56392,1,0,0:0:0:0:
493,105,56500,5,12,0:0:0:0:
382,41,56608,1,0,0:0:0:0:
291,104,56716,5,8,0:0:0:0:
297,195,56824,1,0,0:0:0:0:
365,245,56932,5,8,0:0:0:0:
423,233,57040,1,8,0:0:0:0:
436,197,57148,5,8,0:0:0:0:
425,180,57255,1,8,0:0:0:0:
413,178,57363,5,2,2:2:0:0:
56,53,57579,5,2,0:2:0:0:
56,53,57795,5,2,0:2:0:0:
56,53,58011,5,2,0:2:0:0:
484,252,58227,6,0,P|303:172|114:118,1,393.750015020371,2|0,0:2|0:0,0:0:0:0:
39,151,59090,6,0,P|38:214|124:263,1,157.500006008148,6|0,0:2|0:0,0:0:0:0:
115,119,59306,2,0,P|162:114|209:59,1,105.000004005432,12|0,0:0|0:0,0:0:0:0:
127,36,59522,1,2,0:0:0:0:
127,36,59630,1,2,0:0:0:0:
49,73,59737,2,0,P|20:30|3:25,1,52.5000020027161,12|0,0:0|0:0,0:0:0:0:
166,197,59953,6,0,P|287:241|373:301,1,210,2|0,0:0|0:0,0:0:0:0:
268,137,60169,2,0,P|360:130|436:111,1,157.500006008148,12|0,0:0|0:0,0:0:0:0:
490,187,60385,1,2,0:0:0:0:
398,209,60493,1,2,0:0:0:0:
490,187,60601,2,0,P|479:227|475:266,1,70,12|0,0:0|0:0,0:0:0:0:
197,291,60817,5,2,0:0:0:0:
197,291,60925,1,2,0:0:0:0:
286,323,61032,2,0,P|276:247|281:200,1,105,12|0,0:0|0:0,0:0:0:0:
106,45,61248,5,2,0:0:0:0:
106,45,61356,1,2,0:0:0:0:
110,199,61464,2,0,P|142:133|209:63,1,157.500006008148,12|0,0:0|0:0,0:0:0:0:
358,13,61680,5,2,0:0:0:0:
268,137,61788,1,2,0:0:0:0:
458,115,61896,5,12,0:0:0:0:
338,169,62004,1,2,0:0:0:0:
476,241,62112,5,2,0:0:0:0:
384,231,62220,1,8,0:0:0:0:
404,367,62327,6,0,P|388:306|335:163,1,210,8|0,0:0|0:0,0:0:0:0:
369,92,62543,5,2,0:2:0:0:
369,92,62651,1,0,0:0:0:0:
287,55,62759,2,0,P|226:63|175:84,1,105.000004005432,12|0,0:2|0:0,0:0:0:0:
369,92,62975,5,2,0:0:0:0:
369,92,63083,1,0,0:0:0:0:
260,139,63191,2,0,P|199:168|161:202,1,105.000004005432,12|0,0:2|0:0,0:0:0:0:
369,92,63407,5,2,0:2:0:0:
369,92,63515,1,0,0:0:0:0:
455,79,63622,2,0,P|487:49|502:5,1,70,12|0,0:2|0:0,0:0:0:0:
369,92,63838,5,0,0:0:0:0:
369,92,63946,1,0,0:0:0:0:
420,150,64054,6,0,P|291:89|163:54,1,210,12|0,0:2|0:0,0:0:0:0:
109,57,64270,6,0,P|56:126|25:192,1,157.500006008148,2|0,0:2|0:0,0:0:0:0:
152,133,64486,2,0,P|134:197|129:257,1,105,8|0,0:0|0:0,0:0:0:0:
229,151,64701,5,0,0:0:0:0:
242,226,64809,1,2,0:0:0:0:
229,151,64917,2,0,P|261:226|318:303,1,157.500006008148,8|0,0:0|0:0,0:0:0:0:
442,337,65133,5,0,0:0:0:0:
468,219,65241,1,8,0:0:0:0:
442,337,65349,1,8,0:0:0:0:
229,151,65565,5,4,0:3:0:0:
304,287,65673,1,4,0:3:0:0:
129,235,65781,5,2,0:3:0:0:
224,308,65889,1,2,0:3:0:0:
30,363,65996,6,0,P|133:352|134:286,1,157.500006008148,12|0,0:0|0:0,0:0:0:0:
69,179,66212,1,2,0:0:0:0:
69,179,66320,1,0,2:0:0:0:
0,217,66428,5,12,0:0:0:0:
129,235,66536,1,0,0:0:0:0:
224,308,66644,2,2,P|211:268|211:198,1,105.000004005432
0,217,66860,5,8,0:0:0:0:
63,287,66968,1,2,0:0:0:0:
149,153,67076,5,4,0:0:0:0:
45,128,67183,1,2,0:0:0:0:
185,233,67291,5,8,0:0:0:0:
284,216,67399,1,0,0:0:0:0:
356,108,67507,5,0,0:0:0:0:
280,89,67615,1,8,0:0:0:0:
454,199,67723,5,8,0:0:0:0:
454,199,67795,5,8,0:0:0:0:
454,199,67867,5,8,0:0:0:0:
454,199,67939,6,8,P|440:232|431:274,2,70.0000026702882
275,184,68155,5,4,0:3:0:0:
275,184,68227,5,4,0:3:0:0:
275,184,68299,5,4,0:3:0:0:
275,184,68371,6,2,P|270:219|272:262,2,70.0000026702882,2|2|2,0:3|0:3|0:3,0:3:0:0:
146,207,68586,5,8,0:3:0:0:
146,207,68658,5,8,0:3:0:0:
146,207,68730,5,8,0:3:0:0:
146,207,68802,6,0,P|150:242|163:283,2,70.0000026702882,0|0|0,0:3|0:3|0:3,0:3:0:0:
49,249,69018,5,8,0:0:0:0:
49,249,69090,5,8,0:0:0:0:
49,249,69162,5,8,0:0:0:0:
49,249,69234,6,8,P|62:282|85:318,2,70.0000026702882,8|8|8,0:0|0:0|0:0,0:0:0:0:
454,199,69450,5,2,0:2:0:0:
49,249,69666,2,0,P|175:214|317:115,1,280,4|0,0:2|0:0,0:0:0:0:
298,132,69935,1,0,0:0:0:0:
298,132,69989,1,2,0:0:0:0:
388,138,70097,6,0,P|408:89|392:64,1,78.7500030040742,14|0,0:2|0:0,0:0:0:0:
146,207,70313,6,0,P|246:223|417:308,1,280,0|12,0:0|0:2,0:0:0:0:
406,299,70583,1,0,0:2:0:0:
406,299,70637,1,0,0:0:0:0:
356,239,70745,5,0,0:0:0:0:
356,239,70853,1,2,0:0:0:0:
247,341,70960,6,0,P|190:299|149:285,1,105,12|0,0:2|0:0,0:0:0:0:
267,253,71176,6,0,P|227:187|201:40,1,210,2|0,0:2|0:0,0:0:0:0:
93,132,71392,2,0,P|85:50|141:9,1,157.500006008148,8|0,0:0|0:0,0:0:0:0:
303,150,71608,5,0,0:0:0:0:
181,174,71716,1,2,0:0:0:0:
94,253,71824,1,8,0:0:0:0:
94,253,72040,5,2,0:0:0:0:
195,176,72148,1,8,0:0:0:0:
245,40,72255,1,8,0:0:0:0:
245,40,72471,5,8,0:0:0:0:
190,98,72579,1,2,0:0:0:0:
313,172,72687,1,8,0:0:0:0:
293,328,72795,1,8,0:0:0:0:
462,324,72903,6,0,P|421:245|402:160,1,157.500006008148,14|0,0:2|0:0,0:0:0:0:
399,373,73119,2,0,P|338:307|298:230,1,157.500006008148,8|0,0:0|0:0,0:0:0:0:
132,241,73335,5,2,0:0:0:0:
132,241,73442,1,2,0:0:0:0:
132,241,73550,2,0,P|176:177|203:266,1,210,12|0,0:0|0:0,0:0:0:0:
50,244,73766,5,2,0:0:0:0:
32,321,73874,1,2,0:0:0:0:
100,360,73982,2,0,P|188:314|295:280,1,210,12|0,0:0|0:0,0:0:0:0:
427,276,74198,5,2,0:0:0:0:
343,214,74306,1,2,0:0:0:0:
427,276,74414,2,0,P|494:216|449:111,1,210,12|0,0:0|0:0,0:0:0:0:
356,21,74630,5,2,0:0:0:0:
381,141,74737,1,2,0:0:0:0:
220,95,74845,5,12,0:0:0:0:
269,156,74953,1,0,0:0:0:0:
110,227,75061,6,2,P|156:253|214:265,1,105.000004005432
36,267,75277,2,0,P|97:334|157:365,1,157.500006008148,12|0,0:0|0:0,0:0:0:0:
276,321,75493,5,0,0:0:0:0:
276,321,75709,5,0,0:0:0:0:
276,321,75925,5,0,0:0:0:0:
82,26,76140,5,8,0:0:0:0:
31,44,76212,5,8,0:0:0:0:
24,98,76284,5,8,0:0:0:0:
85,153,76356,6,0,P|159:122|483:46,1,393.750015020371,10|0,0:2|0:0,0:0:0:0:
205,61,77219,6,0,P|287:81|366:90,1,157.500006008148,2|0,0:2|0:0,0:0:0:0:
131,91,77435,1,0,2:0:0:0:
298,295,77651,6,0,P|79:317|30:72,1,490,6|0,0:2|0:0,0:0:0:0:
131,91,78083,6,0,P|173:156|124:221,1,157.500006008148
0,215,78299,2,0,P|30:168|90:172,1,105.000004005432,12|0,0:0|0:0,0:0:0:0:
237,226,78514,6,0,P|218:274|209:347,1,105.000004005432
402,178,78730,2,0,P|349:226|297:296,1,157.500006008148,12|0,0:0|0:0,0:0:0:0:
423,360,78946,6,0,P|476:328|462:234,1,157.500006008148,2|0,0:0|0:0,0:0:0:0:
486,162,79162,1,12,0:0:0:0:
486,162,79270,1,2,0:0:0:0:
433,98,79378,6,0,P|404:46|395:-5,1,105.000004005432,0|2,0:0|0:0,0:0:0:0:
402,178,79594,2,0,P|344:133|287:51,1,157.500006008148,12|0,0:0|0:0,0:0:0:0:
190,33,79809,6,0,P|130:74|159:161,1,157.500006008148,2|0,0:0|0:0,0:0:0:0:
217,193,80025,1,12,0:0:0:0:
217,193,80133,1,0,0:0:0:0:
196,271,80241,6,0,P|144:280|95:299,1,105.000004005432,0|2,0:0|0:0,0:0:0:0:
279,326,80457,2,0,P|226:342|185:375,1,105.000004005432,12|0,0:0|0:0,0:0:0:0:
470,287,80673,5,2,0:0:0:0:
459,320,80781,1,0,0:0:0:0:
421,214,80889,5,8,0:0:0:0:
359,298,80996,1,8,0:0:0:0:
388,114,81104,5,2,0:0:0:0:
217,193,81212,1,2,0:0:0:0:
407,15,81320,5,4,0:3:0:0:
407,15,81392,5,4,0:3:0:0:
407,15,81464,5,4,0:3:0:0:
407,15,81536,2,0,P|346:27|339:65,1,93.3333333333333,4|0,0:3|0:0,0:0:0:0:
234,100,81752,5,2,0:3:0:0:
255,96,81824,5,2,0:3:0:0:
275,102,81896,5,2,0:3:0:0:
291,115,81968,6,0,P|309:179|286:224,1,116.666666666667,2|0,0:3|0:0,0:0:0:0:
342,288,82183,5,8,0:0:0:0:
334,327,82255,5,8,0:0:0:0:
302,347,82327,5,8,0:0:0:0:
264,338,82399,6,8,P|221:276|154:284,1,140.000005340576,8|0,0:0|0:0,0:0:0:0:
90,303,82615,5,8,0:0:0:0:
40,282,82687,5,8,0:0:0:0:
21,227,82759,5,8,0:0:0:0:
42,174,82831,6,0,P|115:146|183:220,1,163.333334891001,8|0,0:0|0:0,0:0:0:0:
257,153,83047,5,4,0:3:0:0:
312,200,83119,5,4,0:3:0:0:
385,186,83191,5,4,0:3:0:0:
415,120,83263,6,0,P|379:43|285:46,1,186.666666666667,4|0,0:3|0:0,0:0:0:0:
200,12,83478,5,2,0:3:0:0:
132,54,83550,5,2,0:3:0:0:
124,134,83622,5,2,0:3:0:0:
176,193,83694,6,0,P|217:240|154:356,1,210.000008010865,2|0,0:3|0:0,0:0:0:0:
26,305,83910,5,8,0:3:0:0:
0,226,83982,5,8,0:3:0:0:
39,153,84054,5,8,0:3:0:0:
124,134,84126,6,0,P|225:173|331:98,1,233.333333333333,8|0,0:3|0:0,0:0:0:0:
410,36,84342,5,8,0:3:0:0:
495,82,84414,5,8,0:3:0:0:
512,174,84486,5,8,0:3:0:0:
462,251,84558,6,0,P|343:229|324:111,1,256.666669114431,8|0,0:3|0:0,0:0:0:0:
72,50,84773,5,0,0:0:0:0:
72,50,84845,5,0,0:0:0:0:
72,50,84917,5,0,0:0:0:0:
72,50,84989,6,0,P|169:113|430:357,1,466.666666666667,4|0,0:2|0:0,0:0:0:0:
502,373,85781,5,8,0:0:0:0:
502,373,85853,5,8,0:0:0:0:
298,197,86068,5,0,0:0:0:0:
315,271,86176,1,8,0:0:0:0:
231,344,86284,5,0,0:0:0:0:
220,340,86338,1,0,0:0:0:0:
209,323,86392,1,0,0:0:0:0:
207,294,86446,1,0,0:0:0:0:
228,261,86500,1,8,0:0:0:0:
274,242,86554,1,0,0:0:0:0:
332,236,86608,1,0,0:0:0:0:
400,205,86662,1,0,0:0:0:0:
466,149,86716,1,2,0:2:0:0:
466,149,86932,5,8,0:0:0:0:
386,384,87040,6,0,P|418:212|487:50,1,350,2|0,0:2|0:0,0:0:0:0:
310,20,87363,6,0,P|319:53|396:65,1,116.666666666667,10|0,0:2|0:0,0:0:0:0:
429,0,87579,5,10,0:2:0:0:
47,324,88011,6,0,L|53:348,11,17.500000667572,0|0|0|0|0|0|0|0|0|0|0|0,2:0|2:0|2:0|2:0|2:0|2:0|2:0|2:0|2:0|2:0|2:0|2:0,0:0:0:0:
