osu file format v14

[General]
AudioFilename: Tanaka Aimi - Kakushinteki Metamarphose (Himouto! Umaru-chan OP) (TV Size).mp3
AudioLeadIn: 0
PreviewTime: 7919
Countdown: 0
SampleSet: Soft
StackLeniency: 0.7
Mode: 3
LetterboxInBreaks: 0
SpecialStyle: 0
WidescreenStoryboard: 0

[Editor]
DistanceSpacing: 0.6
BeatDivisor: 4
GridSize: 4
TimelineZoom: 1.2

[Metadata]
Title:Kakushinteki*Metamaruphose!
TitleUnicode:かくしん的☆めたまるふぉ~ぜっ!
Artist:Doma Umaru [CV.Tanaka Aimi]
ArtistUnicode:土間うまる [CV.田中あいみ]
Creator:Kivicat
Version:Normal
Source:干物妹!うまるちゃん
Tags:Himouto! Umaruchan Opening TV Size
BeatmapID:760969
BeatmapSetID:344477

[Difficulty]
HPDrainRate:7
CircleSize:9
OverallDifficulty:8
ApproachRate:5
SliderMultiplier:1.4
SliderTickRate:1

[Events]
//Background and Video events
0,0,"umaru-chan.png",0,0
//Break Periods
//Storyboard Layer 0 (Background)
//Storyboard Layer 1 (Fail)
//Storyboard Layer 2 (Pass)
//Storyboard Layer 3 (Foreground)
//Storyboard Sound Samples

[TimingPoints]
1660.15249436305,431.654676258993,4,2,0,5,1,0
41376,301.507537688442,3,2,0,5,1,0
41376,-142.857142857143,3,2,0,5,0,0
51317,431.654676258993,4,2,0,5,1,0
52180,431.654676258993,4,2,0,5,1,0
59086,-100,4,2,0,5,0,1
72899,-100,4,2,0,5,0,0

[HitObjects]
483,192,1660,5,0,0:0:0:40:LR_CymbalCCR.wav
369,192,1875,1,0,0:0:0:60:LR_Kick Hard Fast.wav
256,192,2091,1,0,0:0:0:60:LR_Kick Hard Fast.wav
199,192,2523,1,0,0:0:0:60:LR_Kick Hard Fast.wav
312,192,2955,1,0,0:0:0:60:LR_Kick Hard Fast.wav
28,192,3386,1,0,0:0:0:50:LR_Kick Drum Fast.wav
142,192,3602,1,0,0:0:0:60:LR_Kick Hard Fast.wav
256,192,3818,1,0,0:0:0:60:LR_Kick Hard Fast.wav
426,192,4250,1,0,0:0:0:60:LR_Kick Hard Fast.wav
312,192,4357,1,0,0:0:0:60:LR_Kick Hard Fast.wav
483,192,4465,1,0,0:0:0:60:LR_Kick Hard Fast.wav
85,192,4681,1,0,0:0:0:60:LR_Kick Hard Fast.wav
199,192,4789,1,0,0:0:0:60:LR_Kick Hard Fast.wav
28,192,4897,1,0,0:0:0:60:LR_Kick Hard Fast.wav
369,192,5113,1,0,0:0:0:50:LR_Kick Drum Fast.wav
256,192,5329,1,0,0:0:0:60:LR_Kick Hard Fast.wav
142,192,5545,1,0,0:0:0:60:LR_Kick Hard Fast.wav
312,192,5976,1,0,0:0:0:60:LR_Kick Hard Fast.wav
199,192,6408,1,0,0:0:0:60:LR_Kick Hard Fast.wav
28,192,6840,128,0,7271:0:0:0:0:
483,192,7271,128,0,7703:0:0:0:0:
256,192,7703,1,0,0:0:0:30:LR_Drum Hit P.wav
426,192,8566,128,0,9429:0:0:0:40:LR_CymbalCCR.wav
28,192,8566,1,0,0:0:0:50:LR_Kick Drum Fast.wav
312,192,9429,128,0,10293:0:0:0:40:LR_CymbalCCR.wav
142,192,9429,1,0,0:0:0:50:LR_Kick Drum Fast.wav
199,192,10293,128,0,11156:0:0:0:40:LR_CymbalCCR.wav
483,192,10293,1,0,0:0:0:50:LR_Kick Drum Fast.wav
85,192,11156,128,0,11588:0:0:0:40:LR_CymbalCCR.wav
369,192,11156,1,0,0:0:0:50:LR_Kick Drum Fast.wav
483,192,11588,128,0,12019:0:0:0:40:LR_CymbalCCR.wav
256,192,11588,1,0,0:0:0:30:LR_Drum Hit P.wav
369,192,12019,128,0,12883:0:0:0:40:LR_CymbalCCR.wav
142,192,12019,1,0,0:0:0:50:LR_Kick Drum Fast.wav
256,192,12883,128,0,13746:0:0:0:40:LR_CymbalCCR.wav
28,192,12883,1,0,0:0:0:50:LR_Kick Drum Fast.wav
142,192,13746,128,0,14609:0:0:0:40:LR_CymbalCCR.wav
426,192,13746,1,0,0:0:0:50:LR_Kick Drum Fast.wav
483,192,14609,128,0,15041:0:0:0:30:LR_Drum Hit P.wav
28,192,14609,128,0,15041:0:0:0:40:LR_CymbalCCR.wav
369,192,15041,128,0,15473:0:0:0:40:LR_CymbalCCR.wav
256,192,15041,1,0,0:0:0:30:LR_Drum Hit P.wav
199,192,15473,1,0,0:0:0:40:LR_CymbalCCR.wav
85,192,15473,1,0,0:0:0:50:LR_Kick Drum Fast.wav
312,192,15904,1,0,0:0:0:50:LR_Kick Drum Fast.wav
426,192,15904,1,0,0:0:0:0:
142,192,16336,1,0,0:0:0:60:LR_Kick Hard Fast.wav
28,192,16336,1,0,0:0:0:0:
483,192,16768,1,0,0:0:0:20:LR_Drum Hit P.wav
369,192,16768,1,0,0:0:0:60:LR_Kick Hard Fast.wav
199,192,17199,1,0,0:0:0:50:LR_Kick Drum Fast.wav
28,192,17199,1,0,0:0:0:0:
85,192,17631,1,0,0:0:0:0:
256,192,17631,1,0,0:0:0:40:LR_CymbalCCR.wav
426,192,17631,1,0,0:0:0:60:LR_Kick Hard Fast.wav
312,192,18063,1,0,0:0:0:50:LR_Kick Drum Fast.wav
483,192,18063,1,0,0:0:0:0:
369,192,18494,1,0,0:0:0:0:
256,192,18494,1,0,0:0:0:40:LR_CymbalCCR.wav
142,192,18494,1,0,0:0:0:60:LR_Kick Hard Fast.wav
85,192,18926,1,0,0:0:0:0:
426,192,18926,1,0,0:0:0:30:LR_Drum Hit P.wav
256,192,18926,128,0,19789:0:0:0:0:
28,192,19789,1,0,0:0:0:0:
483,192,19789,1,0,0:0:0:30:LR_Drum Hit P.wav
312,192,20221,1,0,0:0:0:40:LR_CymbalCCR.wav
199,192,20221,1,0,0:0:0:50:LR_Kick Drum Fast.wav
142,192,20437,1,0,0:0:0:50:LR_Kick Drum Fast.wav
369,192,20437,1,0,0:0:0:40:LR_CymbalCCR.wav
85,192,20652,1,0,0:0:0:30:LR_Drum Hit P.wav
256,192,20652,1,0,0:0:0:0:
426,192,20652,1,0,0:0:0:40:LR_CymbalCCR.wav
199,192,21084,1,0,0:0:0:30:LR_Drum Hit P.wav
28,192,21084,1,0,0:0:0:0:
312,192,21516,1,0,0:0:0:30:LR_Drum Hit P.wav
483,192,21516,1,0,0:0:0:0:
256,192,21947,1,0,0:0:0:0:
142,192,21947,1,0,0:0:0:30:LR_Drum Hit P.wav
426,192,22379,1,0,0:0:0:0:
312,192,22379,1,0,0:0:0:30:LR_Drum Hit P.wav
199,192,22811,1,0,0:0:0:30:LR_Drum Hit P.wav
85,192,22811,1,0,0:0:0:0:
369,192,23242,1,0,0:0:0:30:LR_Drum Hit P.wav
483,192,23242,1,0,0:0:0:0:
256,192,23458,1,0,0:0:0:70:LR_Hat Synth.wav
142,192,23674,1,0,0:0:0:30:LR_Drum Hit P.wav
28,192,23674,1,0,0:0:0:0:
199,192,24106,1,0,0:0:0:30:LR_Drum Hit P.wav
483,192,24106,1,0,0:0:0:0:
28,192,24537,1,0,0:0:0:0:
312,192,24537,1,0,0:0:0:30:LR_Drum Hit P.wav
426,192,24969,1,0,0:0:0:30:LR_Drum Hit P.wav
142,192,24969,1,0,0:0:0:0:
256,192,25185,1,0,0:0:0:70:LR_Hat Synth.wav
85,192,25401,1,0,0:0:0:0:
369,192,25401,1,0,0:0:0:30:LR_Drum Hit P.wav
312,192,25832,1,0,0:0:0:0:
199,192,25832,1,0,0:0:0:30:LR_Drum Hit P.wav
483,192,25940,1,0,0:0:0:50:LR_Kick Drum Fast.wav
369,192,26048,1,0,0:0:0:50:LR_Kick Drum Fast.wav
256,192,26156,1,0,0:0:0:0:
142,192,26156,1,0,0:0:0:40:LR_Tom Normal.wav
426,192,26264,1,0,0:0:0:50:LR_Kick Drum Fast.wav
199,192,26480,1,0,0:0:0:40:LR_Tom Drop.wav
312,192,26480,1,0,0:0:0:0:
28,192,26588,1,0,0:0:0:50:LR_Kick Drum Fast.wav
369,192,26696,1,0,0:0:0:30:LR_Drum Hit P.wav
483,192,26696,1,0,0:0:0:40:LR_CymbalCCR.wav
142,192,26696,1,0,0:0:0:0:
85,192,27559,1,0,0:0:0:40:LR_Kick Drum Fast.wav
85,192,27883,1,0,0:0:0:40:LR_Kick Drum Fast.wav
426,192,27991,1,0,0:0:0:60:Clap_short2.wav
369,192,28314,1,0,0:0:0:40:LR_Kick Drum Fast.wav
369,192,28530,1,0,0:0:0:40:LR_Kick Drum Fast.wav
369,192,28746,1,0,0:0:0:40:LR_Kick Drum Fast.wav
142,192,28854,1,0,0:0:0:60:Clap_short2.wav
28,192,29070,1,0,0:0:0:40:LR_Kick Drum Fast.wav
28,192,29286,1,0,0:0:0:40:LR_Kick Drum Fast.wav
483,192,29717,1,0,0:0:0:60:Clap_short2.wav
312,192,30041,1,0,0:0:0:40:LR_Kick Drum Fast.wav
312,192,30257,1,0,0:0:0:40:LR_Kick Drum Fast.wav
312,192,30473,1,0,0:0:0:40:LR_Kick Drum Fast.wav
199,192,30581,1,0,0:0:0:60:Clap_short2.wav
85,192,30796,1,0,0:0:0:40:LR_Kick Drum Fast.wav
85,192,31012,1,0,0:0:0:40:LR_Kick Drum Fast.wav
426,192,31444,1,0,0:0:0:60:Clap_short2.wav
369,192,31768,1,0,0:0:0:40:LR_Kick Drum Fast.wav
369,192,31983,1,0,0:0:0:40:LR_Kick Drum Fast.wav
369,192,32199,1,0,0:0:0:40:LR_Kick Drum Fast.wav
142,192,32307,1,0,0:0:0:60:Clap_short2.wav
28,192,32523,1,0,0:0:0:40:LR_Kick Drum Fast.wav
28,192,32739,1,0,0:0:0:40:LR_Kick Drum Fast.wav
483,192,33170,1,0,0:0:0:60:Clap_short2.wav
312,192,33494,1,0,0:0:0:40:LR_Kick Drum Fast.wav
312,192,33710,1,0,0:0:0:40:LR_Kick Drum Fast.wav
312,192,33926,1,0,0:0:0:40:LR_Kick Drum Fast.wav
199,192,34034,1,0,0:0:0:60:Clap_short2.wav
85,192,34250,1,0,0:0:0:40:LR_Kick Drum Fast.wav
85,192,34465,1,0,0:0:0:40:LR_Kick Drum Fast.wav
256,192,34897,1,0,0:0:0:60:Clap_short2.wav
426,192,35221,1,0,0:0:0:40:LR_Kick Drum Fast.wav
426,192,35437,1,0,0:0:0:40:LR_Kick Drum Fast.wav
426,192,35652,1,0,0:0:0:40:LR_Kick Drum Fast.wav
256,192,35760,1,0,0:0:0:60:Clap_short2.wav
28,192,35976,1,0,0:0:0:40:LR_Kick Drum Fast.wav
28,192,36192,1,0,0:0:0:40:LR_Kick Drum Fast.wav
199,192,36624,1,0,0:0:0:60:Clap_short2.wav
483,192,36947,1,0,0:0:0:40:LR_Kick Drum Fast.wav
483,192,37163,1,0,0:0:0:40:LR_Kick Drum Fast.wav
483,192,37379,1,0,0:0:0:40:LR_Kick Drum Fast.wav
312,192,37487,1,0,0:0:0:60:Clap_short2.wav
142,192,37703,1,0,0:0:0:40:LR_Kick Drum Fast.wav
142,192,37919,1,0,0:0:0:40:LR_Kick Drum Fast.wav
142,192,38242,1,0,0:0:0:40:LR_Kick Drum Fast.wav
256,192,38350,1,0,0:0:0:60:Clap_short2.wav
369,192,38566,1,0,0:0:0:40:LR_Kick Drum Fast.wav
369,192,38782,1,0,0:0:0:40:LR_Kick Drum Fast.wav
369,192,39106,1,0,0:0:0:40:LR_Kick Drum Fast.wav
256,192,39214,1,0,0:0:0:60:Clap_short2.wav
142,192,39429,1,0,0:0:0:40:LR_Kick Drum Fast.wav
85,192,39645,1,0,0:0:0:40:LR_Kick Drum Fast.wav
426,192,40077,1,0,0:0:0:40:LR_Kick Drum Fast.wav
85,192,40509,1,0,0:0:0:40:LR_Kick Drum Fast.wav
312,192,40940,1,0,0:0:0:0:
199,192,40994,1,0,0:0:0:0:
312,192,41048,1,0,0:0:0:0:
369,192,41376,1,0,0:0:0:0:
142,192,41677,1,0,0:0:0:100:LR_Hat Fast.wav
369,192,41979,1,0,0:0:0:100:LR_Hat Fast.wav
483,192,42280,128,0,43185:0:0:0:0:
28,192,42280,128,0,43185:0:0:0:0:
256,192,43185,1,0,0:0:0:0:
312,192,43486,1,0,0:0:0:100:LR_Hat Fast.wav
199,192,43637,1,0,0:0:0:100:LR_Hat Fast.wav
312,192,43788,1,0,0:0:0:100:LR_Hat Fast.wav
369,192,44089,128,0,44994:0:0:0:0:
142,192,44089,128,0,44994:0:0:0:0:
256,192,44994,1,0,0:0:0:100:LR_Hat Fast.wav
85,192,45295,1,0,0:0:0:100:LR_Hat Fast.wav
426,192,45446,1,0,0:0:0:100:LR_Hat Fast.wav
85,192,45597,1,0,0:0:0:100:LR_Hat Fast.wav
483,192,45898,128,0,46803:0:0:0:0:
28,192,45898,128,0,46803:0:0:0:0:
199,192,46803,1,0,0:0:0:0:
369,192,47104,1,0,0:0:0:100:LR_Hat Fast.wav
256,192,47255,1,0,0:0:0:100:LR_Hat Fast.wav
142,192,47406,1,0,0:0:0:100:LR_Hat Fast.wav
483,192,47707,128,0,48009:0:0:0:0:
28,192,47707,1,0,0:0:0:100:LR_Hat Fast.wav
426,192,48009,128,0,48310:0:0:0:0:
85,192,48009,1,0,0:0:0:100:LR_Hat Fast.wav
369,192,48310,128,0,48612:0:0:0:0:
142,192,48310,128,0,48612:0:0:0:0:
256,192,48612,1,0,0:0:0:0:
28,192,48612,1,0,0:0:0:100:LR_Hat Fast.wav
426,192,48913,1,0,0:0:0:100:LR_Hat Fast.wav
312,192,49064,1,0,0:0:0:100:LR_Hat Fast.wav
199,192,49215,1,0,0:0:0:100:LR_Hat Fast.wav
483,192,49516,1,0,0:0:0:0:
256,192,49516,1,0,0:0:0:100:LR_Hat Fast.wav
85,192,49818,1,0,0:0:0:100:LR_Hat Fast.wav
199,192,49968,1,0,0:0:0:100:LR_Hat Fast.wav
312,192,50119,1,0,0:0:0:100:LR_Hat Fast.wav
28,192,50421,128,0,51317:0:0:0:0:
256,192,50421,128,0,51317:0:0:0:0:
369,192,51317,1,0,0:0:0:100:LR_Hat Fast.wav
142,192,51317,1,0,0:0:0:30:LR_Drum Hit P.wav
426,192,51748,1,0,0:0:0:40:LR_CymbalCCR.wav
85,192,51748,1,0,0:0:0:50:LR_Kick Drum Fast.wav
142,192,51964,1,0,0:0:0:50:LR_Kick Drum Fast.wav
369,192,51964,1,0,0:0:0:40:LR_CymbalCCR.wav
199,192,52180,1,0,0:0:0:30:LR_Drum Hit P.wav
312,192,52180,1,0,0:0:0:40:LR_CymbalCCR.wav
483,192,52395,1,0,0:0:0:0:
28,192,52395,1,0,0:0:0:30:LR_Drum Hit P.wav
85,192,52827,1,0,0:0:0:0:
199,192,52827,1,0,0:0:0:30:LR_Drum Hit P.wav
312,192,53259,1,0,0:0:0:30:LR_Drum Hit P.wav
426,192,53259,1,0,0:0:0:0:
142,192,53690,1,0,0:0:0:30:LR_Drum Hit P.wav
28,192,53690,1,0,0:0:0:0:
256,192,53906,1,0,0:0:0:50:LR_Kick Drum Fast.wav
369,192,54122,1,0,0:0:0:30:LR_Drum Hit P.wav
483,192,54122,1,0,0:0:0:0:
199,192,54554,1,0,0:0:0:30:LR_Drum Hit P.wav
28,192,54554,1,0,0:0:0:0:
256,192,54769,1,0,0:0:0:50:LR_Kick Drum Fast.wav
483,192,54985,1,0,0:0:0:0:
312,192,54985,1,0,0:0:0:30:LR_Drum Hit P.wav
85,192,55417,1,0,0:0:0:30:LR_Drum Hit P.wav
369,192,55417,1,0,0:0:0:0:
256,192,55633,1,0,0:0:0:50:LR_Kick Drum Fast.wav
142,192,55849,1,0,0:0:0:0:
426,192,55849,1,0,0:0:0:30:LR_Drum Hit P.wav
256,192,56064,1,0,0:0:0:50:LR_Kick Drum Fast.wav
369,192,56280,1,0,0:0:0:0:
85,192,56280,1,0,0:0:0:30:LR_Drum Hit P.wav
256,192,56496,1,0,0:0:0:60:LR_Kick Hard Fast.wav
199,192,56712,1,0,0:0:0:60:LR_Kick Hard Fast.wav
312,192,56712,1,0,0:0:0:0:
369,192,56928,1,0,0:0:0:50:LR_Kick Drum Fast.wav
142,192,56928,1,0,0:0:0:0:
85,192,57144,1,0,0:0:0:0:
426,192,57144,1,0,0:0:0:50:LR_Kick Drum Fast.wav
483,192,57575,1,0,0:0:0:30:LR_Drum Hit P.wav
28,192,57575,1,0,0:0:0:50:LR_Kick Drum Fast.wav
28,192,57791,1,0,0:0:0:50:LR_Kick Drum Fast.wav
483,192,57791,1,0,0:0:0:30:LR_Drum Hit P.wav
28,192,58007,1,0,0:0:0:50:LR_Kick Drum Fast.wav
483,192,58007,1,0,0:0:0:30:LR_Drum Hit P.wav
28,192,58223,1,0,0:0:0:50:LR_Kick Drum Fast.wav
483,192,58223,1,0,0:0:0:30:LR_Drum Hit P.wav
85,192,59086,1,0,0:0:0:50:LR_Kick Drum Fast.wav
312,192,59086,1,0,0:0:0:40:LR_CymbalCCR.wav
426,192,59086,128,0,59949:0:0:0:0:
199,192,59302,1,0,0:0:0:30:LR_Drum Hit P.wav
199,192,59626,1,0,0:0:0:50:LR_Kick Drum Fast.wav
312,192,59733,1,0,0:0:0:30:LR_Drum Hit P.wav
85,192,59949,128,0,60813:0:0:0:0:
199,192,59949,1,0,0:0:0:50:LR_Kick Drum Fast.wav
312,192,60165,1,0,0:0:0:30:LR_Drum Hit P.wav
312,192,60489,1,0,0:0:0:50:LR_Kick Drum Fast.wav
199,192,60597,1,0,0:0:0:30:LR_Drum Hit P.wav
483,192,60813,128,0,61676:0:0:0:0:
369,192,60813,1,0,0:0:0:50:LR_Kick Drum Fast.wav
142,192,61028,1,0,0:0:0:30:LR_Drum Hit P.wav
142,192,61352,1,0,0:0:0:50:LR_Kick Drum Fast.wav
369,192,61460,1,0,0:0:0:30:LR_Drum Hit P.wav
28,192,61676,128,0,62539:0:0:0:0:
142,192,61676,1,0,0:0:0:50:LR_Kick Drum Fast.wav
369,192,61892,1,0,0:0:0:30:LR_Drum Hit P.wav
369,192,62215,1,0,0:0:0:50:LR_Kick Drum Fast.wav
142,192,62323,1,0,0:0:0:30:LR_Drum Hit P.wav
312,192,62539,128,0,62755:0:0:0:0:
426,192,62539,1,0,0:0:0:50:LR_Kick Drum Fast.wav
199,192,62755,1,0,0:0:0:30:LR_Drum Hit P.wav
85,192,62755,1,0,0:0:0:40:LR_CymbalCCR.wav
142,192,63079,1,0,0:0:0:50:LR_Kick Drum Fast.wav
369,192,63187,1,0,0:0:0:30:LR_Drum Hit P.wav
199,192,63403,128,0,63618:0:0:0:0:
85,192,63403,1,0,0:0:0:50:LR_Kick Drum Fast.wav
426,192,63618,1,0,0:0:0:40:LR_CymbalCCR.wav
312,192,63618,1,0,0:0:0:30:LR_Drum Hit P.wav
369,192,63942,1,0,0:0:0:50:LR_Kick Drum Fast.wav
256,192,64050,1,0,0:0:0:30:LR_Drum Hit P.wav
142,192,64266,1,0,0:0:0:50:LR_Kick Drum Fast.wav
256,192,64482,128,0,65129:0:0:0:0:
483,192,64482,1,0,0:0:0:30:LR_Drum Hit P.wav
28,192,64805,1,0,0:0:0:50:LR_Kick Drum Fast.wav
142,192,64913,1,0,0:0:0:30:LR_Drum Hit P.wav
426,192,65129,128,0,65561:0:0:0:0:
312,192,65129,1,0,0:0:0:50:LR_Kick Drum Fast.wav
199,192,65345,1,0,0:0:0:30:LR_Drum Hit P.wav
85,192,65561,128,0,65992:0:0:0:0:
312,192,65561,1,0,0:0:0:30:LR_Drum Hit P.wav
199,192,65777,1,0,0:0:0:30:LR_Drum Hit P.wav
312,192,65992,1,0,0:0:0:30:LR_Drum Hit P.wav
483,192,65992,128,0,66856:0:0:0:0:
199,192,66424,1,0,0:0:0:30:LR_Drum Hit P.wav
28,192,66856,128,0,67719:0:0:0:0:
312,192,66856,1,0,0:0:0:30:LR_Drum Hit P.wav
256,192,67287,1,0,0:0:0:30:LR_Drum Hit P.wav
426,192,67719,128,0,68151:0:0:0:0:
199,192,67719,1,0,0:0:0:50:LR_Kick Drum Fast.wav
369,192,68151,128,0,68582:0:0:0:0:
142,192,68151,1,0,0:0:0:50:LR_Kick Drum Fast.wav
85,192,68582,128,0,69014:0:0:0:0:
312,192,68582,1,0,0:0:0:50:LR_Kick Drum Fast.wav
199,192,68798,128,0,69014:0:0:0:0:
483,192,69014,128,0,69446:0:0:0:0:
369,192,69230,128,0,69446:0:0:0:0:
28,192,69446,128,0,69662:0:0:0:0:
142,192,69446,1,0,0:0:0:50:LR_Kick Drum Fast.wav
256,192,69662,1,0,0:0:0:40:LR_CymbalCCR.wav
426,192,69662,1,0,0:0:0:30:LR_Drum Hit P.wav
312,192,69985,1,0,0:0:0:50:LR_Kick Drum Fast.wav
142,192,70093,1,0,0:0:0:30:LR_Drum Hit P.wav
483,192,70309,128,0,70525:0:0:0:0:
369,192,70309,1,0,0:0:0:50:LR_Kick Drum Fast.wav
256,192,70525,1,0,0:0:0:30:LR_Drum Hit P.wav
85,192,70525,1,0,0:0:0:40:LR_CymbalCCR.wav
199,192,70849,1,0,0:0:0:50:LR_Kick Drum Fast.wav
369,192,70956,1,0,0:0:0:30:LR_Drum Hit P.wav
28,192,71172,1,0,0:0:0:50:LR_Kick Drum Fast.wav
312,192,71388,1,0,0:0:0:30:LR_Drum Hit P.wav
142,192,71388,1,0,0:0:0:0:
483,192,71712,1,0,0:0:0:50:LR_Kick Drum Fast.wav
199,192,71820,1,0,0:0:0:30:LR_Drum Hit P.wav
369,192,71820,1,0,0:0:0:0:
85,192,72036,1,0,0:0:0:50:LR_Kick Drum Fast.wav
426,192,72251,1,0,0:0:0:30:LR_Drum Hit P.wav
256,192,72251,1,0,0:0:0:0:
28,192,72467,1,0,0:0:0:0:
142,192,72467,1,0,0:0:0:30:LR_Drum Hit P.wav
483,192,72683,1,0,0:0:0:0:
312,192,72683,1,0,0:0:0:30:LR_Drum Hit P.wav
28,192,72899,1,0,0:0:0:0:
199,192,72899,1,0,0:0:0:50:LR_Kick Drum Fast.wav
369,192,73115,1,0,0:0:0:30:LR_Drum Hit P.wav
483,192,73115,1,0,0:0:0:0:
142,192,73331,1,0,0:0:0:50:LR_Kick Drum Fast.wav
483,192,73546,1,0,0:0:0:0:
312,192,73546,1,0,0:0:0:30:LR_Drum Hit P.wav
85,192,73762,1,0,0:0:0:50:LR_Kick Drum Fast.wav
256,192,73978,1,0,0:0:0:30:LR_Drum Hit P.wav
426,192,73978,1,0,0:0:0:0:
28,192,74194,1,0,0:0:0:50:LR_Kick Drum Fast.wav
199,192,74410,1,0,0:0:0:30:LR_Drum Hit P.wav
369,192,74410,1,0,0:0:0:0:
28,192,74626,1,0,0:0:0:50:LR_Kick Drum Fast.wav
142,192,74841,1,0,0:0:0:30:LR_Drum Hit P.wav
312,192,74841,1,0,0:0:0:0:
256,192,75057,1,0,0:0:0:50:LR_Kick Drum Fast.wav
369,192,75273,1,0,0:0:0:30:LR_Drum Hit P.wav
199,192,75273,1,0,0:0:0:0:
483,192,75489,1,0,0:0:0:40:LR_Tom Normal.wav
312,192,75705,1,0,0:0:0:0:
142,192,75705,1,0,0:0:0:40:LR_Tom Drop.wav
426,192,75921,1,0,0:0:0:40:LR_Tom Drop.wav
85,192,76136,1,0,0:0:0:30:LR_Drum Hit P.wav
256,192,76136,1,0,0:0:0:0:
483,192,76352,1,0,0:0:0:0:
369,192,76352,1,0,0:0:0:50:LR_Kick Drum Fast.wav
28,192,76352,1,0,0:0:0:30:LR_Drum Hit P.wav
312,192,77000,1,0,0:0:0:40:LR_Tom Normal.wav
85,192,77215,1,0,0:0:0:0:
199,192,77215,1,0,0:0:0:30:LR_Drum Hit P.wav
369,192,77431,1,0,0:0:0:40:LR_Kick Drum Fast.wav
483,192,77647,1,0,0:0:0:40:LR_CymbalCCR.wav
28,192,77647,1,0,0:0:0:0:
142,192,77647,1,0,0:0:0:50:LR_Kick Drum Fast.wav
256,192,78079,128,0,79158:0:0:0:0:
483,192,78079,1,0,0:0:0:50:LR_Kick Drum Fast.wav
369,192,78295,1,0,0:0:0:30:LR_Drum Hit P.wav
142,192,78726,1,0,0:0:0:30:LR_Drum Hit P.wav
28,192,78942,1,0,0:0:0:50:LR_Kick Drum Fast.wav
312,192,79158,128,0,79374:0:0:0:0:
142,192,79158,1,0,0:0:0:30:LR_Drum Hit P.wav
369,192,79374,128,0,79590:0:0:0:0:
426,192,79590,128,0,79805:0:0:0:0:
85,192,79590,1,0,0:0:0:30:LR_Drum Hit P.wav
483,192,79805,128,0,80453:0:0:0:0:
199,192,79805,1,0,0:0:0:50:LR_Kick Drum Fast.wav
85,192,80021,1,0,0:0:0:30:LR_Drum Hit P.wav
369,192,80453,128,0,81532:0:0:0:0:
142,192,80453,1,0,0:0:0:30:LR_Drum Hit P.wav
28,192,80669,1,0,0:0:0:50:LR_Kick Drum Fast.wav
199,192,80885,1,0,0:0:0:30:LR_Drum Hit P.wav
85,192,81100,1,0,0:0:0:40:LR_Tom Normal.wav
28,192,81532,128,0,81964:0:0:0:70:LR_Hat Synth.wav
312,192,81532,128,0,81964:0:0:0:50:LR_Kick Drum Fast.wav
369,192,81964,128,0,82395:0:0:0:50:LR_Kick Drum Fast.wav
85,192,81964,128,0,82395:0:0:0:40:LR_CymbalCCR.wav
142,192,82395,128,0,82827:0:0:0:70:LR_Hat Synth.wav
426,192,82395,128,0,82827:0:0:0:50:LR_Kick Drum Fast.wav
199,192,82827,128,0,83259:0:0:0:40:LR_CymbalCCR.wav
483,192,82827,128,0,83259:0:0:0:50:LR_Kick Drum Fast.wav
256,192,83259,128,0,83690:0:0:0:70:LR_Hat Synth.wav
28,192,83259,128,0,83690:0:0:0:40:LR_Tom Normal.wav
312,192,83690,128,0,84122:0:0:0:70:LR_Hat Synth.wav
85,192,83690,128,0,84122:0:0:0:40:LR_Tom Normal.wav
369,192,84122,128,0,84554:0:0:0:70:LR_Hat Synth.wav
142,192,84122,128,0,84554:0:0:0:40:LR_Tom Drop.wav
426,192,84554,128,0,84985:0:0:0:70:LR_Hat Synth.wav
199,192,84554,128,0,84985:0:0:0:40:LR_Tom Drop.wav
256,192,84985,128,0,86280:0:0:0:50:LR_Kick Drum Fast.wav
483,192,84985,128,0,86280:0:0:0:40:LR_CymbalCCR.wav
28,192,85777,1,0,0:0:0:30:LR_Drum Hit P.wav
142,192,85849,1,0,0:0:0:30:LR_Drum Hit P.wav
426,192,86064,1,0,0:0:0:30:LR_Drum Hit P.wav
312,192,86172,1,0,0:0:0:30:LR_Drum Hit P.wav
85,192,86280,128,0,86712:0:0:0:0:
369,192,86496,1,0,0:0:0:30:LR_Drum Hit P.wav
142,192,86712,1,0,0:0:0:30:LR_Drum Hit P.wav
256,192,86928,1,0,0:0:0:30:LR_Drum Hit P.wav
312,192,87036,128,0,87359:0:0:0:0:
199,192,87036,128,0,87359:0:0:0:0:
85,192,87359,1,0,0:0:0:0:
426,192,87359,1,0,0:0:0:0:
28,192,87575,1,0,0:0:0:40:LR_Tom Drop.wav
483,192,87575,1,0,0:0:0:50:LR_Kick Drum Fast.wav
