osu file format v14

[General]
AudioFilename: ratsyks.mp3
AudioLeadIn: 0
PreviewTime: 58443
Countdown: 0
SampleSet: Normal
StackLeniency: 0.7
Mode: 0
LetterboxInBreaks: 0
WidescreenStoryboard: 0

[Editor]
DistanceSpacing: 1.1
BeatDivisor: 4
GridSize: 4
TimelineZoom: 2.799999

[Metadata]
Title:Kakushinteki*Metamaruphose!
TitleUnicode:かくしん的☆めたまるふぉ~ぜっ!
Artist:Doma Umaru [CV.Tanaka Aimi]
ArtistUnicode:土間うまる [CV.田中あいみ]
Creator:Crystal
Version:Extra
Source:干物妹!うまるちゃん
Tags:Himouto! Umaruchan opening anime tv size Skystar Amamiya Yuko wcx19911123 Fycho Kencho Kawaiwkyik Rizia victorica_db Flask CLSW Nardoxyribonucleic _Gezo_
BeatmapID:736396
BeatmapSetID:332623

[Difficulty]
HPDrainRate:6
CircleSize:4
OverallDifficulty:8.5
ApproachRate:9.5
SliderMultiplier:1.6
SliderTickRate:1

[Events]
//Background and Video events
0,0,"umaruchan1.jpg",0,0
Video,0,"Butterfly.avi"
//Break Periods
//Storyboard Layer 0 (Background)
//Storyboard Layer 1 (Fail)
//Storyboard Layer 2 (Pass)
//Storyboard Layer 3 (Foreground)
//Storyboard Sound Samples

[TimingPoints]
-69,215.827338129496,4,1,89,70,1,0
8564,-200,4,1,89,70,0,0
9427,-166.666666666667,4,1,89,70,0,0
10290,-142.857142857143,4,1,89,70,0,0
11154,-125,4,1,89,70,0,0
12017,-200,4,1,89,70,0,0
12880,-142.857142857143,4,1,89,70,0,0
13743,-125,4,1,89,70,0,0
20650,-100,4,1,89,70,0,0
27556,-200,4,2,89,40,0,0
41369,301.507537688442,3,2,89,70,1,0
51321,215.827338129496,4,1,89,70,1,0
51914,-100,4,1,89,20,0,0
51968,-100,4,1,89,70,0,0
52130,-100,4,1,89,20,0,0
52184,215.827338129496,4,1,89,70,1,0
59090,-100,4,1,89,70,0,1
76356,-100,4,1,89,70,0,0
84990,-166.666666666667,4,1,89,70,0,0
86177,-125,4,1,89,70,0,0
86716,-100,4,1,89,70,0,0
88011,-100,4,2,89,40,0,0

[Colours]
Combo1 : 255,0,128
Combo2 : 255,128,192
Combo3 : 255,128,64
Combo4 : 128,255,255

[HitObjects]
152,120,578,6,0,L|92:116,3,53.3333333333333,0|0|0|0,0:0|0:0|0:0|0:0,0:0:0:0:
284,144,1010,1,0,0:0:0:0:
312,140,1082,1,0,0:0:0:0:
340,136,1154,1,0,0:0:0:0:
364,132,1225,2,0,P|388:196|324:288,1,160,0|8,0:0|0:0,0:0:0:0:
252,312,1549,1,8,0:0:0:0:
172,248,1657,6,0,B|100:216|100:216|132:308,1,160,4|0,0:0|0:0,0:0:0:0:
16,348,1981,1,0,0:0:0:0:
16,348,2089,2,0,L|24:264,1,80,8|0,0:0|0:0,0:0:0:0:
96,136,2305,2,0,L|100:224,1,80,0|0,0:0|0:0,0:0:0:0:
172,348,2520,6,0,P|232:360|296:288,1,160,0|0,0:0|0:0,0:0:0:0:
356,168,2844,1,0,0:0:0:0:
219,198,2952,2,0,P|207:236|212:276,1,80,8|0,0:0|0:0,0:0:0:0:
380,344,3168,2,0,L|459:341,1,80,8|8,0:0|0:0,0:0:0:0:
466,181,3384,6,0,L|459:341,1,160,0|8,0:0|0:0,0:0:0:0:
408,112,3707,1,0,0:0:0:0:
408,112,3815,2,0,L|430:270,1,160,0|8,0:0|0:0,0:0:0:0:
316,232,4139,1,8,0:0:0:0:
220,296,4247,6,0,P|160:308|124:304,1,80,8|0,0:0|0:0,0:0:0:0:
128,171,4463,2,0,P|96:147|60:132,1,80,4|0,0:2|0:0,0:0:0:0:
44,240,4679,1,8,0:0:0:0:
28,348,4787,1,8,0:0:0:0:
44,240,4895,1,4,0:2:0:0:
44,240,5110,6,0,L|216:236,1,160,0|8,0:0|0:0,0:0:0:0:
316,268,5434,1,0,0:0:0:0:
202,158,5542,2,0,P|195:197|203:236,1,80,0|0,0:0|0:0,0:0:0:0:
328,352,5758,2,0,P|367:354|405:340,1,80,8|0,0:0|0:0,0:0:0:0:
504,144,5974,6,0,L|308:132,1,160,8|0,0:0|0:0,0:0:0:0:
276,196,6297,1,8,0:0:0:0:
384,40,6405,2,0,L|280:48,1,80,8|0,0:0|0:0,0:0:0:0:
408,244,6621,2,0,L|400:144,1,80,0|8,0:0|0:0,0:0:0:0:
136,68,6837,5,8,0:0:0:0:
136,68,6945,1,0,0:0:0:0:
136,68,7053,2,0,P|135:113|132:160,1,80,0|0,0:0|0:0,0:0:0:0:
32,256,7269,2,0,P|34:300|40:352,1,80,8|0,0:0|0:0,0:0:0:0:
144,244,7484,2,0,L|200:240,3,53.3333333333333,8|0|0|0,0:0|0:0|0:0|0:0,0:0:0:0:
256,76,7916,5,2,0:0:0:0:
256,48,8024,1,2,0:0:0:0:
256,20,8132,1,0,0:0:0:0:
256,336,8348,1,0,0:0:0:0:
172,92,8564,6,0,P|256:164|340:88,1,240,4|0,0:0|0:0,0:0:0:0:
339,92,9427,6,0,B|308:188|344:236|380:280|356:376,1,287.999991210938
356,373,10290,6,0,B|204:352|204:352|140:320|128:240|176:200,1,335.999989746094
175,200,11154,6,0,B|226:147|291:172|291:172|326:244|263:293,1,256
269,287,11801,1,0,0:0:0:0:
269,287,12017,6,0,B|213:298|185:286|185:286|145:294|145:294|109:286|77:294|77:294|49:282|21:294,1,240
140,168,12880,6,0,B|172:188|216:172|216:172|276:184|276:184|316:160|344:168|344:168|368:188|408:192|436:168|436:168|456:172|480:164,1,335.999989746094
392,112,13743,6,0,P|376:176|420:248,1,128,4|0,0:0|0:0,0:0:0:0:
240,364,14175,2,0,P|256:300|212:228,1,128,0|0,0:0|0:0,0:0:0:0:
80,296,14553,2,0,L|76:336,1,32,8|0,0:0|0:0,0:0:0:0:
40,224,14715,6,0,P|41:149|44:84,1,128,8|0,0:0|0:0,0:0:0:0:
184,176,15038,1,8,0:0:0:0:
184,176,15146,2,0,P|182:101|176:36,1,128,0|0,0:0|0:0,0:0:0:0:
296,124,15470,6,0,P|352:128|424:80,1,128,0|2,0:0|0:2,0:0:0:0:
444,60,15794,1,0,0:0:0:0:
488,72,15902,2,0,L|484:160,1,64,0|0,0:0|0:0,0:0:0:0:
340,288,16118,2,0,L|336:204,1,64,2|0,0:2|0:0,0:0:0:0:
504,328,16333,6,0,L|424:324,1,64,0|0,0:0|0:0,0:0:0:0:
200,248,16549,2,0,L|276:244,1,64,2|0,0:2|0:0,0:0:0:0:
496,152,16765,2,0,L|416:148,1,64,0|0,0:0|0:0,0:0:0:0:
192,76,16981,2,0,L|268:72,1,64,2|0,0:2|0:0,0:0:0:0:
452,48,17197,6,0,P|476:112|440:180,1,128,4|2,0:0|0:2,0:0:0:0:
348,200,17520,1,0,0:0:0:0:
321,99,17628,2,0,P|352:96|384:104,1,64,4|0,0:0|0:0,0:0:0:0:
222,204,17844,2,0,P|191:207|160:200,1,64,2|0,0:2|0:0,0:0:0:0:
116,268,18060,6,0,P|200:288|264:272,2,128,4|2|4,0:0|0:2|0:0,0:0:0:0:
52,40,18707,5,2,0:2:0:0:
136,104,18815,1,0,0:0:0:0:
136,104,18869,1,0,0:0:0:0:
136,104,18923,2,0,P|136:152|128:180,1,64,8|0,0:0|0:0,0:0:0:0:
16,300,19139,2,0,P|4:264|8:216,1,64,0|0,0:0|0:0,0:0:0:0:
48,136,19355,1,0,0:0:0:0:
192,240,19463,1,0,0:0:0:0:
84,248,19571,1,0,0:0:0:0:
224,148,19679,1,0,0:0:0:0:
348,280,19787,5,8,0:0:0:0:
352,296,20218,5,8,0:0:0:0:
356,308,20434,1,8,0:0:0:0:
360,320,20650,6,0,P|312:312|224:372,1,160,8|0,0:0|0:0,0:0:0:0:
92,320,20974,1,0,0:0:0:0:
200,232,21082,2,0,L|296:236,1,80,8|0,0:0|0:0,0:0:0:0:
120,148,21297,2,0,L|24:152,1,80,0|0,0:0|0:0,0:0:0:0:
208,56,21513,5,8,0:0:0:0:
208,56,21621,1,0,0:0:0:0:
208,56,21729,2,0,L|204:152,1,80,0|0,0:0|0:0,0:0:0:0:
324,228,21945,1,8,0:0:0:0:
324,228,22053,1,0,0:0:0:0:
324,228,22161,2,0,L|320:132,1,80,0|0,0:0|0:0,0:0:0:0:
480,48,22377,6,0,P|492:104|424:176,1,160,8|0,0:0|0:0,0:0:0:0:
288,32,22700,1,0,0:0:0:0:
408,92,22808,2,0,L|320:108,1,80,8|0,0:0|0:0,0:0:0:0:
124,156,23024,2,0,L|236:172,1,80,0|0,0:0|0:0,0:0:0:0:
308,336,23240,5,8,0:0:0:0:
296,192,23348,1,0,0:0:0:0:
408,312,23456,1,0,0:0:0:0:
412,176,23564,1,0,0:0:0:0:
508,304,23672,2,0,B|496:272|504:244|504:244|496:208|496:208|508:184|500:144,1,160,8|8,0:0|0:0,0:0:0:0:
500,147,23995,1,8,0:0:0:0:
500,147,24103,6,0,L|316:140,1,160,8|0,0:0|0:0,0:0:0:0:
224,192,24427,1,0,0:0:0:0:
224,192,24535,2,0,P|220:156|216:96,1,80,8|0,0:0|0:0,0:0:0:0:
104,32,24751,2,0,P|96:67|81:125,1,80
116,312,24966,5,8,0:0:0:0:
60,228,25074,1,0,0:0:0:0:
60,228,25182,2,0,P|112:212|152:216,1,80,0|0,0:0|0:0,0:0:0:0:
288,352,25398,1,8,0:0:0:0:
344,268,25506,1,0,0:0:0:0:
344,268,25614,2,0,P|292:252|252:256,1,80,0|0,0:0|0:0,0:0:0:0:
240,180,25830,6,0,P|304:172|396:208,1,160,8|0,0:0|0:0,0:0:0:0:
504,68,26154,2,0,L|340:72,1,160,8|0,0:3|0:0,0:0:0:0:
128,28,26477,2,0,P|126:74|128:112,1,80,8|0,0:3|0:0,0:0:0:0:
432,264,26693,5,4,0:0:0:0:
104,344,27556,6,0,P|100:296|100:256,1,80,0|0,0:0|0:0,0:0:0:0:
104,180,27880,1,0,0:0:0:0:
104,180,27988,1,0,0:0:0:0:
276,344,28204,2,0,L|320:340,1,40,0|0,0:0|0:0,0:0:0:0:
260,264,28420,2,0,L|304:260,1,40,0|0,0:0|0:0,0:0:0:0:
384,288,28636,1,0,0:0:0:0:
384,288,28743,1,0,0:0:0:0:
452,232,28851,2,0,P|448:184|448:140,1,80,0|0,0:0|0:0,0:0:0:0:
352,76,29283,6,0,B|304:44|252:132|192:72,1,160,0|0,0:0|0:0,0:0:0:0:
60,140,29930,1,0,0:0:0:0:
60,140,30038,2,0,P|116:144|152:140,1,80,0|0,0:0|0:0,0:0:0:0:
200,200,30362,2,0,L|248:196,1,40,0|0,0:0|0:0,0:0:0:0:
308,144,30578,1,0,0:0:0:0:
136,264,30794,1,0,0:0:0:0:
296,368,31010,6,0,P|300:328|296:272,1,80,0|0,0:0|0:0,0:0:0:0:
220,144,31441,2,0,P|216:104|220:48,1,80,0|0,0:0|0:0,0:0:0:0:
310,64,31765,2,0,P|311:103|307:143,1,80,0|0,0:0|0:0,0:0:0:0:
360,212,32089,2,0,L|408:208,1,40,0|0,0:0|0:0,0:0:0:0:
240,248,32305,2,0,P|180:248|148:252,1,80,0|0,0:0|0:0,0:0:0:0:
16,352,32736,6,0,P|55:353|95:349,1,80,0|0,0:0|0:0,0:0:0:0:
260,316,33168,1,0,0:0:0:0:
112,240,33384,1,0,0:0:0:0:
112,240,33492,1,0,0:0:0:0:
272,204,33707,1,0,0:0:0:0:
168,76,33923,1,0,0:0:0:0:
168,76,34031,2,0,P|168:128|172:160,1,80,0|0,0:0|0:0,0:0:0:0:
324,92,34463,6,0,P|368:88|408:88,1,80,0|0,0:0|0:0,0:0:0:0:
472,136,34787,1,0,0:0:0:0:
472,136,34895,1,0,0:0:0:0:
332,240,35110,2,0,L|276:236,1,40,0|0,0:0|0:0,0:0:0:0:
240,320,35326,2,0,L|296:316,1,40,0|0,0:0|0:0,0:0:0:0:
352,360,35542,1,0,0:0:0:0:
352,360,35650,1,0,0:0:0:0:
424,300,35758,2,0,P|420:264|420:212,1,80,0|0,0:0|0:0,0:0:0:0:
368,156,36082,1,0,0:0:0:0:
368,156,36189,6,0,L|280:160,1,80,0|0,0:0|0:0,0:0:0:0:
212,120,36513,1,0,0:0:0:0:
212,120,36621,2,0,L|124:116,1,80,0|0,0:0|0:0,0:0:0:0:
64,172,36945,1,0,0:0:0:0:
168,36,37161,1,0,0:0:0:0:
168,36,37269,1,0,0:0:0:0:
264,180,37484,2,0,P|264:240|260:272,1,80,0|0,0:0|0:0,0:0:0:0:
248,340,37808,1,0,0:0:0:0:
248,340,37916,6,0,L|332:336,1,80,0|0,0:0|0:0,0:0:0:0:
404,300,38240,2,0,L|488:304,1,80,0|0,0:0|0:0,0:0:0:0:
452,224,38564,2,0,P|449:198|448:180,1,40,0|0,0:0|0:0,0:0:0:0:
388,120,38779,6,0,P|344:120|296:124,1,80,0|0,0:0|0:0,0:0:0:0:
236,168,39103,1,0,0:0:0:0:
236,168,39211,1,0,0:0:0:0:
452,224,39427,1,0,0:0:0:0:
468,36,39643,5,0,0:0:0:0:
388,120,40074,1,0,0:0:0:0:
284,64,40506,1,0,0:0:0:0:
104,120,40938,6,0,L|108:84,2,20,0|0|0,0:0|0:0|0:0,0:0:0:0:
48,332,41369,6,0,P|124:336|232:324,1,160,2|0,0:0|0:0,0:0:0:0:
284,208,41821,1,2,0:0:0:0:
320,360,41972,1,2,0:0:0:0:
432,172,42122,1,2,0:0:0:0:
488,308,42273,6,0,P|432:312|396:292,1,80,2|0,0:0|0:0,0:0:0:0:
96,208,42575,2,0,P|152:212|188:192,1,80,2|0,0:0|0:0,0:0:0:0:
452,128,42876,2,0,P|396:132|360:112,1,80,2|0,0:0|0:0,0:0:0:0:
224,32,43178,5,2,0:0:0:0:
296,212,43328,1,2,0:0:0:0:
416,60,43479,1,2,0:0:0:0:
392,224,43630,5,2,0:0:0:0:
320,44,43780,1,2,0:0:0:0:
200,188,43931,1,2,0:0:0:0:
312,288,44082,6,0,B|277:299|233:271|233:271|177:279|177:279|105:255|89:183|129:135,1,320,2|0,0:0|0:0,0:0:0:0:
440,232,44987,6,0,P|444:164|440:52,1,160,2|0,0:0|0:0,0:0:0:0:
336,164,45439,1,2,0:0:0:0:
500,332,45590,1,2,0:0:0:0:
512,352,45891,6,0,P|460:356|424:352,1,80,2|0,0:0|0:0,0:0:0:0:
152,260,46193,2,0,P|195:231|228:217,1,80,2|0,0:0|0:0,0:0:0:0:
448,128,46494,1,2,0:0:0:0:
468,116,46796,6,0,P|392:124|288:116,1,160,2|0,0:0|0:0,0:0:0:0:
108,32,47248,1,2,0:0:0:0:
288,112,47399,1,2,0:0:0:0:
104,156,47549,1,2,0:0:0:0:
368,52,47700,6,0,P|380:116|336:232,1,160,2|0,0:0|0:0,0:0:0:0:
208,348,48303,1,2,0:0:0:0:
124,296,48454,1,2,0:0:0:0:
40,356,48605,6,0,B|24:308|24:308|40:188,1,160,2|0,0:0|0:0,0:0:0:0:
176,152,49057,1,2,0:0:0:0:
36,84,49208,1,2,0:0:0:0:
16,72,49509,6,0,P|68:76|112:72,1,80,2|0,0:0|0:0,0:0:0:0:
272,240,49811,2,0,P|220:244|176:240,1,80,2|0,0:0|0:0,0:0:0:0:
224,84,50112,1,2,0:0:0:0:
480,168,50263,1,0,0:0:0:0:
372,340,50414,5,2,0:0:0:0:
376,140,50564,1,0,0:0:0:0:
252,360,50715,1,2,0:0:0:0:
356,124,50866,1,2,0:0:0:0:
152,280,51017,5,2,0:0:0:0:
336,104,51167,1,2,0:0:0:0:
480,332,51318,5,8,0:0:0:0:
272,44,51752,6,0,P|224:72|152:52,1,120,0|0,0:0|0:0,0:0:0:0:
140,44,51968,2,0,L|152:168,1,120,0|0,0:0|0:0,0:0:0:0:
128,188,52184,2,0,L|216:184,1,80,4|0,0:0|0:0,0:0:0:0:
308,244,52400,1,8,0:0:0:0:
92,328,52508,6,0,P|140:304|232:380,1,160,0|0,0:0|0:0,0:0:0:0:
240,212,52831,2,0,P|236:172|252:120,1,80,8|0,0:0|0:0,0:0:0:0:
400,56,53047,1,0,0:0:0:0:
304,64,53155,1,0,0:0:0:0:
420,160,53263,2,0,P|424:199|414:238,1,80,8|0,0:0|0:0,0:0:0:0:
344,352,53479,1,0,0:0:0:0:
468,308,53587,1,0,0:0:0:0:
284,288,53695,2,0,L|192:292,1,80,8|0,0:0|0:0,0:0:0:0:
68,228,53910,6,0,B|60:188|72:156|72:156|64:132|64:132|76:100|64:56,1,160,0|8,0:0|0:0,0:0:0:0:
176,136,54234,1,0,0:0:0:0:
256,52,54342,2,0,L|344:48,1,80,0|0,0:0|0:0,0:0:0:0:
440,124,54558,1,8,0:0:0:0:
345,207,54666,1,0,0:0:0:0:
335,48,54774,6,0,L|347:232,1,160,0|8,0:0|0:0,0:0:0:0:
240,240,55097,1,0,0:0:0:0:
200,156,55205,2,0,P|196:112|208:68,1,80,0|0,0:0|0:0,0:0:0:0:
412,152,55421,1,8,0:0:0:0:
412,152,55529,1,0,0:0:0:0:
412,152,55637,6,0,L|500:148,1,80,0|0,0:0|0:0,0:0:0:0:
412,308,55853,2,0,L|500:312,1,80,8|0,0:0|0:0,0:0:0:0:
212,152,56069,2,0,L|124:148,1,80,0|0,0:0|0:0,0:0:0:0:
212,308,56285,2,0,L|124:312,1,80,8|0,0:0|0:0,0:0:0:0:
80,216,56500,5,0,0:0:0:0:
44,360,56608,1,8,0:0:0:0:
168,228,56716,1,8,0:0:0:0:
172,372,56824,1,8,0:0:0:0:
264,224,56932,1,8,0:0:0:0:
280,368,57040,1,8,0:0:0:0:
368,232,57148,1,8,0:0:0:0:
392,368,57256,1,8,0:0:0:0:
476,288,57364,1,0,0:0:0:0:
480,160,57580,5,8,0:0:0:0:
340,108,57795,1,8,0:0:0:0:
196,144,58011,1,8,0:0:0:0:
52,104,58227,5,8,0:0:0:0:
480,160,58443,5,0,0:0:0:0:
472,204,58551,1,0,0:0:0:0:
464,248,58659,1,0,0:0:0:0:
280,44,58874,1,0,0:0:0:0:
136,352,59090,6,0,P|168:300|136:208,1,160,4|8,0:0|0:0,0:0:0:0:
84,280,59414,2,0,L|4:272,2,80,0|0|0,0:0|0:0|0:0,0:0:0:0:
248,344,59738,2,0,L|336:340,1,80,8|0,0:0|0:0,0:0:0:0:
452,195,59954,6,0,P|452:147|436:111,1,80,0|0,0:0|0:0,0:0:0:0:
428,291,60169,2,0,P|476:291|512:275,1,80,8|0,0:0|0:0,0:0:0:0:
324,264,60385,2,0,P|324:312|340:348,1,80,0|0,0:0|0:0,0:0:0:0:
348,172,60601,2,0,P|300:172|264:188,1,80,8|0,0:0|0:0,0:0:0:0:
120,264,60817,6,0,L|208:256,2,80,0|0|8,0:0|0:0|0:0,0:0:0:0:
32,200,61141,1,0,0:0:0:0:
92,344,61249,1,0,0:0:0:0:
160,176,61356,1,0,0:0:0:0:
232,328,61464,2,0,P|292:336|332:320,1,80,8|0,0:0|0:0,0:0:0:0:
436,192,61680,6,0,L|336:196,1,80,0|0,0:0|0:0,0:0:0:0:
320,331,61896,2,0,L|400:328,1,80,8|0,0:0|0:0,0:0:0:0:
275,68,62112,2,0,L|195:71,1,80
159,207,62328,2,0,L|239:204,1,80,8|0,0:0|0:0,0:0:0:0:
108,92,62544,5,0,0:0:0:0:
8,224,62651,1,0,0:0:0:0:
132,188,62759,2,0,P|136:236|116:280,1,80,4|0,0:0|0:0,0:0:0:0:
44,348,62975,5,0,0:0:0:0:
200,288,63083,1,0,0:0:0:0:
336,384,63191,2,0,L|432:376,1,80,8|0,0:0|0:0,0:0:0:0:
308,248,63407,5,0,0:0:0:0:
252,380,63515,1,0,0:0:0:0:
440,352,63623,2,0,P|440:308|428:268,1,80,4|0,0:0|0:0,0:0:0:0:
360,176,63838,5,0,0:0:0:0:
448,80,63946,1,0,0:0:0:0:
272,120,64054,2,0,L|176:124,1,80,8|0,0:0|0:0,0:0:0:0:
96,56,64270,6,0,P|152:120|120:192,1,160,0|4,0:0|0:0,0:0:0:0:
24,280,64594,2,0,L|28:372,2,80,0|0|0,0:0|0:0|0:0,0:0:0:0:
116,196,64918,2,0,L|124:104,1,80,8|0,0:0|0:0,0:0:0:0:
316,268,65133,5,0,0:0:0:0:
304,160,65241,1,8,0:0:0:0:
220,324,65349,1,8,0:0:0:0:
208,348,65565,5,8,0:0:0:0:
346,341,65673,1,0,0:0:0:0:
194,209,65781,1,0,0:0:0:0:
333,202,65889,1,8,0:0:0:0:
472,360,65997,6,0,B|460:324|464:292|464:292|456:268|456:268|472:236|464:180,1,160,4|0,0:0|0:0,0:0:0:0:
320,100,66320,2,0,L|232:104,2,80,0|8|0,0:0|0:0|0:0,0:0:0:0:
372,252,66644,2,0,L|280:248,1,80,0|0,0:0|0:0,0:0:0:0:
200,148,66860,6,0,P|200:100|184:64,1,80,8|0,0:0|0:0,0:0:0:0:
72,217,67076,2,0,P|72:265|88:301,1,80,0|0,0:0|0:0,0:0:0:0:
176,244,67292,2,0,P|224:244|260:228,1,80,8|0,0:0|0:0,0:0:0:0:
96,125,67507,2,0,P|48:125|12:141,1,80,0|8,0:0|0:0,0:0:0:0:
156,344,67723,6,0,P|216:352|316:316,1,160,4|0,0:0|0:0,0:0:0:0:
392,276,68011,2,0,L|408:326,1,53.3333333333333
488,276,68155,2,0,B|464:200|464:200|488:104,1,160,0|4,0:0|0:0,0:0:0:0:
483,122,68443,1,0,0:0:0:0:
483,122,68515,1,0,0:0:0:0:
483,122,68587,6,0,P|432:136|340:76,1,160,0|8,0:0|0:0,0:0:0:0:
264,24,68910,1,0,0:0:0:0:
252,212,69018,2,0,L|248:116,1,80,8|0,0:0|0:0,0:0:0:0:
128,80,69234,2,0,L|134:27,2,53.3333333333333,8|0|0,0:0|0:0|0:0,0:0:0:0:
124,124,69450,5,0,0:0:0:0:
32,52,69558,1,0,0:0:0:0:
20,168,69666,2,0,P|20:212|36:256,1,80,4|0,0:0|0:0,0:0:0:0:
124,168,69882,5,0,0:0:0:0:
8,260,69990,1,0,0:0:0:0:
112,368,70097,2,0,P|129:327|131:280,1,80,8|0,0:0|0:0,0:0:0:0:
264,128,70313,5,0,0:0:0:0:
124,216,70421,1,0,0:0:0:0:
276,288,70529,2,0,P|328:288|364:268,1,80,4|0,0:0|0:0,0:0:0:0:
432,136,70745,5,0,0:0:0:0:
304,200,70853,1,0,0:0:0:0:
492,212,70961,2,0,L|496:292,1,80,8|0,0:0|0:0,0:0:0:0:
496,292,71177,6,0,B|384:304|384:304|320:292,1,160,0|8,0:0|0:0,0:0:0:0:
256,192,71500,2,0,L|248:108,2,80,0|0|0,0:0|0:0|0:0,0:0:0:0:
360,280,71824,2,0,L|356:380,1,80,8|0,0:0|0:0,0:0:0:0:
128,336,72040,5,0,0:0:0:0:
276,288,72148,1,8,0:0:0:0:
132,228,72256,1,8,0:0:0:0:
280,189,72364,1,0,0:0:0:0:
204,368,72472,5,8,0:0:0:0:
200,192,72579,1,8,0:0:0:0:
60,288,72687,1,8,0:0:0:0:
104,108,72795,1,0,0:0:0:0:
288,140,72903,6,0,P|348:180|440:144,1,160,4|8,0:0|0:0,0:0:0:0:
408,272,73227,1,0,0:0:0:0:
364,96,73335,2,0,L|376:12,1,80,0|0,0:0|0:0,0:0:0:0:
272,256,73551,2,0,L|268:160,1,80,8|0,0:0|0:0,0:0:0:0:
148,76,73767,6,0,P|84:68|44:92,1,80,0|0,0:0|0:0,0:0:0:0:
72,232,73982,2,0,P|110:242|149:235,1,80,8|0,0:0|0:0,0:0:0:0:
220,176,74198,1,0,0:0:0:0:
104,320,74306,1,0,0:0:0:0:
40,160,74414,2,0,B|28:120|28:120|44:72,1,80,8|0,0:0|0:0,0:0:0:0:
176,52,74630,6,0,L|264:48,2,80,0|0|8,0:0|0:0|0:0,0:0:0:0:
148,176,74954,2,0,B|196:184|224:176|224:176|252:180|252:180|280:168|320:184,1,160
480,264,75277,1,8,0:0:0:0:
372,324,75385,1,0,0:0:0:0:
424,160,75493,6,0,L|420:60,1,80,8|8,0:0|0:0,0:0:0:0:
256,280,75709,2,0,L|256:364,1,80,8|0,0:0|0:0,0:0:0:0:
88,160,75925,2,0,L|91:80,1,80,8|0,0:0|0:0,0:0:0:0:
256,120,76141,6,0,L|256:184,3,53.3333333333333,8|0|0|4,0:0|0:0|0:0|0:0,0:0:0:0:
116,320,77004,2,0,L|52:312,2,53.3333333333333,8|0|0,0:0|0:0|0:0,0:0:0:0:
212,332,77219,5,0,0:0:0:0:
224,336,77651,5,4,0:0:0:0:
236,340,78083,6,0,P|292:352|376:268,1,160,4|8,0:0|0:0,0:0:0:0:
260,216,78407,1,0,0:0:0:0:
260,216,78515,2,0,L|160:220,1,80,0|0,0:0|0:0,0:0:0:0:
76,112,78731,2,0,L|172:116,1,80,8|0,0:0|0:0,0:0:0:0:
368,100,78946,6,0,B|424:116|464:80|464:80|476:128|464:164,1,160,0|8,0:0|0:0,0:0:0:0:
376,208,79270,1,0,0:0:0:0:
404,28,79378,2,0,P|360:20|316:36,1,80,0|0,0:0|0:0,0:0:0:0:
204,192,79594,2,0,P|248:200|292:184,1,80,8|0,0:0|0:0,0:0:0:0:
160,100,79810,6,0,L|168:272,1,160,0|8,0:0|0:0,0:0:0:0:
80,352,80133,1,0,0:0:0:0:
228,336,80241,2,0,P|264:320|368:368,1,160,0|8,0:0|0:0,0:0:0:0:
464,304,80565,1,0,0:0:0:0:
368,224,80673,6,0,L|276:232,1,80,0|0,0:0|0:0,0:0:0:0:
400,124,80889,2,0,L|308:132,1,80,8|0,0:0|0:0,0:0:0:0:
432,24,81105,2,0,L|340:32,1,80,8|8,0:0|0:0,0:0:0:0:
192,72,81320,1,8,0:0:0:0:
160,64,81392,1,0,0:0:0:0:
132,56,81464,1,0,0:0:0:0:
104,48,81536,6,0,B|84:96|84:96|96:208,1,160,4|8,0:0|0:0,0:0:0:0:
236,260,81824,2,0,L|228:336,1,53.3333333333333
228,336,81968,2,0,P|293:318|373:394,1,160,4|8,0:0|0:0,0:0:0:0:
484,272,82256,2,0,L|420:276,1,53.3333333333333
408,276,82400,2,0,L|404:104,1,160,4|8,0:0|0:0,0:0:0:0:
288,36,82687,1,0,0:0:0:0:
288,36,82759,1,0,0:0:0:0:
288,36,82831,2,0,L|276:212,1,160,4|8,0:0|0:0,0:0:0:0:
92,248,83119,2,0,L|84:176,1,53.3333333333333
72,176,83263,6,0,L|176:180,1,80,4|0,0:0|0:0,0:0:0:0:
356,320,83479,2,0,L|452:312,1,80,8|0,0:0|0:0,0:0:0:0:
312,176,83695,1,0,0:0:0:0:
312,176,83803,1,0,0:0:0:0:
244,288,83910,2,0,P|236:332|256:376,1,80,8|8,0:0|0:0,0:0:0:0:
436,200,84126,6,0,P|435:120|432:28,2,160,0|8|0,0:0|0:0|0:0,0:0:0:0:
436,200,84666,1,0,0:0:0:0:
436,200,84774,1,8,0:0:0:0:
180,120,84990,6,0,P|108:120|213:206,1,351.999989257813,4|8,0:0|0:0,0:0:0:0:
211,210,85853,1,0,0:0:0:0:
348,72,86069,5,0,0:0:0:0:
348,72,86177,2,0,P|352:199|344:327,1,256,8|8,0:0|0:0,0:0:0:0:
344,327,86716,6,0,P|300:352|192:316,1,160,0|8,0:0|0:0,0:0:0:0:
48,176,87040,2,0,P|152:172|216:176,1,160,0|8,0:0|0:0,0:0:0:0:
476,224,87364,2,0,P|428:224|388:212,1,80,8|0,0:0|0:0,0:0:0:0:
328,56,87579,1,8,0:0:0:0:
96,320,88011,6,0,L|56:316,11,26.6666666666667
