osu file format v14

[General]
AudioFilename: ratsyks.mp3
AudioLeadIn: 0
PreviewTime: 58443
Countdown: 0
SampleSet: Soft
StackLeniency: 0.7
Mode: 0
LetterboxInBreaks: 0
WidescreenStoryboard: 0

[Editor]
DistanceSpacing: 1
BeatDivisor: 2
GridSize: 4
TimelineZoom: 1.8

[Metadata]
Title:Kakushinteki*Metamaruphose!
TitleUnicode:かくしん的☆めたまるふぉ~ぜっ!
Artist:Doma Umaru [CV.Tanaka Aimi]
ArtistUnicode:土間うまる [CV.田中あいみ]
Creator:Crystal
Version:Advanced
Source:干物妹!うまるちゃん
Tags:Himouto! Umaruchan opening anime tv size Skystar Amamiya Yuko wcx19911123 Fycho Kencho Kawaiwkyik Rizia victorica_db Flask CLSW Nardoxyribonucleic _Gezo_
BeatmapID:748485
BeatmapSetID:332623

[Difficulty]
HPDrainRate:4
CircleSize:3.8
OverallDifficulty:4.7
ApproachRate:6
SliderMultiplier:0.8
SliderTickRate:1

[Events]
//Background and Video events
0,0,"umaruchan1.jpg",0,0
Video,0,"Butterfly.avi"
//Break Periods
//Storyboard Layer 0 (Background)
//Storyboard Layer 1 (Fail)
//Storyboard Layer 2 (Pass)
//Storyboard Layer 3 (Foreground)
//Storyboard Sound Samples

[TimingPoints]
-69,215.827338129496,4,2,0,70,1,0
27556,-100,4,2,0,40,0,0
41369,301.507537688442,3,2,0,70,1,0
51321,215.827338129496,4,2,0,70,1,0
52184,215.827338129496,4,2,0,70,1,0
59090,-100,4,2,0,70,0,1
76356,-100,4,2,0,70,0,0
88011,-100,4,2,0,40,0,0
88443,-100,4,2,0,20,0,0

[Colours]
Combo1 : 255,0,128
Combo2 : 255,128,192
Combo3 : 255,128,64
Combo4 : 128,255,255

[HitObjects]
80,64,794,6,0,P|68:140|112:224,1,160,0|0,0:0|0:0,0:0:0:0:
164,264,1441,1,8,0:0:0:0:
240,288,1657,6,0,L|324:284,2,80,4|0|8,0:0|0:0|0:0,0:0:0:0:
160,152,2520,2,0,L|76:148,2,80,0|0|8,0:0|0:0|0:0,0:0:0:0:
284,48,3384,1,0,0:0:0:0:
360,76,3600,1,8,0:0:0:0:
428,36,3815,2,0,P|440:76|424:120,1,80,0|8,0:0|0:0,0:0:0:0:
392,184,4247,2,0,L|400:280,1,80,8|4,0:0|0:2,0:0:0:0:
436,336,4679,1,8,0:0:0:0:
276,340,5110,6,0,L|192:344,2,80,0|8|0,0:0|0:0|0:0,0:0:0:0:
204,196,5974,2,0,L|112:188,2,80,8|0|8,0:0|0:0|0:0,0:0:0:0:
300,68,6837,1,8,0:0:0:0:
220,84,7053,1,0,0:0:0:0:
148,48,7269,2,0,L|64:52,1,80,8|8,0:0|0:0,0:0:0:0:
16,112,7700,5,0,0:0:0:0:
252,328,8564,6,0,P|316:336|384:312,2,120,4|0|0,0:0|0:0|0:0,0:0:0:0:
192,276,9427,2,0,L|184:192,1,80,4|0,0:0|0:0,0:0:0:0:
244,140,9859,2,0,L|248:56,1,80,0|0,0:0|0:0,0:0:0:0:
320,24,10290,6,0,L|444:20,2,120,4|0|0,0:0|0:0|0:0,0:0:0:0:
247,60,11154,2,0,P|192:36|88:88,1,160,4|12,0:0|0:0,0:0:0:0:
40,120,11801,1,0,0:0:0:0:
12,196,12017,6,0,L|16:364,1,160,4|0,0:0|0:0,0:0:0:0:
92,336,12664,1,0,0:0:0:0:
168,356,12880,2,0,P|208:360|304:288,1,160,4|0,0:0|0:0,0:0:0:0:
308,216,13528,1,0,0:0:0:0:
376,256,13743,6,0,B|408:288|424:364|424:364|440:288|480:252,1,240,4|0,0:0|0:0,0:0:0:0:
504,184,14607,2,0,L|496:96,1,80,0|0,0:0|0:0,0:0:0:0:
440,48,15038,2,0,P|392:40|348:56,1,80,8|0,0:0|0:0,0:0:0:0:
288,76,15470,6,0,P|220:80|156:40,2,120,0|0|2,0:0|0:0|0:2,0:0:0:0:
362,47,16333,2,0,P|368:92|338:139,1,80,0|2,0:0|0:2,0:0:0:0:
296,180,16765,1,0,0:0:0:0:
320,256,16981,1,2,0:2:0:0:
276,324,17197,6,0,L|144:316,2,120,4|0|2,0:0|0:0|0:2,0:0:0:0:
356,328,18060,1,4,0:0:0:0:
228,232,18492,1,4,0:0:0:0:
68,256,18923,6,0,P|61:216|68:176,1,80,8|0,0:0|0:0,0:0:0:0:
96,104,19355,2,0,P|127:78|165:63,1,80,0|0,0:0|0:0,0:0:0:0:
244,68,19787,1,8,0:0:0:0:
376,160,20218,2,0,L|368:248,1,80,8|8,0:0|0:0,0:0:0:0:
440,280,20650,6,0,P|408:316|356:316,1,80,8|0,0:0|0:0,0:0:0:0:
300,296,21082,2,0,L|208:292,1,80,8|0,0:0|0:0,0:0:0:0:
152,332,21513,1,8,0:0:0:0:
80,300,21729,1,0,0:0:0:0:
8,336,21945,2,0,P|0:280|20:248,1,80,8|0,0:0|0:0,0:0:0:0:
44,188,22377,6,0,L|40:96,1,80,8|0,0:0|0:0,0:0:0:0:
96,52,22808,2,0,P|152:44|188:52,1,80,8|0,0:0|0:0,0:0:0:0:
244,88,23240,2,0,L|296:84,2,40,8|0|0,0:0|0:0|0:0,0:0:0:0:
172,128,23672,1,8,0:0:0:0:
228,188,23887,1,8,0:0:0:0:
188,256,24103,6,0,L|184:360,1,80,8|0,0:0|0:0,0:0:0:0:
264,340,24535,2,0,L|267:260,1,80,8|0,0:0|0:0,0:0:0:0:
332,216,24966,2,0,L|424:212,1,80,8|0,0:0|0:0,0:0:0:0:
420,292,25398,2,0,L|340:295,1,80,8|0,0:0|0:0,0:0:0:0:
344,376,25830,6,0,L|468:372,2,120,8|8|8,0:0|0:3|0:3,0:0:0:0:
264,376,26693,1,4,0:0:0:0:
76,64,27556,6,0,P|52:132|68:184,2,120,0|0|0,0:0|0:0|0:0,0:0:0:0:
152,96,28420,2,0,P|200:104|296:56,1,160,0|0,0:0|0:0,0:0:0:0:
376,64,29067,1,0,0:0:0:0:
452,36,29283,6,0,L|448:200,1,160,0|0,0:0|0:0,0:0:0:0:
408,264,29930,1,0,0:0:0:0:
460,324,30146,2,0,P|416:344|328:284,1,160,0|0,0:0|0:0,0:0:0:0:
266,239,30794,1,0,0:0:0:0:
196,200,31010,6,0,L|64:192,2,120,0|0|0,0:0|0:0|0:0,0:0:0:0:
268,164,31873,2,0,P|276:220|260:248,1,80,0|0,0:0|0:0,0:0:0:0:
228,308,32305,2,0,P|216:345|226:383,1,80,0|0,0:0|0:0,0:0:0:0:
300,348,32736,2,0,L|432:340,2,120,0|0|0,0:0|0:0|0:0,0:0:0:0:
226,383,33600,5,0,0:0:0:0:
92,300,34031,1,0,0:0:0:0:
140,148,34463,6,0,P|160:88|128:24,2,120,0|0|0,0:0|0:0|0:0,0:0:0:0:
76,196,35326,2,0,P|136:184|224:260,1,160,0|0,0:0|0:0,0:0:0:0:
248,308,35974,1,0,0:0:0:0:
296,372,36189,6,0,L|424:364,2,120,0|0|0,0:0|0:0|0:0,0:0:0:0:
216,380,37053,2,0,L|128:368,1,80,0|0,0:0|0:0,0:0:0:0:
116,292,37484,2,0,L|28:280,1,80,0|0,0:0|0:0,0:0:0:0:
16,204,37916,6,0,P|28:156|-8:80,1,120,0|0,0:0|0:0,0:0:0:0:
108,28,38564,1,0,0:0:0:0:
176,72,38779,2,0,P|220:72|272:48,1,80,0|0,0:0|0:0,0:0:0:0:
328,28,39211,2,0,P|365:15|405:16,1,80,0|0,0:0|0:0,0:0:0:0:
468,68,39643,6,0,L|464:236,2,160,0|0|0,0:0|0:0|0:0,0:0:0:0:
336,160,40938,1,0,0:0:0:0:
416,312,41369,6,0,P|352:296|268:348,1,160,0|0,0:0|0:0,0:0:0:0:
184,372,42273,2,0,P|136:376|96:364,1,80,0|0,0:0|0:0,0:0:0:0:
28,312,42876,1,0,0:0:0:0:
80,228,43178,6,0,B|104:180|88:132|88:132|36:80,1,160,0|0,0:0|0:0,0:0:0:0:
124,36,44082,2,0,P|184:64|284:24,1,160,0|0,0:0|0:0,0:0:0:0:
360,8,44987,6,0,L|352:180,1,160,0|0,0:0|0:0,0:0:0:0:
288,240,45891,1,0,0:0:0:0:
332,324,46193,1,0,0:0:0:0:
236,320,46494,1,0,0:0:0:0:
188,236,46796,6,0,P|128:236|56:316,1,160,0|0,0:0|0:0,0:0:0:0:
4,224,47700,2,0,L|16:56,1,160,0|0,0:0|0:0,0:0:0:0:
104,100,48605,6,0,P|160:112|260:64,1,160,0|0,0:0|0:0,0:0:0:0:
332,24,49509,2,0,L|436:20,1,80,0|0,0:0|0:0,0:0:0:0:
480,88,50112,1,0,0:0:0:0:
428,168,50414,6,0,P|420:232|456:300,1,120,0|0,0:0|0:0,0:0:0:0:
476,312,51017,2,0,L|380:320,1,80,0|8,0:0|0:0,0:0:0:0:
200,320,51752,5,0,0:0:0:0:
132,276,51968,1,0,0:0:0:0:
56,312,52184,2,0,P|52:252|108:196,1,120,4|0,0:0|0:0,0:0:0:0:
176,128,52831,1,8,0:0:0:0:
244,172,53047,6,0,P|292:180|340:164,1,80,0|8,0:0|0:0,0:0:0:0:
396,140,53479,2,0,P|400:200|376:244,1,80,0|8,0:0|0:0,0:0:0:0:
324,260,53910,2,0,L|316:384,1,120,0|0,0:0|0:0,0:0:0:0:
216,312,54558,1,8,0:0:0:0:
148,356,54774,6,0,L|52:348,1,80,0|8,0:0|0:0,0:0:0:0:
12,292,55205,1,0,0:0:0:0:
88,268,55421,1,8,0:0:0:0:
28,212,55637,6,0,P|24:172|36:120,2,80,0|8|0,0:0|0:0|0:0,0:0:0:0:
100,176,56285,2,0,P|116:139|152:100,1,80,8|0,0:0|0:0,0:0:0:0:
188,172,56716,2,0,P|220:148|271:132,1,80,8|8,0:0|0:0,0:0:0:0:
336,112,57148,2,0,L|432:104,1,80,8|0,0:0|0:0,0:0:0:0:
480,156,57579,5,8,0:0:0:0:
436,224,57795,1,8,0:0:0:0:
476,296,58011,1,8,0:0:0:0:
428,360,58227,5,8,0:0:0:0:
112,300,59090,6,0,P|56:296|0:340,2,120,4|0|8,0:0|0:0|0:0,0:0:0:0:
176,348,59954,2,0,P|216:352|260:344,1,80,0|8,0:0|0:0,0:0:0:0:
316,296,60385,1,0,0:0:0:0:
280,224,60601,1,8,0:0:0:0:
332,164,60817,2,0,L|484:168,2,120,0|0|8,0:0|0:0|0:0,0:0:0:0:
280,224,61680,2,0,P|252:168|304:92,1,160,0|0,0:0|0:0,0:0:0:0:
364,44,62328,5,8,0:0:0:0:
440,72,62544,2,0,P|456:116|444:160,1,80,0|4,0:0|0:0,0:0:0:0:
424,224,62975,2,0,P|419:263|434:299,1,80,0|8,0:0|0:0,0:0:0:0:
492,356,63407,1,0,0:0:0:0:
412,372,63623,1,4,0:0:0:0:
340,340,63838,1,0,0:0:0:0:
260,356,64054,1,8,0:0:0:0:
188,320,64270,6,0,B|164:272|184:228|184:228|248:192,1,160,0|0,0:0|0:0,0:0:0:0:
312,160,64918,1,8,0:0:0:0:
372,212,65133,2,0,P|424:216|488:168,1,120,0|0,0:0|0:0,0:0:0:0:
500,144,65565,2,0,L|492:52,1,80,8|0,0:0|0:0,0:0:0:0:
424,24,65997,6,0,P|368:8|284:40,1,120,4|0,0:0|0:0,0:0:0:0:
212,92,66644,1,0,0:0:0:0:
144,136,66860,2,0,P|88:140|52:120,1,80,8|0,0:0|0:0,0:0:0:0:
20,196,67292,2,0,P|51:242|52:283,1,80,8|0,0:0|0:0,0:0:0:0:
132,288,67723,6,0,P|84:344|32:344,2,120,4|4|4,0:0|0:0|0:0,0:0:0:0:
200,244,68587,2,0,L|296:240,1,80,0|8,0:0|0:0,0:0:0:0:
268,160,69018,2,0,L|364:156,1,80,8|8,0:0|0:0,0:0:0:0:
416,116,69450,5,0,0:0:0:0:
416,116,69666,1,4,0:0:0:0:
468,176,69882,2,0,P|472:232|452:276,1,80,0|8,0:0|0:0,0:0:0:0:
388,280,70313,1,0,0:0:0:0:
388,280,70529,1,4,0:0:0:0:
392,360,70745,2,0,L|296:356,1,80,0|8,0:0|0:0,0:0:0:0:
232,352,71177,6,0,P|188:336|196:224,1,160,0|0,0:0|0:0,0:0:0:0:
236,176,71824,1,8,0:0:0:0:
312,204,72040,2,0,L|320:296,1,80,0|8,0:0|0:0,0:0:0:0:
400,272,72472,2,0,L|404:172,1,80,8|8,0:0|0:0,0:0:0:0:
448,124,72903,5,4,0:0:0:0:
448,124,73119,1,8,0:0:0:0:
448,124,73335,1,0,0:0:0:0:
312,40,73767,1,0,0:0:0:0:
312,40,73982,1,8,0:0:0:0:
312,40,74198,1,0,0:0:0:0:
172,120,74630,5,0,0:0:0:0:
148,197,74846,1,8,0:0:0:0:
224,221,75062,1,0,0:0:0:0:
248,145,75277,1,8,0:0:0:0:
172,120,75493,6,0,L|84:116,1,80,8|8,0:0|0:0,0:0:0:0:
36,172,75925,2,0,L|52:256,1,80,8|8,0:0|0:0,0:0:0:0:
12,320,76356,1,4,0:0:0:0:
248,360,77004,6,0,P|296:360|336:344,1,80,8|0,0:0|0:0,0:0:0:0:
452,252,77651,1,4,0:0:0:0:
372,112,78083,6,0,L|376:28,2,80,4|8|0,0:0|0:0|0:0,0:0:0:0:
240,200,78946,2,0,L|248:292,2,80,0|8|0,0:0|0:0|0:0,0:0:0:0:
136,76,79810,1,0,0:0:0:0:
72,124,80026,1,8,0:0:0:0:
36,196,80241,2,0,P|32:252|44:288,1,80,0|8,0:0|0:0,0:0:0:0:
96,328,80673,2,0,L|192:320,1,80,0|8,0:0|0:0,0:0:0:0:
252,340,81105,1,8,0:0:0:0:
396,268,81536,6,0,L|380:100,1,160,4|4,0:0|0:0,0:0:0:0:
288,240,82400,2,0,L|272:72,1,160,4|4,0:0|0:0,0:0:0:0:
180,212,83263,2,0,L|168:104,1,80,4|8,0:0|0:0,0:0:0:0:
112,76,83695,2,0,P|56:84|24:120,1,80,0|8,0:0|0:0,0:0:0:0:
20,176,84126,5,0,0:0:0:0:
16,256,84342,1,8,0:0:0:0:
12,336,84558,1,0,0:0:0:0:
172,352,84990,6,0,B|228:376|276:356|296:312|296:312|288:256|288:256|308:204|308:204|292:176|296:144|296:144|272:120|284:74|284:74|312:40|384:40,1,480,4|0,0:0|0:0,0:0:0:0:
456,168,86716,6,0,L|464:308,2,120,0|0|8,0:0|0:0|0:0,0:0:0:0:
452,88,87579,1,8,0:0:0:0:
356,216,88011,6,0,L|364:400,1,160
