osu file format v14

[General]
AudioFilename: audio.mp3
AudioLeadIn: 0
PreviewTime: 86042
Countdown: 0
SampleSet: Normal
StackLeniency: 0.7
Mode: 3
LetterboxInBreaks: 0
SpecialStyle: 0
WidescreenStoryboard: 1

[Editor]
DistanceSpacing: 0.7
BeatDivisor: 6
GridSize: 4
TimelineZoom: 2

[Metadata]
Title:Girl in the Night (Sped Up Ver.)
TitleUnicode:Girl in the Night (Sped Up Ver.)
Artist:Dolly Pop
ArtistUnicode:Dolly Pop
Creator:Jole
Version:[INAUDIBLE GIRL IN THE DISTANCE]
Source:
Tags:4 key dump stream jumpstream speed eurobeat jolo
BeatmapID:1389740
BeatmapSetID:655850

[Difficulty]
HPDrainRate:8
CircleSize:4
OverallDifficulty:8
ApproachRate:5
SliderMultiplier:1.4
SliderTickRate:1

[Events]
//Background and Video events
0,0,"bg.jpg",0,0
//Break Periods
//Storyboard Layer 0 (Background)
//Storyboard Layer 1 (Fail)
//Storyboard Layer 2 (Pass)
//Storyboard Layer 3 (Foreground)
//Storyboard Layer 4 (Overlay)
//Storyboard Sound Samples

[TimingPoints]
513,368.663594470046,4,1,0,0,1,0

[HitObjects]
320,192,513,5,0,0:0:0:0:
320,192,697,1,0,0:0:0:0:
64,192,789,1,0,0:0:0:0:
448,192,973,1,0,0:0:0:0:
320,192,1158,1,0,0:0:0:0:
192,192,1250,1,0,0:0:0:0:
64,192,1311,1,0,0:0:0:0:
448,192,1373,1,0,0:0:0:0:
320,192,1434,1,0,0:0:0:0:
64,192,1526,1,0,0:0:0:0:
192,192,1618,1,0,0:0:0:0:
448,192,1803,1,0,0:0:0:0:
320,192,1987,1,0,0:0:0:0:
64,192,2079,1,0,0:0:0:0:
448,192,2264,1,0,0:0:0:0:
448,192,2448,1,0,0:0:0:0:
192,192,2540,1,0,0:0:0:0:
64,192,2602,1,0,0:0:0:0:
448,192,2663,1,0,0:0:0:0:
320,192,2724,1,0,0:0:0:0:
64,192,2817,1,0,0:0:0:0:
320,192,2909,1,0,0:0:0:0:
448,192,3093,1,0,0:0:0:0:
64,192,3185,1,0,0:0:0:0:
448,192,3277,1,0,0:0:0:0:
320,192,3462,1,0,0:0:0:0:
192,192,3646,1,0,0:0:0:0:
64,192,3738,1,0,0:0:0:0:
448,192,3923,1,0,0:0:0:0:
448,192,4107,1,0,0:0:0:0:
320,192,4199,1,0,0:0:0:0:
192,192,4261,1,0,0:0:0:0:
64,192,4322,1,0,0:0:0:0:
448,192,4383,1,0,0:0:0:0:
320,192,4445,1,0,0:0:0:0:
64,192,4476,1,0,0:0:0:0:
192,192,4568,1,0,0:0:0:0:
320,192,4752,1,0,0:0:0:0:
192,192,4936,1,0,0:0:0:0:
64,192,5029,1,0,0:0:0:0:
448,192,5213,1,0,0:0:0:0:
192,192,5397,1,0,0:0:0:0:
320,192,5489,1,0,0:0:0:0:
448,192,5551,1,0,0:0:0:0:
64,192,5612,1,0,0:0:0:0:
320,192,5674,1,0,0:0:0:0:
64,192,5766,1,0,0:0:0:0:
448,192,5950,1,0,0:0:0:0:
192,192,6135,1,0,0:0:0:0:
448,192,6227,1,0,0:0:0:0:
320,192,6288,1,0,0:0:0:0:
192,192,6350,1,0,0:0:0:0:
64,192,6411,1,0,0:0:0:0:
448,192,6411,1,0,0:0:0:0:
320,192,6595,1,0,0:0:0:0:
64,192,6688,1,0,0:0:0:0:
448,192,6872,1,0,0:0:0:0:
320,192,7056,1,0,0:0:0:0:
192,192,7148,1,0,0:0:0:0:
64,192,7210,1,0,0:0:0:0:
448,192,7271,1,0,0:0:0:0:
320,192,7333,1,0,0:0:0:0:
64,192,7425,1,0,0:0:0:0:
192,192,7517,1,0,0:0:0:0:
448,192,7701,1,0,0:0:0:0:
64,192,7794,1,0,0:0:0:0:
320,192,7886,1,0,0:0:0:0:
192,192,7886,1,0,0:0:0:0:
64,192,7978,1,0,0:0:0:0:
448,192,8070,1,0,0:0:0:0:
192,192,8070,1,0,0:0:0:0:
320,192,8162,1,0,0:0:0:0:
64,192,8254,1,0,0:0:0:0:
448,192,8254,1,0,0:0:0:0:
192,192,8347,1,0,0:0:0:0:
320,192,8439,1,0,0:0:0:0:
448,192,8439,1,0,0:0:0:0:
64,192,8531,1,0,0:0:0:0:
192,192,8623,1,0,0:0:0:0:
448,192,8623,1,0,0:0:0:0:
320,192,8685,1,0,0:0:0:0:
448,192,8746,1,0,0:0:0:0:
64,192,8807,1,0,0:0:0:0:
192,192,8807,1,0,0:0:0:0:
448,192,8900,1,0,0:0:0:0:
320,192,8992,1,0,0:0:0:0:
192,192,8992,1,0,0:0:0:0:
64,192,9084,1,0,0:0:0:0:
448,192,9176,1,0,0:0:0:0:
320,192,9176,1,0,0:0:0:0:
192,192,9268,1,0,0:0:0:0:
64,192,9360,1,0,0:0:0:0:
448,192,9360,1,0,0:0:0:0:
192,192,9545,1,0,0:0:0:0:
64,192,9637,1,0,0:0:0:0:
448,192,9821,1,0,0:0:0:0:
448,192,10006,1,0,0:0:0:0:
320,192,10098,1,0,0:0:0:0:
192,192,10159,1,0,0:0:0:0:
64,192,10221,1,0,0:0:0:0:
448,192,10282,1,0,0:0:0:0:
320,192,10344,1,0,0:0:0:0:
64,192,10374,1,0,0:0:0:0:
192,192,10466,1,0,0:0:0:0:
320,192,10651,1,0,0:0:0:0:
192,192,10835,1,0,0:0:0:0:
448,192,10835,1,0,0:0:0:0:
64,192,10927,1,0,0:0:0:0:
448,192,11112,1,0,0:0:0:0:
192,192,11296,1,0,0:0:0:0:
320,192,11388,1,0,0:0:0:0:
448,192,11450,1,0,0:0:0:0:
192,192,11511,1,0,0:0:0:0:
320,192,11572,1,0,0:0:0:0:
64,192,11665,1,0,0:0:0:0:
448,192,11849,1,0,0:0:0:0:
192,192,12033,1,0,0:0:0:0:
320,192,12125,1,0,0:0:0:0:
448,192,12187,1,0,0:0:0:0:
192,192,12248,1,0,0:0:0:0:
320,192,12310,5,0,0:0:0:0:
64,192,12310,1,0,0:0:0:0:
448,192,12402,1,0,0:0:0:0:
320,192,12494,1,0,0:0:0:0:
192,192,12494,1,0,0:0:0:0:
64,192,12586,1,0,0:0:0:0:
448,192,12586,1,0,0:0:0:0:
192,192,12678,1,0,0:0:0:0:
448,192,12771,1,0,0:0:0:0:
320,192,12771,1,0,0:0:0:0:
64,192,12863,1,0,0:0:0:0:
320,192,12955,1,0,0:0:0:0:
192,192,12955,1,0,0:0:0:0:
64,192,13047,1,0,0:0:0:0:
448,192,13047,1,0,0:0:0:0:
320,192,13139,1,0,0:0:0:0:
192,192,13231,1,0,0:0:0:0:
320,192,13324,1,0,0:0:0:0:
448,192,13324,1,0,0:0:0:0:
192,192,13416,1,0,0:0:0:0:
64,192,13416,1,0,0:0:0:0:
320,192,13508,1,0,0:0:0:0:
448,192,13600,1,0,0:0:0:0:
64,192,13600,1,0,0:0:0:0:
192,192,13692,1,0,0:0:0:0:
320,192,13784,1,0,0:0:0:0:
448,192,13784,1,0,0:0:0:0:
64,192,13877,1,0,0:0:0:0:
192,192,13969,1,0,0:0:0:0:
320,192,13969,1,0,0:0:0:0:
448,192,14061,1,0,0:0:0:0:
64,192,14061,1,0,0:0:0:0:
192,192,14153,1,0,0:0:0:0:
448,192,14245,1,0,0:0:0:0:
64,192,14245,1,0,0:0:0:0:
320,192,14337,1,0,0:0:0:0:
192,192,14430,1,0,0:0:0:0:
64,192,14430,1,0,0:0:0:0:
320,192,14522,1,0,0:0:0:0:
448,192,14522,1,0,0:0:0:0:
64,192,14614,1,0,0:0:0:0:
320,192,14706,1,0,0:0:0:0:
192,192,14798,1,0,0:0:0:0:
64,192,14798,1,0,0:0:0:0:
448,192,14890,1,0,0:0:0:0:
320,192,14890,1,0,0:0:0:0:
192,192,14983,1,0,0:0:0:0:
64,192,15075,1,0,0:0:0:0:
320,192,15075,1,0,0:0:0:0:
192,192,15167,1,0,0:0:0:0:
64,192,15259,1,0,0:0:0:0:
448,192,15259,1,0,0:0:0:0:
320,192,15351,1,0,0:0:0:0:
192,192,15443,1,0,0:0:0:0:
448,192,15443,1,0,0:0:0:0:
64,192,15536,1,0,0:0:0:0:
320,192,15536,1,0,0:0:0:0:
192,192,15628,1,0,0:0:0:0:
448,192,15720,1,0,0:0:0:0:
64,192,15720,1,0,0:0:0:0:
320,192,15812,1,0,0:0:0:0:
64,192,15904,1,0,0:0:0:0:
192,192,15904,1,0,0:0:0:0:
320,192,15996,1,0,0:0:0:0:
448,192,15996,1,0,0:0:0:0:
192,192,16089,1,0,0:0:0:0:
64,192,16181,1,0,0:0:0:0:
320,192,16273,1,0,0:0:0:0:
192,192,16365,1,0,0:0:0:0:
448,192,16365,1,0,0:0:0:0:
64,192,16457,1,0,0:0:0:0:
320,192,16549,1,0,0:0:0:0:
448,192,16549,1,0,0:0:0:0:
192,192,16642,1,0,0:0:0:0:
64,192,16734,1,0,0:0:0:0:
320,192,16734,1,0,0:0:0:0:
192,192,16826,1,0,0:0:0:0:
448,192,16826,1,0,0:0:0:0:
320,192,16918,1,0,0:0:0:0:
64,192,17010,1,0,0:0:0:0:
448,192,17010,1,0,0:0:0:0:
320,192,17102,1,0,0:0:0:0:
192,192,17195,1,0,0:0:0:0:
64,192,17195,1,0,0:0:0:0:
320,192,17287,1,0,0:0:0:0:
448,192,17287,1,0,0:0:0:0:
64,192,17379,1,0,0:0:0:0:
192,192,17471,1,0,0:0:0:0:
448,192,17471,1,0,0:0:0:0:
320,192,17563,1,0,0:0:0:0:
64,192,17563,1,0,0:0:0:0:
192,192,17655,1,0,0:0:0:0:
64,192,17748,1,0,0:0:0:0:
448,192,17748,1,0,0:0:0:0:
320,192,17840,1,0,0:0:0:0:
192,192,17840,1,0,0:0:0:0:
448,192,17932,1,0,0:0:0:0:
64,192,17932,1,0,0:0:0:0:
320,192,18024,1,0,0:0:0:0:
192,192,18024,1,0,0:0:0:0:
64,192,18116,1,0,0:0:0:0:
448,192,18116,1,0,0:0:0:0:
192,192,18208,1,0,0:0:0:0:
320,192,18208,1,0,0:0:0:0:
448,192,18301,1,0,0:0:0:0:
320,192,18393,1,0,0:0:0:0:
192,192,18393,1,0,0:0:0:0:
64,192,18485,1,0,0:0:0:0:
448,192,18485,1,0,0:0:0:0:
192,192,18577,1,0,0:0:0:0:
448,192,18669,1,0,0:0:0:0:
320,192,18669,1,0,0:0:0:0:
64,192,18761,1,0,0:0:0:0:
320,192,18854,1,0,0:0:0:0:
192,192,18854,1,0,0:0:0:0:
64,192,18946,1,0,0:0:0:0:
448,192,18946,1,0,0:0:0:0:
320,192,19038,1,0,0:0:0:0:
192,192,19130,1,0,0:0:0:0:
320,192,19222,1,0,0:0:0:0:
448,192,19222,1,0,0:0:0:0:
192,192,19314,1,0,0:0:0:0:
64,192,19314,1,0,0:0:0:0:
320,192,19407,1,0,0:0:0:0:
448,192,19499,1,0,0:0:0:0:
64,192,19499,1,0,0:0:0:0:
192,192,19591,1,0,0:0:0:0:
320,192,19683,1,0,0:0:0:0:
448,192,19683,1,0,0:0:0:0:
64,192,19775,1,0,0:0:0:0:
192,192,19867,1,0,0:0:0:0:
320,192,19867,1,0,0:0:0:0:
448,192,19960,1,0,0:0:0:0:
64,192,19960,1,0,0:0:0:0:
192,192,20052,1,0,0:0:0:0:
448,192,20144,1,0,0:0:0:0:
64,192,20144,1,0,0:0:0:0:
320,192,20236,1,0,0:0:0:0:
192,192,20328,1,0,0:0:0:0:
64,192,20328,1,0,0:0:0:0:
320,192,20420,1,0,0:0:0:0:
448,192,20420,1,0,0:0:0:0:
64,192,20512,1,0,0:0:0:0:
320,192,20605,1,0,0:0:0:0:
192,192,20697,1,0,0:0:0:0:
64,192,20697,1,0,0:0:0:0:
448,192,20789,1,0,0:0:0:0:
320,192,20789,1,0,0:0:0:0:
192,192,20881,1,0,0:0:0:0:
64,192,20973,1,0,0:0:0:0:
320,192,20973,1,0,0:0:0:0:
192,192,21065,1,0,0:0:0:0:
64,192,21158,1,0,0:0:0:0:
448,192,21158,1,0,0:0:0:0:
320,192,21250,1,0,0:0:0:0:
192,192,21342,1,0,0:0:0:0:
448,192,21342,1,0,0:0:0:0:
64,192,21434,1,0,0:0:0:0:
320,192,21434,1,0,0:0:0:0:
192,192,21526,1,0,0:0:0:0:
448,192,21618,1,0,0:0:0:0:
64,192,21618,1,0,0:0:0:0:
320,192,21711,1,0,0:0:0:0:
64,192,21803,1,0,0:0:0:0:
192,192,21803,1,0,0:0:0:0:
320,192,21895,1,0,0:0:0:0:
448,192,21895,1,0,0:0:0:0:
192,192,21987,1,0,0:0:0:0:
64,192,22079,1,0,0:0:0:0:
320,192,22171,1,0,0:0:0:0:
192,192,22264,1,0,0:0:0:0:
448,192,22264,1,0,0:0:0:0:
64,192,22356,1,0,0:0:0:0:
320,192,22448,1,0,0:0:0:0:
448,192,22448,1,0,0:0:0:0:
192,192,22448,1,0,0:0:0:0:
64,192,22632,1,0,0:0:0:0:
320,192,22632,1,0,0:0:0:0:
192,192,22724,1,0,0:0:0:0:
320,192,22909,1,0,0:0:0:0:
64,192,23093,1,0,0:0:0:0:
448,192,23185,1,0,0:0:0:0:
320,192,23370,1,0,0:0:0:0:
192,192,23462,1,0,0:0:0:0:
448,192,23646,1,0,0:0:0:0:
192,192,23830,1,0,0:0:0:0:
64,192,23923,1,0,0:0:0:0:
320,192,24107,1,0,0:0:0:0:
320,192,24476,5,0,0:0:0:0:
320,192,24660,1,0,0:0:0:0:
320,192,24844,1,0,0:0:0:0:
320,192,25029,1,0,0:0:0:0:
320,192,25213,1,0,0:0:0:0:
192,192,25305,1,0,0:0:0:0:
320,192,25397,1,0,0:0:0:0:
192,192,25489,1,0,0:0:0:0:
64,192,25582,1,0,0:0:0:0:
448,192,25582,1,0,0:0:0:0:
320,192,25643,1,0,0:0:0:0:
192,192,25705,1,0,0:0:0:0:
448,192,25766,1,0,0:0:0:0:
320,192,25766,1,0,0:0:0:0:
64,192,25827,1,0,0:0:0:0:
192,192,25827,1,0,0:0:0:0:
448,192,25889,1,0,0:0:0:0:
320,192,25950,1,0,0:0:0:0:
64,192,26012,1,0,0:0:0:0:
192,192,26073,1,0,0:0:0:0:
320,192,26073,1,0,0:0:0:0:
64,192,26135,1,0,0:0:0:0:
448,192,26135,1,0,0:0:0:0:
320,192,26196,1,0,0:0:0:0:
192,192,26258,1,0,0:0:0:0:
448,192,26319,1,0,0:0:0:0:
64,192,26319,1,0,0:0:0:0:
192,192,26380,1,0,0:0:0:0:
320,192,26380,1,0,0:0:0:0:
448,192,26442,1,0,0:0:0:0:
64,192,26503,1,0,0:0:0:0:
320,192,26565,1,0,0:0:0:0:
448,192,26626,1,0,0:0:0:0:
192,192,26688,1,0,0:0:0:0:
64,192,26688,1,0,0:0:0:0:
320,192,26749,1,0,0:0:0:0:
192,192,26811,1,0,0:0:0:0:
320,192,26872,1,0,0:0:0:0:
448,192,26872,1,0,0:0:0:0:
192,192,26933,1,0,0:0:0:0:
320,192,26995,1,0,0:0:0:0:
64,192,27056,1,0,0:0:0:0:
192,192,27056,1,0,0:0:0:0:
448,192,27118,1,0,0:0:0:0:
320,192,27179,1,0,0:0:0:0:
64,192,27241,1,0,0:0:0:0:
192,192,27241,1,0,0:0:0:0:
448,192,27302,1,0,0:0:0:0:
320,192,27302,1,0,0:0:0:0:
192,192,27363,1,0,0:0:0:0:
64,192,27425,1,0,0:0:0:0:
448,192,27486,1,0,0:0:0:0:
320,192,27548,1,0,0:0:0:0:
192,192,27548,1,0,0:0:0:0:
64,192,27609,1,0,0:0:0:0:
448,192,27609,1,0,0:0:0:0:
192,192,27671,1,0,0:0:0:0:
320,192,27732,1,0,0:0:0:0:
192,192,27794,1,0,0:0:0:0:
448,192,27794,1,0,0:0:0:0:
64,192,27855,1,0,0:0:0:0:
320,192,27855,1,0,0:0:0:0:
192,192,27916,1,0,0:0:0:0:
448,192,27978,1,0,0:0:0:0:
320,192,28039,1,0,0:0:0:0:
192,192,28101,1,0,0:0:0:0:
320,192,28162,1,0,0:0:0:0:
448,192,28162,1,0,0:0:0:0:
64,192,28224,1,0,0:0:0:0:
448,192,28285,1,0,0:0:0:0:
192,192,28347,1,0,0:0:0:0:
64,192,28347,1,0,0:0:0:0:
448,192,28408,1,0,0:0:0:0:
64,192,28469,1,0,0:0:0:0:
448,192,28531,1,0,0:0:0:0:
320,192,28531,1,0,0:0:0:0:
192,192,28592,1,0,0:0:0:0:
320,192,28654,1,0,0:0:0:0:
64,192,28715,1,0,0:0:0:0:
448,192,28715,1,0,0:0:0:0:
192,192,28777,1,0,0:0:0:0:
320,192,28777,1,0,0:0:0:0:
64,192,28838,1,0,0:0:0:0:
448,192,28900,1,0,0:0:0:0:
320,192,28961,1,0,0:0:0:0:
192,192,29022,1,0,0:0:0:0:
448,192,29022,1,0,0:0:0:0:
320,192,29084,1,0,0:0:0:0:
64,192,29084,1,0,0:0:0:0:
192,192,29145,1,0,0:0:0:0:
448,192,29207,1,0,0:0:0:0:
192,192,29268,1,0,0:0:0:0:
64,192,29268,1,0,0:0:0:0:
320,192,29330,1,0,0:0:0:0:
448,192,29330,1,0,0:0:0:0:
64,192,29391,1,0,0:0:0:0:
192,192,29453,1,0,0:0:0:0:
448,192,29514,1,0,0:0:0:0:
320,192,29575,1,0,0:0:0:0:
192,192,29637,1,0,0:0:0:0:
64,192,29637,1,0,0:0:0:0:
448,192,29698,1,0,0:0:0:0:
192,192,29760,1,0,0:0:0:0:
320,192,29821,1,0,0:0:0:0:
448,192,29821,1,0,0:0:0:0:
64,192,29883,1,0,0:0:0:0:
320,192,29944,1,0,0:0:0:0:
192,192,30006,1,0,0:0:0:0:
64,192,30006,1,0,0:0:0:0:
448,192,30067,1,0,0:0:0:0:
320,192,30128,1,0,0:0:0:0:
64,192,30190,1,0,0:0:0:0:
448,192,30190,1,0,0:0:0:0:
192,192,30251,1,0,0:0:0:0:
320,192,30251,1,0,0:0:0:0:
64,192,30313,1,0,0:0:0:0:
448,192,30374,1,0,0:0:0:0:
320,192,30436,1,0,0:0:0:0:
64,192,30497,1,0,0:0:0:0:
192,192,30497,1,0,0:0:0:0:
320,192,30559,1,0,0:0:0:0:
448,192,30559,1,0,0:0:0:0:
64,192,30620,1,0,0:0:0:0:
192,192,30620,1,0,0:0:0:0:
320,192,30681,1,0,0:0:0:0:
448,192,30681,1,0,0:0:0:0:
192,192,30743,1,0,0:0:0:0:
64,192,30804,1,0,0:0:0:0:
448,192,30866,1,0,0:0:0:0:
192,192,30927,1,0,0:0:0:0:
64,192,30927,1,0,0:0:0:0:
320,192,30989,1,0,0:0:0:0:
448,192,30989,1,0,0:0:0:0:
192,192,31050,1,0,0:0:0:0:
64,192,31050,1,0,0:0:0:0:
320,192,31112,1,0,0:0:0:0:
448,192,31112,1,0,0:0:0:0:
192,192,31173,1,0,0:0:0:0:
64,192,31173,1,0,0:0:0:0:
448,192,31234,1,0,0:0:0:0:
320,192,31234,1,0,0:0:0:0:
192,192,31296,1,0,0:0:0:0:
64,192,31296,1,0,0:0:0:0:
320,192,31357,1,0,0:0:0:0:
448,192,31357,1,0,0:0:0:0:
64,192,31419,1,0,0:0:0:0:
192,192,31419,1,0,0:0:0:0:
320,192,31480,1,0,0:0:0:0:
448,192,31480,1,0,0:0:0:0:
192,192,31542,1,0,0:0:0:0:
320,192,31603,1,0,0:0:0:0:
64,192,31665,1,0,0:0:0:0:
448,192,31665,1,0,0:0:0:0:
320,192,31726,1,0,0:0:0:0:
192,192,31726,1,0,0:0:0:0:
448,192,31787,1,0,0:0:0:0:
64,192,31849,1,0,0:0:0:0:
320,192,31910,1,0,0:0:0:0:
192,192,31972,1,0,0:0:0:0:
448,192,31972,1,0,0:0:0:0:
64,192,32033,1,0,0:0:0:0:
320,192,32033,1,0,0:0:0:0:
192,192,32095,1,0,0:0:0:0:
448,192,32156,1,0,0:0:0:0:
64,192,32218,1,0,0:0:0:0:
192,192,32218,1,0,0:0:0:0:
320,192,32279,1,0,0:0:0:0:
448,192,32279,1,0,0:0:0:0:
64,192,32340,1,0,0:0:0:0:
320,192,32402,1,0,0:0:0:0:
448,192,32463,1,0,0:0:0:0:
64,192,32525,1,0,0:0:0:0:
320,192,32586,1,0,0:0:0:0:
448,192,32586,1,0,0:0:0:0:
192,192,32648,1,0,0:0:0:0:
320,192,32709,1,0,0:0:0:0:
64,192,32771,1,0,0:0:0:0:
192,192,32771,1,0,0:0:0:0:
320,192,32832,1,0,0:0:0:0:
192,192,32893,1,0,0:0:0:0:
320,192,32955,1,0,0:0:0:0:
448,192,32955,1,0,0:0:0:0:
64,192,33016,1,0,0:0:0:0:
320,192,33078,1,0,0:0:0:0:
448,192,33139,1,0,0:0:0:0:
192,192,33139,1,0,0:0:0:0:
320,192,33201,1,0,0:0:0:0:
64,192,33201,1,0,0:0:0:0:
192,192,33262,1,0,0:0:0:0:
64,192,33324,1,0,0:0:0:0:
448,192,33385,1,0,0:0:0:0:
64,192,33446,1,0,0:0:0:0:
192,192,33446,1,0,0:0:0:0:
320,192,33508,1,0,0:0:0:0:
448,192,33508,1,0,0:0:0:0:
192,192,33569,1,0,0:0:0:0:
64,192,33631,1,0,0:0:0:0:
192,192,33692,1,0,0:0:0:0:
320,192,33692,1,0,0:0:0:0:
64,192,33754,1,0,0:0:0:0:
448,192,33754,1,0,0:0:0:0:
320,192,33815,1,0,0:0:0:0:
192,192,33877,1,0,0:0:0:0:
448,192,33938,1,0,0:0:0:0:
64,192,33999,1,0,0:0:0:0:
320,192,34061,1,0,0:0:0:0:
448,192,34061,1,0,0:0:0:0:
192,192,34122,1,0,0:0:0:0:
320,192,34184,1,0,0:0:0:0:
64,192,34245,1,0,0:0:0:0:
448,192,34245,1,0,0:0:0:0:
192,192,34307,1,0,0:0:0:0:
320,192,34368,1,0,0:0:0:0:
64,192,34430,1,0,0:0:0:0:
192,192,34430,1,0,0:0:0:0:
448,192,34491,1,0,0:0:0:0:
320,192,34552,1,0,0:0:0:0:
64,192,34614,1,0,0:0:0:0:
192,192,34614,1,0,0:0:0:0:
448,192,34675,1,0,0:0:0:0:
320,192,34675,1,0,0:0:0:0:
192,192,34737,1,0,0:0:0:0:
64,192,34798,1,0,0:0:0:0:
448,192,34860,1,0,0:0:0:0:
192,192,34921,1,0,0:0:0:0:
320,192,34921,1,0,0:0:0:0:
64,192,34983,1,0,0:0:0:0:
448,192,34983,1,0,0:0:0:0:
192,192,35044,1,0,0:0:0:0:
320,192,35105,1,0,0:0:0:0:
448,192,35167,1,0,0:0:0:0:
192,192,35167,1,0,0:0:0:0:
64,192,35228,1,0,0:0:0:0:
320,192,35228,1,0,0:0:0:0:
448,192,35290,1,0,0:0:0:0:
192,192,35351,1,0,0:0:0:0:
320,192,35413,1,0,0:0:0:0:
64,192,35474,1,0,0:0:0:0:
320,192,35536,1,0,0:0:0:0:
448,192,35536,1,0,0:0:0:0:
192,192,35597,1,0,0:0:0:0:
448,192,35658,1,0,0:0:0:0:
64,192,35720,1,0,0:0:0:0:
192,192,35720,1,0,0:0:0:0:
320,192,35781,1,0,0:0:0:0:
64,192,35843,1,0,0:0:0:0:
448,192,35904,1,0,0:0:0:0:
320,192,35904,1,0,0:0:0:0:
192,192,35966,1,0,0:0:0:0:
64,192,36027,1,0,0:0:0:0:
320,192,36089,1,0,0:0:0:0:
448,192,36089,1,0,0:0:0:0:
192,192,36150,1,0,0:0:0:0:
64,192,36150,1,0,0:0:0:0:
448,192,36211,1,0,0:0:0:0:
320,192,36273,1,0,0:0:0:0:
64,192,36334,1,0,0:0:0:0:
448,192,36396,1,0,0:0:0:0:
320,192,36396,1,0,0:0:0:0:
192,192,36457,1,0,0:0:0:0:
64,192,36457,1,0,0:0:0:0:
448,192,36519,1,0,0:0:0:0:
320,192,36580,1,0,0:0:0:0:
448,192,36642,1,0,0:0:0:0:
192,192,36642,1,0,0:0:0:0:
320,192,37195,1,0,0:0:0:0:
448,192,37379,1,0,0:0:0:0:
192,192,37379,1,0,0:0:0:0:
320,192,37425,1,0,0:0:0:0:
64,192,37471,1,0,0:0:0:0:
448,192,37517,1,0,0:0:0:0:
192,192,37563,1,0,0:0:0:0:
320,192,37609,1,0,0:0:0:0:
192,192,37655,1,0,0:0:0:0:
64,192,37701,1,0,0:0:0:0:
448,192,37748,1,0,0:0:0:0:
192,192,37794,1,0,0:0:0:0:
320,192,37840,1,0,0:0:0:0:
64,192,37886,1,0,0:0:0:0:
320,192,37932,1,0,0:0:0:0:
448,192,37978,1,0,0:0:0:0:
64,192,38024,1,0,0:0:0:0:
192,192,38070,1,0,0:0:0:0:
320,192,38116,1,0,0:0:0:0:
448,192,38162,1,0,0:0:0:0:
64,192,38208,1,0,0:0:0:0:
192,192,38254,1,0,0:0:0:0:
448,192,38301,1,0,0:0:0:0:
64,192,38347,1,0,0:0:0:0:
320,192,38393,1,0,0:0:0:0:
448,192,38439,1,0,0:0:0:0:
64,192,38485,1,0,0:0:0:0:
192,192,38531,1,0,0:0:0:0:
320,192,38577,1,0,0:0:0:0:
64,192,38623,1,0,0:0:0:0:
448,192,38669,1,0,0:0:0:0:
192,192,38715,1,0,0:0:0:0:
320,192,38761,1,0,0:0:0:0:
64,192,38807,1,0,0:0:0:0:
448,192,38854,1,0,0:0:0:0:
320,192,38900,1,0,0:0:0:0:
64,192,38946,1,0,0:0:0:0:
448,192,38992,1,0,0:0:0:0:
192,192,39038,1,0,0:0:0:0:
320,192,39084,1,0,0:0:0:0:
448,192,39130,1,0,0:0:0:0:
64,192,39176,1,0,0:0:0:0:
320,192,39222,1,0,0:0:0:0:
192,192,39268,1,0,0:0:0:0:
448,192,39314,1,0,0:0:0:0:
64,192,39360,1,0,0:0:0:0:
320,192,39407,1,0,0:0:0:0:
448,192,39453,1,0,0:0:0:0:
192,192,39499,1,0,0:0:0:0:
64,192,39545,1,0,0:0:0:0:
320,192,39591,1,0,0:0:0:0:
448,192,39637,1,0,0:0:0:0:
192,192,39683,1,0,0:0:0:0:
320,192,39729,1,0,0:0:0:0:
64,192,39775,1,0,0:0:0:0:
448,192,39821,1,0,0:0:0:0:
320,192,39867,1,0,0:0:0:0:
64,192,39913,1,0,0:0:0:0:
448,192,39960,1,0,0:0:0:0:
192,192,40006,1,0,0:0:0:0:
320,192,40052,1,0,0:0:0:0:
448,192,40098,1,0,0:0:0:0:
64,192,40144,1,0,0:0:0:0:
320,192,40190,1,0,0:0:0:0:
448,192,40236,1,0,0:0:0:0:
192,192,40282,1,0,0:0:0:0:
64,192,40328,1,0,0:0:0:0:
448,192,40374,1,0,0:0:0:0:
320,192,40420,1,0,0:0:0:0:
192,192,40466,1,0,0:0:0:0:
64,192,40512,1,0,0:0:0:0:
320,192,40559,1,0,0:0:0:0:
448,192,40605,1,0,0:0:0:0:
192,192,40651,1,0,0:0:0:0:
64,192,40697,1,0,0:0:0:0:
448,192,40743,1,0,0:0:0:0:
320,192,40789,1,0,0:0:0:0:
192,192,40835,1,0,0:0:0:0:
64,192,40881,1,0,0:0:0:0:
448,192,40927,1,0,0:0:0:0:
192,192,40973,1,0,0:0:0:0:
320,192,41019,1,0,0:0:0:0:
448,192,41065,1,0,0:0:0:0:
64,192,41112,1,0,0:0:0:0:
320,192,41158,1,0,0:0:0:0:
192,192,41204,1,0,0:0:0:0:
448,192,41250,1,0,0:0:0:0:
64,192,41296,1,0,0:0:0:0:
192,192,41342,1,0,0:0:0:0:
320,192,41388,1,0,0:0:0:0:
64,192,41434,1,0,0:0:0:0:
448,192,41480,1,0,0:0:0:0:
192,192,41526,1,0,0:0:0:0:
320,192,41572,1,0,0:0:0:0:
64,192,41618,1,0,0:0:0:0:
192,192,41665,1,0,0:0:0:0:
320,192,41711,1,0,0:0:0:0:
448,192,41757,1,0,0:0:0:0:
64,192,41803,1,0,0:0:0:0:
192,192,41849,1,0,0:0:0:0:
320,192,41895,1,0,0:0:0:0:
448,192,41941,1,0,0:0:0:0:
320,192,41987,1,0,0:0:0:0:
192,192,42033,1,0,0:0:0:0:
64,192,42079,1,0,0:0:0:0:
448,192,42125,1,0,0:0:0:0:
320,192,42171,1,0,0:0:0:0:
192,192,42218,1,0,0:0:0:0:
64,192,42264,1,0,0:0:0:0:
448,192,42310,1,0,0:0:0:0:
320,192,42356,1,0,0:0:0:0:
448,192,42402,1,0,0:0:0:0:
64,192,42448,1,0,0:0:0:0:
192,192,42494,1,0,0:0:0:0:
320,192,42540,1,0,0:0:0:0:
448,192,42586,1,0,0:0:0:0:
64,192,42632,1,0,0:0:0:0:
192,192,42678,1,0,0:0:0:0:
320,192,42724,1,0,0:0:0:0:
192,192,42771,1,0,0:0:0:0:
64,192,42817,1,0,0:0:0:0:
448,192,42863,1,0,0:0:0:0:
320,192,42909,1,0,0:0:0:0:
192,192,42955,1,0,0:0:0:0:
64,192,43001,1,0,0:0:0:0:
192,192,43047,1,0,0:0:0:0:
448,192,43093,1,0,0:0:0:0:
320,192,43139,1,0,0:0:0:0:
64,192,43185,1,0,0:0:0:0:
192,192,43231,1,0,0:0:0:0:
320,192,43277,1,0,0:0:0:0:
448,192,43277,1,0,0:0:0:0:
64,192,43324,1,0,0:0:0:0:
320,192,43370,1,0,0:0:0:0:
192,192,43416,1,0,0:0:0:0:
448,192,43462,1,0,0:0:0:0:
320,192,43508,1,0,0:0:0:0:
192,192,43554,1,0,0:0:0:0:
64,192,43600,1,0,0:0:0:0:
448,192,43646,1,0,0:0:0:0:
192,192,43692,1,0,0:0:0:0:
320,192,43738,1,0,0:0:0:0:
64,192,43784,1,0,0:0:0:0:
448,192,43830,1,0,0:0:0:0:
320,192,43877,1,0,0:0:0:0:
64,192,43923,1,0,0:0:0:0:
448,192,43969,1,0,0:0:0:0:
192,192,44015,1,0,0:0:0:0:
320,192,44061,1,0,0:0:0:0:
448,192,44107,1,0,0:0:0:0:
64,192,44153,1,0,0:0:0:0:
192,192,44199,1,0,0:0:0:0:
64,192,44245,1,0,0:0:0:0:
448,192,44291,1,0,0:0:0:0:
192,192,44337,1,0,0:0:0:0:
320,192,44383,1,0,0:0:0:0:
64,192,44430,1,0,0:0:0:0:
448,192,44476,1,0,0:0:0:0:
192,192,44522,1,0,0:0:0:0:
320,192,44568,1,0,0:0:0:0:
448,192,44614,1,0,0:0:0:0:
64,192,44660,1,0,0:0:0:0:
320,192,44706,1,0,0:0:0:0:
192,192,44752,1,0,0:0:0:0:
448,192,44798,1,0,0:0:0:0:
64,192,44844,1,0,0:0:0:0:
320,192,44890,1,0,0:0:0:0:
192,192,44936,1,0,0:0:0:0:
64,192,44983,1,0,0:0:0:0:
448,192,45029,1,0,0:0:0:0:
192,192,45075,1,0,0:0:0:0:
320,192,45121,1,0,0:0:0:0:
64,192,45167,1,0,0:0:0:0:
192,192,45213,1,0,0:0:0:0:
320,192,45259,1,0,0:0:0:0:
64,192,45305,1,0,0:0:0:0:
448,192,45351,1,0,0:0:0:0:
192,192,45397,1,0,0:0:0:0:
64,192,45443,1,0,0:0:0:0:
320,192,45489,1,0,0:0:0:0:
192,192,45536,1,0,0:0:0:0:
448,192,45582,1,0,0:0:0:0:
320,192,45628,1,0,0:0:0:0:
64,192,45674,1,0,0:0:0:0:
192,192,45720,1,0,0:0:0:0:
448,192,45766,1,0,0:0:0:0:
64,192,45812,1,0,0:0:0:0:
320,192,45858,1,0,0:0:0:0:
192,192,45904,1,0,0:0:0:0:
64,192,45950,1,0,0:0:0:0:
320,192,45996,1,0,0:0:0:0:
192,192,46042,1,0,0:0:0:0:
448,192,46089,1,0,0:0:0:0:
64,192,46135,1,0,0:0:0:0:
192,192,46181,1,0,0:0:0:0:
320,192,46227,1,0,0:0:0:0:
64,192,46273,1,0,0:0:0:0:
448,192,46319,1,0,0:0:0:0:
192,192,46365,1,0,0:0:0:0:
320,192,46411,1,0,0:0:0:0:
64,192,46457,1,0,0:0:0:0:
192,192,46503,1,0,0:0:0:0:
448,192,46549,1,0,0:0:0:0:
64,192,46595,1,0,0:0:0:0:
320,192,46642,1,0,0:0:0:0:
192,192,46688,1,0,0:0:0:0:
64,192,46734,1,0,0:0:0:0:
448,192,46780,1,0,0:0:0:0:
320,192,46826,1,0,0:0:0:0:
192,192,46872,1,0,0:0:0:0:
64,192,46918,1,0,0:0:0:0:
320,192,46964,1,0,0:0:0:0:
192,192,47010,1,0,0:0:0:0:
448,192,47056,1,0,0:0:0:0:
320,192,47102,1,0,0:0:0:0:
64,192,47148,1,0,0:0:0:0:
448,192,47195,1,0,0:0:0:0:
320,192,47241,1,0,0:0:0:0:
192,192,47287,1,0,0:0:0:0:
64,192,47333,1,0,0:0:0:0:
448,192,47333,1,0,0:0:0:0:
320,192,47379,1,0,0:0:0:0:
192,192,47425,1,0,0:0:0:0:
64,192,47471,1,0,0:0:0:0:
448,192,47517,1,0,0:0:0:0:
320,192,47563,1,0,0:0:0:0:
192,192,47609,1,0,0:0:0:0:
64,192,47655,1,0,0:0:0:0:
448,192,47701,1,0,0:0:0:0:
320,192,47748,1,0,0:0:0:0:
192,192,47794,1,0,0:0:0:0:
64,192,47840,1,0,0:0:0:0:
448,192,47886,1,0,0:0:0:0:
64,192,47932,1,0,0:0:0:0:
192,192,47978,1,0,0:0:0:0:
320,192,48024,1,0,0:0:0:0:
448,192,48070,1,0,0:0:0:0:
64,192,48116,1,0,0:0:0:0:
192,192,48162,1,0,0:0:0:0:
320,192,48208,1,0,0:0:0:0:
448,192,48254,1,0,0:0:0:0:
320,192,48301,1,0,0:0:0:0:
192,192,48347,1,0,0:0:0:0:
64,192,48393,1,0,0:0:0:0:
448,192,48439,1,0,0:0:0:0:
320,192,48485,1,0,0:0:0:0:
192,192,48531,1,0,0:0:0:0:
64,192,48577,1,0,0:0:0:0:
448,192,48623,1,0,0:0:0:0:
64,192,48669,1,0,0:0:0:0:
192,192,48715,1,0,0:0:0:0:
320,192,48761,1,0,0:0:0:0:
448,192,48807,1,0,0:0:0:0:
64,192,48854,1,0,0:0:0:0:
192,192,48900,1,0,0:0:0:0:
320,192,48946,1,0,0:0:0:0:
448,192,48992,1,0,0:0:0:0:
320,192,49176,1,0,0:0:0:0:
448,192,49176,1,0,0:0:0:0:
192,192,49222,1,0,0:0:0:0:
448,192,49268,1,0,0:0:0:0:
64,192,49314,1,0,0:0:0:0:
320,192,49360,1,0,0:0:0:0:
192,192,49407,1,0,0:0:0:0:
320,192,49453,1,0,0:0:0:0:
448,192,49499,1,0,0:0:0:0:
64,192,49545,1,0,0:0:0:0:
192,192,49591,1,0,0:0:0:0:
64,192,49637,1,0,0:0:0:0:
448,192,49683,1,0,0:0:0:0:
320,192,49729,1,0,0:0:0:0:
64,192,49775,1,0,0:0:0:0:
320,192,49821,1,0,0:0:0:0:
192,192,49867,1,0,0:0:0:0:
64,192,49913,1,0,0:0:0:0:
448,192,49960,1,0,0:0:0:0:
192,192,50006,1,0,0:0:0:0:
320,192,50052,1,0,0:0:0:0:
64,192,50098,1,0,0:0:0:0:
448,192,50144,1,0,0:0:0:0:
192,192,50190,1,0,0:0:0:0:
64,192,50236,1,0,0:0:0:0:
448,192,50282,1,0,0:0:0:0:
320,192,50328,1,0,0:0:0:0:
192,192,50374,1,0,0:0:0:0:
448,192,50420,1,0,0:0:0:0:
64,192,50466,1,0,0:0:0:0:
320,192,50512,1,0,0:0:0:0:
192,192,50559,1,0,0:0:0:0:
448,192,50605,1,0,0:0:0:0:
64,192,50651,1,0,0:0:0:0:
192,192,50697,1,0,0:0:0:0:
448,192,50743,1,0,0:0:0:0:
64,192,50789,1,0,0:0:0:0:
320,192,50835,1,0,0:0:0:0:
192,192,50881,1,0,0:0:0:0:
64,192,50927,1,0,0:0:0:0:
448,192,50973,1,0,0:0:0:0:
192,192,51019,1,0,0:0:0:0:
320,192,51065,1,0,0:0:0:0:
64,192,51112,1,0,0:0:0:0:
448,192,51158,1,0,0:0:0:0:
192,192,51204,1,0,0:0:0:0:
64,192,51250,1,0,0:0:0:0:
320,192,51296,1,0,0:0:0:0:
448,192,51342,1,0,0:0:0:0:
192,192,51388,1,0,0:0:0:0:
64,192,51434,1,0,0:0:0:0:
320,192,51480,1,0,0:0:0:0:
192,192,51526,1,0,0:0:0:0:
448,192,51572,1,0,0:0:0:0:
64,192,51618,1,0,0:0:0:0:
192,192,51665,1,0,0:0:0:0:
448,192,51711,1,0,0:0:0:0:
64,192,51757,1,0,0:0:0:0:
320,192,51803,1,0,0:0:0:0:
192,192,51849,1,0,0:0:0:0:
64,192,51895,1,0,0:0:0:0:
448,192,51941,1,0,0:0:0:0:
192,192,51987,1,0,0:0:0:0:
64,192,52033,1,0,0:0:0:0:
320,192,52079,1,0,0:0:0:0:
448,192,52125,1,0,0:0:0:0:
64,192,52171,1,0,0:0:0:0:
192,192,52218,1,0,0:0:0:0:
320,192,52264,1,0,0:0:0:0:
448,192,52310,1,0,0:0:0:0:
192,192,52356,1,0,0:0:0:0:
64,192,52402,1,0,0:0:0:0:
320,192,52448,1,0,0:0:0:0:
448,192,52494,1,0,0:0:0:0:
64,192,52540,1,0,0:0:0:0:
192,192,52586,1,0,0:0:0:0:
320,192,52632,1,0,0:0:0:0:
448,192,52678,1,0,0:0:0:0:
64,192,52724,1,0,0:0:0:0:
320,192,52771,1,0,0:0:0:0:
192,192,52817,1,0,0:0:0:0:
64,192,52863,1,0,0:0:0:0:
448,192,52909,1,0,0:0:0:0:
192,192,52955,1,0,0:0:0:0:
320,192,53001,1,0,0:0:0:0:
64,192,53047,1,0,0:0:0:0:
448,192,53093,1,0,0:0:0:0:
320,192,53139,1,0,0:0:0:0:
192,192,53185,1,0,0:0:0:0:
448,192,53231,1,0,0:0:0:0:
64,192,53277,1,0,0:0:0:0:
320,192,53324,1,0,0:0:0:0:
192,192,53370,1,0,0:0:0:0:
448,192,53416,1,0,0:0:0:0:
320,192,53462,1,0,0:0:0:0:
192,192,53508,1,0,0:0:0:0:
64,192,53554,1,0,0:0:0:0:
448,192,53600,1,0,0:0:0:0:
320,192,53646,1,0,0:0:0:0:
192,192,53692,1,0,0:0:0:0:
64,192,53738,1,0,0:0:0:0:
192,192,53784,1,0,0:0:0:0:
320,192,53830,1,0,0:0:0:0:
448,192,53877,1,0,0:0:0:0:
64,192,53923,1,0,0:0:0:0:
192,192,53969,1,0,0:0:0:0:
320,192,54015,1,0,0:0:0:0:
448,192,54061,1,0,0:0:0:0:
64,192,54107,1,0,0:0:0:0:
192,192,54153,1,0,0:0:0:0:
64,192,54199,1,0,0:0:0:0:
448,192,54245,1,0,0:0:0:0:
320,192,54291,1,0,0:0:0:0:
192,192,54337,1,0,0:0:0:0:
64,192,54383,1,0,0:0:0:0:
448,192,54430,1,0,0:0:0:0:
320,192,54476,1,0,0:0:0:0:
192,192,54522,1,0,0:0:0:0:
320,192,54568,1,0,0:0:0:0:
448,192,54614,1,0,0:0:0:0:
64,192,54660,1,0,0:0:0:0:
192,192,54706,1,0,0:0:0:0:
320,192,54752,1,0,0:0:0:0:
448,192,54798,1,0,0:0:0:0:
320,192,54844,1,0,0:0:0:0:
64,192,54890,1,0,0:0:0:0:
192,192,54936,1,0,0:0:0:0:
448,192,54983,1,0,0:0:0:0:
320,192,55029,1,0,0:0:0:0:
192,192,55075,1,0,0:0:0:0:
64,192,55075,1,0,0:0:0:0:
448,192,55121,1,0,0:0:0:0:
192,192,55167,1,0,0:0:0:0:
320,192,55213,1,0,0:0:0:0:
64,192,55259,1,0,0:0:0:0:
192,192,55305,1,0,0:0:0:0:
320,192,55351,1,0,0:0:0:0:
448,192,55397,1,0,0:0:0:0:
64,192,55443,1,0,0:0:0:0:
320,192,55489,1,0,0:0:0:0:
192,192,55536,1,0,0:0:0:0:
448,192,55582,1,0,0:0:0:0:
64,192,55628,1,0,0:0:0:0:
192,192,55674,1,0,0:0:0:0:
448,192,55720,1,0,0:0:0:0:
64,192,55766,1,0,0:0:0:0:
320,192,55812,1,0,0:0:0:0:
192,192,55858,1,0,0:0:0:0:
64,192,55904,1,0,0:0:0:0:
448,192,55950,1,0,0:0:0:0:
320,192,55996,1,0,0:0:0:0:
448,192,56042,1,0,0:0:0:0:
64,192,56089,1,0,0:0:0:0:
320,192,56135,1,0,0:0:0:0:
192,192,56181,1,0,0:0:0:0:
448,192,56227,1,0,0:0:0:0:
64,192,56273,1,0,0:0:0:0:
320,192,56319,1,0,0:0:0:0:
192,192,56365,1,0,0:0:0:0:
64,192,56411,1,0,0:0:0:0:
448,192,56457,1,0,0:0:0:0:
192,192,56503,1,0,0:0:0:0:
320,192,56549,1,0,0:0:0:0:
64,192,56595,1,0,0:0:0:0:
448,192,56642,1,0,0:0:0:0:
192,192,56688,1,0,0:0:0:0:
320,192,56734,1,0,0:0:0:0:
448,192,56780,1,0,0:0:0:0:
64,192,56826,1,0,0:0:0:0:
320,192,56872,1,0,0:0:0:0:
192,192,56918,1,0,0:0:0:0:
448,192,56964,1,0,0:0:0:0:
320,192,57010,1,0,0:0:0:0:
192,192,57056,1,0,0:0:0:0:
448,192,57102,1,0,0:0:0:0:
64,192,57148,1,0,0:0:0:0:
320,192,57195,1,0,0:0:0:0:
448,192,57241,1,0,0:0:0:0:
192,192,57287,1,0,0:0:0:0:
320,192,57333,1,0,0:0:0:0:
64,192,57379,1,0,0:0:0:0:
192,192,57425,1,0,0:0:0:0:
448,192,57471,1,0,0:0:0:0:
320,192,57517,1,0,0:0:0:0:
64,192,57563,1,0,0:0:0:0:
448,192,57609,1,0,0:0:0:0:
192,192,57655,1,0,0:0:0:0:
320,192,57701,1,0,0:0:0:0:
448,192,57748,1,0,0:0:0:0:
192,192,57794,1,0,0:0:0:0:
320,192,57840,1,0,0:0:0:0:
64,192,57886,1,0,0:0:0:0:
448,192,57932,1,0,0:0:0:0:
320,192,57978,1,0,0:0:0:0:
192,192,58024,1,0,0:0:0:0:
448,192,58070,1,0,0:0:0:0:
64,192,58116,1,0,0:0:0:0:
320,192,58162,1,0,0:0:0:0:
192,192,58208,1,0,0:0:0:0:
448,192,58254,1,0,0:0:0:0:
320,192,58301,1,0,0:0:0:0:
64,192,58347,1,0,0:0:0:0:
448,192,58393,1,0,0:0:0:0:
192,192,58439,1,0,0:0:0:0:
320,192,58485,1,0,0:0:0:0:
448,192,58531,1,0,0:0:0:0:
64,192,58577,1,0,0:0:0:0:
192,192,58623,1,0,0:0:0:0:
320,192,58669,1,0,0:0:0:0:
448,192,58715,1,0,0:0:0:0:
192,192,58761,1,0,0:0:0:0:
320,192,58807,1,0,0:0:0:0:
64,192,58854,1,0,0:0:0:0:
192,192,58900,1,0,0:0:0:0:
448,192,58946,1,0,0:0:0:0:
320,192,58992,1,0,0:0:0:0:
64,192,59038,1,0,0:0:0:0:
448,192,59084,1,0,0:0:0:0:
192,192,59130,1,0,0:0:0:0:
64,192,59176,1,0,0:0:0:0:
320,192,59222,1,0,0:0:0:0:
448,192,59268,1,0,0:0:0:0:
64,192,59314,1,0,0:0:0:0:
192,192,59360,1,0,0:0:0:0:
320,192,59407,1,0,0:0:0:0:
448,192,59453,1,0,0:0:0:0:
64,192,59499,1,0,0:0:0:0:
192,192,59545,1,0,0:0:0:0:
320,192,59591,1,0,0:0:0:0:
448,192,59637,1,0,0:0:0:0:
64,192,59683,1,0,0:0:0:0:
448,192,59729,1,0,0:0:0:0:
320,192,59775,1,0,0:0:0:0:
192,192,59821,1,0,0:0:0:0:
64,192,59867,1,0,0:0:0:0:
448,192,59913,1,0,0:0:0:0:
64,192,59960,1,0,0:0:0:0:
192,192,60006,1,0,0:0:0:0:
320,192,60052,1,0,0:0:0:0:
448,192,60098,1,0,0:0:0:0:
192,192,60144,1,0,0:0:0:0:
320,192,60190,1,0,0:0:0:0:
64,192,60236,1,0,0:0:0:0:
192,192,60282,1,0,0:0:0:0:
320,192,60328,1,0,0:0:0:0:
448,192,60374,1,0,0:0:0:0:
192,192,60420,1,0,0:0:0:0:
64,192,60466,1,0,0:0:0:0:
320,192,60512,1,0,0:0:0:0:
192,192,60559,1,0,0:0:0:0:
448,192,60605,1,0,0:0:0:0:
320,192,60651,1,0,0:0:0:0:
192,192,60697,1,0,0:0:0:0:
64,192,60743,1,0,0:0:0:0:
448,192,60789,1,0,0:0:0:0:
192,192,60973,1,0,0:0:0:0:
448,192,60973,1,0,0:0:0:0:
320,192,61019,1,0,0:0:0:0:
448,192,61065,1,0,0:0:0:0:
64,192,61112,1,0,0:0:0:0:
320,192,61158,1,0,0:0:0:0:
448,192,61204,1,0,0:0:0:0:
192,192,61250,1,0,0:0:0:0:
320,192,61296,1,0,0:0:0:0:
448,192,61342,1,0,0:0:0:0:
64,192,61388,1,0,0:0:0:0:
320,192,61434,1,0,0:0:0:0:
192,192,61480,1,0,0:0:0:0:
448,192,61526,1,0,0:0:0:0:
320,192,61572,1,0,0:0:0:0:
192,192,61618,1,0,0:0:0:0:
64,192,61665,1,0,0:0:0:0:
320,192,61711,1,0,0:0:0:0:
192,192,61757,1,0,0:0:0:0:
64,192,61803,1,0,0:0:0:0:
448,192,61849,1,0,0:0:0:0:
192,192,61895,1,0,0:0:0:0:
320,192,61941,1,0,0:0:0:0:
448,192,61987,1,0,0:0:0:0:
64,192,62033,1,0,0:0:0:0:
320,192,62079,1,0,0:0:0:0:
448,192,62125,1,0,0:0:0:0:
192,192,62171,1,0,0:0:0:0:
64,192,62218,1,0,0:0:0:0:
320,192,62264,1,0,0:0:0:0:
192,192,62310,1,0,0:0:0:0:
64,192,62356,1,0,0:0:0:0:
448,192,62402,1,0,0:0:0:0:
320,192,62448,1,0,0:0:0:0:
192,192,62494,1,0,0:0:0:0:
64,192,62540,1,0,0:0:0:0:
448,192,62586,1,0,0:0:0:0:
192,192,62632,1,0,0:0:0:0:
320,192,62678,1,0,0:0:0:0:
448,192,62724,1,0,0:0:0:0:
64,192,62771,1,0,0:0:0:0:
192,192,62817,1,0,0:0:0:0:
320,192,62863,1,0,0:0:0:0:
64,192,62909,1,0,0:0:0:0:
448,192,62955,1,0,0:0:0:0:
192,192,63001,1,0,0:0:0:0:
320,192,63047,1,0,0:0:0:0:
448,192,63093,1,0,0:0:0:0:
64,192,63139,1,0,0:0:0:0:
192,192,63185,1,0,0:0:0:0:
320,192,63231,1,0,0:0:0:0:
448,192,63277,1,0,0:0:0:0:
64,192,63324,1,0,0:0:0:0:
320,192,63370,1,0,0:0:0:0:
192,192,63416,1,0,0:0:0:0:
64,192,63462,1,0,0:0:0:0:
448,192,63508,1,0,0:0:0:0:
192,192,63554,1,0,0:0:0:0:
320,192,63600,1,0,0:0:0:0:
448,192,63646,1,0,0:0:0:0:
64,192,63692,1,0,0:0:0:0:
320,192,63738,1,0,0:0:0:0:
192,192,63784,1,0,0:0:0:0:
64,192,63830,1,0,0:0:0:0:
448,192,63877,1,0,0:0:0:0:
192,192,63923,1,0,0:0:0:0:
320,192,63969,1,0,0:0:0:0:
192,192,64015,1,0,0:0:0:0:
320,192,64061,1,0,0:0:0:0:
64,192,64107,1,0,0:0:0:0:
448,192,64153,1,0,0:0:0:0:
320,192,64199,1,0,0:0:0:0:
192,192,64245,1,0,0:0:0:0:
448,192,64291,1,0,0:0:0:0:
64,192,64337,1,0,0:0:0:0:
320,192,64383,1,0,0:0:0:0:
448,192,64430,1,0,0:0:0:0:
192,192,64476,1,0,0:0:0:0:
320,192,64522,1,0,0:0:0:0:
64,192,64568,1,0,0:0:0:0:
192,192,64614,1,0,0:0:0:0:
448,192,64660,1,0,0:0:0:0:
64,192,64706,1,0,0:0:0:0:
192,192,64752,1,0,0:0:0:0:
320,192,64798,1,0,0:0:0:0:
448,192,64844,1,0,0:0:0:0:
192,192,64890,1,0,0:0:0:0:
320,192,64936,1,0,0:0:0:0:
64,192,64983,1,0,0:0:0:0:
448,192,65029,1,0,0:0:0:0:
192,192,65075,1,0,0:0:0:0:
320,192,65121,1,0,0:0:0:0:
448,192,65167,1,0,0:0:0:0:
64,192,65213,1,0,0:0:0:0:
192,192,65259,1,0,0:0:0:0:
64,192,65305,1,0,0:0:0:0:
192,192,65351,1,0,0:0:0:0:
448,192,65397,1,0,0:0:0:0:
320,192,65443,1,0,0:0:0:0:
64,192,65489,1,0,0:0:0:0:
192,192,65536,1,0,0:0:0:0:
448,192,65582,1,0,0:0:0:0:
320,192,65628,1,0,0:0:0:0:
192,192,65674,1,0,0:0:0:0:
448,192,65720,1,0,0:0:0:0:
320,192,65766,1,0,0:0:0:0:
64,192,65812,1,0,0:0:0:0:
192,192,65858,1,0,0:0:0:0:
320,192,65904,1,0,0:0:0:0:
64,192,65950,1,0,0:0:0:0:
448,192,65996,1,0,0:0:0:0:
192,192,66042,1,0,0:0:0:0:
320,192,66089,1,0,0:0:0:0:
64,192,66135,1,0,0:0:0:0:
448,192,66181,1,0,0:0:0:0:
192,192,66227,1,0,0:0:0:0:
320,192,66273,1,0,0:0:0:0:
448,192,66319,1,0,0:0:0:0:
192,192,66365,1,0,0:0:0:0:
64,192,66411,1,0,0:0:0:0:
320,192,66457,1,0,0:0:0:0:
448,192,66503,1,0,0:0:0:0:
192,192,66595,1,0,0:0:0:0:
64,192,66618,1,0,0:0:0:0:
320,192,66688,1,0,0:0:0:0:
448,192,66711,1,0,0:0:0:0:
192,192,66780,1,0,0:0:0:0:
64,192,66803,1,0,0:0:0:0:
320,192,66872,1,0,0:0:0:0:
448,192,66895,1,0,0:0:0:0:
192,192,66918,1,0,0:0:0:0:
64,192,66964,1,0,0:0:0:0:
320,192,67010,1,0,0:0:0:0:
192,192,67056,1,0,0:0:0:0:
64,192,67102,1,0,0:0:0:0:
448,192,67148,1,0,0:0:0:0:
192,192,67195,1,0,0:0:0:0:
320,192,67241,1,0,0:0:0:0:
448,192,67287,1,0,0:0:0:0:
64,192,67333,1,0,0:0:0:0:
192,192,67379,1,0,0:0:0:0:
448,192,67425,1,0,0:0:0:0:
64,192,67471,1,0,0:0:0:0:
320,192,67517,1,0,0:0:0:0:
192,192,67563,1,0,0:0:0:0:
448,192,67609,1,0,0:0:0:0:
320,192,67655,1,0,0:0:0:0:
192,192,67701,1,0,0:0:0:0:
64,192,67748,1,0,0:0:0:0:
320,192,67794,1,0,0:0:0:0:
448,192,67840,1,0,0:0:0:0:
192,192,67886,1,0,0:0:0:0:
320,192,67932,1,0,0:0:0:0:
64,192,67978,1,0,0:0:0:0:
448,192,68024,1,0,0:0:0:0:
192,192,68070,1,0,0:0:0:0:
320,192,68116,1,0,0:0:0:0:
448,192,68162,1,0,0:0:0:0:
64,192,68208,1,0,0:0:0:0:
320,192,68254,1,0,0:0:0:0:
192,192,68301,1,0,0:0:0:0:
448,192,68347,1,0,0:0:0:0:
64,192,68393,1,0,0:0:0:0:
320,192,68439,1,0,0:0:0:0:
192,192,68485,1,0,0:0:0:0:
64,192,68531,1,0,0:0:0:0:
448,192,68577,1,0,0:0:0:0:
320,192,68623,1,0,0:0:0:0:
192,192,68669,1,0,0:0:0:0:
64,192,68715,1,0,0:0:0:0:
320,192,68761,1,0,0:0:0:0:
192,192,68807,1,0,0:0:0:0:
448,192,68854,1,0,0:0:0:0:
320,192,68900,1,0,0:0:0:0:
64,192,68946,1,0,0:0:0:0:
192,192,68992,1,0,0:0:0:0:
320,192,69038,1,0,0:0:0:0:
448,192,69084,1,0,0:0:0:0:
192,192,69130,1,0,0:0:0:0:
320,192,69176,1,0,0:0:0:0:
64,192,69222,1,0,0:0:0:0:
192,192,69268,1,0,0:0:0:0:
320,192,69314,1,0,0:0:0:0:
448,192,69360,1,0,0:0:0:0:
64,192,69407,1,0,0:0:0:0:
320,192,69453,1,0,0:0:0:0:
192,192,69499,1,0,0:0:0:0:
64,192,69545,1,0,0:0:0:0:
448,192,69591,1,0,0:0:0:0:
192,192,69637,1,0,0:0:0:0:
64,192,69683,1,0,0:0:0:0:
320,192,69729,1,0,0:0:0:0:
192,192,69775,1,0,0:0:0:0:
64,192,69821,1,0,0:0:0:0:
320,192,69867,1,0,0:0:0:0:
448,192,69913,1,0,0:0:0:0:
192,192,69960,1,0,0:0:0:0:
320,192,70006,1,0,0:0:0:0:
64,192,70052,1,0,0:0:0:0:
192,192,70098,1,0,0:0:0:0:
320,192,70144,1,0,0:0:0:0:
448,192,70190,1,0,0:0:0:0:
192,192,70236,1,0,0:0:0:0:
64,192,70282,1,0,0:0:0:0:
320,192,70328,1,0,0:0:0:0:
192,192,70374,1,0,0:0:0:0:
448,192,70420,1,0,0:0:0:0:
320,192,70466,1,0,0:0:0:0:
64,192,70512,1,0,0:0:0:0:
448,192,70559,1,0,0:0:0:0:
192,192,70605,1,0,0:0:0:0:
320,192,70651,1,0,0:0:0:0:
64,192,70697,1,0,0:0:0:0:
448,192,70743,1,0,0:0:0:0:
320,192,70789,1,0,0:0:0:0:
192,192,70835,1,0,0:0:0:0:
448,192,70881,1,0,0:0:0:0:
64,192,70927,1,0,0:0:0:0:
320,192,70973,1,0,0:0:0:0:
192,192,71019,1,0,0:0:0:0:
64,192,71065,1,0,0:0:0:0:
448,192,71112,1,0,0:0:0:0:
320,192,71158,1,0,0:0:0:0:
192,192,71204,1,0,0:0:0:0:
64,192,71250,1,0,0:0:0:0:
448,192,71296,1,0,0:0:0:0:
320,192,71342,1,0,0:0:0:0:
192,192,71388,1,0,0:0:0:0:
64,192,71434,1,0,0:0:0:0:
448,192,71480,1,0,0:0:0:0:
64,192,71526,1,0,0:0:0:0:
192,192,71572,1,0,0:0:0:0:
320,192,71618,1,0,0:0:0:0:
64,192,71665,1,0,0:0:0:0:
448,192,71711,1,0,0:0:0:0:
320,192,71757,1,0,0:0:0:0:
192,192,71803,1,0,0:0:0:0:
320,192,71849,1,0,0:0:0:0:
64,192,71895,1,0,0:0:0:0:
192,192,71941,1,0,0:0:0:0:
320,192,71987,1,0,0:0:0:0:
448,192,72033,1,0,0:0:0:0:
64,192,72079,1,0,0:0:0:0:
192,192,72125,1,0,0:0:0:0:
320,192,72171,1,0,0:0:0:0:
448,192,72218,1,0,0:0:0:0:
320,192,72264,1,0,0:0:0:0:
192,192,72310,1,0,0:0:0:0:
64,192,72356,1,0,0:0:0:0:
448,192,72402,1,0,0:0:0:0:
320,192,72425,1,0,0:0:0:0:
64,192,72494,1,0,0:0:0:0:
192,192,72517,1,0,0:0:0:0:
448,192,72586,1,0,0:0:0:0:
320,192,72609,1,0,0:0:0:0:
64,192,72678,1,0,0:0:0:0:
192,192,72701,1,0,0:0:0:0:
448,192,72771,1,0,0:0:0:0:
320,192,72817,1,0,0:0:0:0:
64,192,72863,1,0,0:0:0:0:
448,192,72909,1,0,0:0:0:0:
192,192,72955,1,0,0:0:0:0:
320,192,73001,1,0,0:0:0:0:
448,192,73047,1,0,0:0:0:0:
64,192,73093,1,0,0:0:0:0:
192,192,73139,1,0,0:0:0:0:
320,192,73185,1,0,0:0:0:0:
64,192,73231,1,0,0:0:0:0:
448,192,73277,1,0,0:0:0:0:
192,192,73324,1,0,0:0:0:0:
320,192,73370,1,0,0:0:0:0:
64,192,73416,1,0,0:0:0:0:
448,192,73462,1,0,0:0:0:0:
320,192,73508,1,0,0:0:0:0:
192,192,73554,1,0,0:0:0:0:
64,192,73600,1,0,0:0:0:0:
448,192,73646,1,0,0:0:0:0:
192,192,73692,1,0,0:0:0:0:
320,192,73738,1,0,0:0:0:0:
64,192,73784,1,0,0:0:0:0:
192,192,73830,1,0,0:0:0:0:
448,192,73877,1,0,0:0:0:0:
320,192,73923,1,0,0:0:0:0:
64,192,73969,1,0,0:0:0:0:
448,192,74015,1,0,0:0:0:0:
320,192,74061,1,0,0:0:0:0:
192,192,74107,1,0,0:0:0:0:
64,192,74153,1,0,0:0:0:0:
448,192,74199,1,0,0:0:0:0:
192,192,74245,1,0,0:0:0:0:
320,192,74291,1,0,0:0:0:0:
448,192,74337,1,0,0:0:0:0:
64,192,74383,1,0,0:0:0:0:
192,192,74430,1,0,0:0:0:0:
320,192,74476,1,0,0:0:0:0:
64,192,74522,1,0,0:0:0:0:
192,192,74568,1,0,0:0:0:0:
448,192,74614,1,0,0:0:0:0:
64,192,74660,1,0,0:0:0:0:
320,192,74706,1,0,0:0:0:0:
192,192,74752,1,0,0:0:0:0:
64,192,74798,1,0,0:0:0:0:
448,192,74844,1,0,0:0:0:0:
320,192,74890,1,0,0:0:0:0:
192,192,74936,1,0,0:0:0:0:
448,192,74983,1,0,0:0:0:0:
64,192,75029,1,0,0:0:0:0:
320,192,75075,1,0,0:0:0:0:
448,192,75121,1,0,0:0:0:0:
192,192,75167,1,0,0:0:0:0:
64,192,75213,1,0,0:0:0:0:
320,192,75259,1,0,0:0:0:0:
448,192,75305,1,0,0:0:0:0:
192,192,75351,1,0,0:0:0:0:
320,192,75397,1,0,0:0:0:0:
448,192,75443,1,0,0:0:0:0:
64,192,75489,1,0,0:0:0:0:
192,192,75536,1,0,0:0:0:0:
320,192,75582,1,0,0:0:0:0:
64,192,75628,1,0,0:0:0:0:
448,192,75674,1,0,0:0:0:0:
192,192,75720,1,0,0:0:0:0:
320,192,75766,1,0,0:0:0:0:
64,192,75812,1,0,0:0:0:0:
448,192,75858,1,0,0:0:0:0:
192,192,75904,1,0,0:0:0:0:
64,192,75950,1,0,0:0:0:0:
448,192,75996,1,0,0:0:0:0:
192,192,76042,1,0,0:0:0:0:
320,192,76089,1,0,0:0:0:0:
64,192,76135,1,0,0:0:0:0:
192,192,76181,1,0,0:0:0:0:
320,192,76227,1,0,0:0:0:0:
448,192,76273,1,0,0:0:0:0:
192,192,76319,1,0,0:0:0:0:
64,192,76365,1,0,0:0:0:0:
320,192,76411,1,0,0:0:0:0:
192,192,76457,1,0,0:0:0:0:
448,192,76503,1,0,0:0:0:0:
320,192,76549,1,0,0:0:0:0:
64,192,76595,1,0,0:0:0:0:
448,192,76642,1,0,0:0:0:0:
320,192,76688,1,0,0:0:0:0:
192,192,76734,1,0,0:0:0:0:
320,192,76780,1,0,0:0:0:0:
192,192,76826,1,0,0:0:0:0:
64,192,76872,1,0,0:0:0:0:
448,192,76918,1,0,0:0:0:0:
320,192,76964,1,0,0:0:0:0:
64,192,77010,1,0,0:0:0:0:
192,192,77056,1,0,0:0:0:0:
320,192,77102,1,0,0:0:0:0:
448,192,77148,1,0,0:0:0:0:
64,192,77195,1,0,0:0:0:0:
192,192,77241,1,0,0:0:0:0:
320,192,77287,1,0,0:0:0:0:
448,192,77333,1,0,0:0:0:0:
64,192,77379,1,0,0:0:0:0:
192,192,77425,1,0,0:0:0:0:
320,192,77471,1,0,0:0:0:0:
64,192,77517,1,0,0:0:0:0:
192,192,77563,1,0,0:0:0:0:
448,192,77609,1,0,0:0:0:0:
320,192,77655,1,0,0:0:0:0:
192,192,77701,1,0,0:0:0:0:
448,192,77748,1,0,0:0:0:0:
320,192,77794,1,0,0:0:0:0:
192,192,77840,1,0,0:0:0:0:
64,192,77886,1,0,0:0:0:0:
448,192,77932,1,0,0:0:0:0:
64,192,77978,1,0,0:0:0:0:
192,192,78024,1,0,0:0:0:0:
320,192,78070,1,0,0:0:0:0:
448,192,78116,1,0,0:0:0:0:
64,192,78162,1,0,0:0:0:0:
192,192,78208,1,0,0:0:0:0:
320,192,78254,1,0,0:0:0:0:
192,192,78301,1,0,0:0:0:0:
64,192,78324,1,0,0:0:0:0:
320,192,78393,1,0,0:0:0:0:
448,192,78416,1,0,0:0:0:0:
192,192,78485,1,0,0:0:0:0:
64,192,78508,1,0,0:0:0:0:
320,192,78577,1,0,0:0:0:0:
448,192,78600,1,0,0:0:0:0:
192,192,78669,1,0,0:0:0:0:
64,192,78715,1,0,0:0:0:0:
320,192,78761,1,0,0:0:0:0:
192,192,78807,1,0,0:0:0:0:
64,192,78854,1,0,0:0:0:0:
448,192,78900,1,0,0:0:0:0:
192,192,78946,1,0,0:0:0:0:
320,192,78992,1,0,0:0:0:0:
448,192,79038,1,0,0:0:0:0:
64,192,79084,1,0,0:0:0:0:
192,192,79130,1,0,0:0:0:0:
448,192,79176,1,0,0:0:0:0:
64,192,79222,1,0,0:0:0:0:
320,192,79268,1,0,0:0:0:0:
192,192,79314,1,0,0:0:0:0:
448,192,79360,1,0,0:0:0:0:
320,192,79407,1,0,0:0:0:0:
192,192,79453,1,0,0:0:0:0:
64,192,79499,1,0,0:0:0:0:
320,192,79545,1,0,0:0:0:0:
448,192,79591,1,0,0:0:0:0:
192,192,79637,1,0,0:0:0:0:
320,192,79683,1,0,0:0:0:0:
64,192,79729,1,0,0:0:0:0:
448,192,79775,1,0,0:0:0:0:
192,192,79821,1,0,0:0:0:0:
320,192,79867,1,0,0:0:0:0:
448,192,79913,1,0,0:0:0:0:
64,192,79960,1,0,0:0:0:0:
320,192,80006,1,0,0:0:0:0:
192,192,80052,1,0,0:0:0:0:
448,192,80098,1,0,0:0:0:0:
64,192,80144,1,0,0:0:0:0:
320,192,80190,1,0,0:0:0:0:
192,192,80236,1,0,0:0:0:0:
64,192,80282,1,0,0:0:0:0:
448,192,80328,1,0,0:0:0:0:
320,192,80374,1,0,0:0:0:0:
192,192,80420,1,0,0:0:0:0:
64,192,80466,1,0,0:0:0:0:
320,192,80512,1,0,0:0:0:0:
192,192,80559,1,0,0:0:0:0:
448,192,80605,1,0,0:0:0:0:
320,192,80651,1,0,0:0:0:0:
64,192,80697,1,0,0:0:0:0:
192,192,80743,1,0,0:0:0:0:
320,192,80789,1,0,0:0:0:0:
448,192,80835,1,0,0:0:0:0:
192,192,80881,1,0,0:0:0:0:
320,192,80927,1,0,0:0:0:0:
64,192,80973,1,0,0:0:0:0:
192,192,81019,1,0,0:0:0:0:
320,192,81065,1,0,0:0:0:0:
448,192,81112,1,0,0:0:0:0:
64,192,81158,1,0,0:0:0:0:
320,192,81204,1,0,0:0:0:0:
192,192,81250,1,0,0:0:0:0:
64,192,81296,1,0,0:0:0:0:
448,192,81342,1,0,0:0:0:0:
192,192,81388,1,0,0:0:0:0:
64,192,81434,1,0,0:0:0:0:
320,192,81480,1,0,0:0:0:0:
192,192,81526,1,0,0:0:0:0:
64,192,81572,1,0,0:0:0:0:
320,192,81618,1,0,0:0:0:0:
448,192,81665,1,0,0:0:0:0:
192,192,81711,1,0,0:0:0:0:
320,192,81757,1,0,0:0:0:0:
64,192,81803,1,0,0:0:0:0:
192,192,81849,1,0,0:0:0:0:
320,192,81895,1,0,0:0:0:0:
448,192,81941,1,0,0:0:0:0:
192,192,81987,1,0,0:0:0:0:
64,192,82033,1,0,0:0:0:0:
320,192,82079,1,0,0:0:0:0:
192,192,82125,1,0,0:0:0:0:
448,192,82171,1,0,0:0:0:0:
320,192,82218,1,0,0:0:0:0:
64,192,82264,1,0,0:0:0:0:
448,192,82310,1,0,0:0:0:0:
192,192,82356,1,0,0:0:0:0:
320,192,82402,1,0,0:0:0:0:
64,192,82448,1,0,0:0:0:0:
448,192,82494,1,0,0:0:0:0:
320,192,82540,1,0,0:0:0:0:
192,192,82586,1,0,0:0:0:0:
448,192,82632,1,0,0:0:0:0:
64,192,82678,1,0,0:0:0:0:
320,192,82724,1,0,0:0:0:0:
192,192,82771,1,0,0:0:0:0:
64,192,82817,1,0,0:0:0:0:
448,192,82863,1,0,0:0:0:0:
320,192,82909,1,0,0:0:0:0:
192,192,82955,1,0,0:0:0:0:
64,192,83001,1,0,0:0:0:0:
448,192,83047,1,0,0:0:0:0:
320,192,83093,1,0,0:0:0:0:
192,192,83139,1,0,0:0:0:0:
64,192,83185,1,0,0:0:0:0:
448,192,83231,1,0,0:0:0:0:
64,192,83277,1,0,0:0:0:0:
192,192,83324,1,0,0:0:0:0:
320,192,83370,1,0,0:0:0:0:
64,192,83416,1,0,0:0:0:0:
448,192,83462,1,0,0:0:0:0:
320,192,83508,1,0,0:0:0:0:
192,192,83554,1,0,0:0:0:0:
320,192,83600,1,0,0:0:0:0:
64,192,83646,1,0,0:0:0:0:
192,192,83692,1,0,0:0:0:0:
320,192,83738,5,0,0:0:0:0:
448,192,83784,1,0,0:0:0:0:
64,192,83830,1,0,0:0:0:0:
192,192,83877,1,0,0:0:0:0:
320,192,83923,1,0,0:0:0:0:
448,192,83969,1,0,0:0:0:0:
320,192,84015,1,0,0:0:0:0:
192,192,84061,1,0,0:0:0:0:
64,192,84107,1,0,0:0:0:0:
448,192,84153,1,0,0:0:0:0:
320,192,84199,1,0,0:0:0:0:
192,192,84383,1,0,0:0:0:0:
64,192,84476,1,0,0:0:0:0:
320,192,84568,1,0,0:0:0:0:
320,192,84936,5,0,0:0:0:0:
320,192,85121,1,0,0:0:0:0:
320,192,85305,1,0,0:0:0:0:
320,192,85489,1,0,0:0:0:0:
320,192,85674,1,0,0:0:0:0:
192,192,85766,1,0,0:0:0:0:
320,192,85858,1,0,0:0:0:0:
192,192,85950,1,0,0:0:0:0:
64,192,86042,1,0,0:0:0:0:
448,192,86042,1,0,0:0:0:0:
192,192,86104,1,0,0:0:0:0:
320,192,86165,1,0,0:0:0:0:
64,192,86227,1,0,0:0:0:0:
192,192,86227,1,0,0:0:0:0:
448,192,86288,1,0,0:0:0:0:
320,192,86288,1,0,0:0:0:0:
64,192,86350,1,0,0:0:0:0:
192,192,86411,1,0,0:0:0:0:
448,192,86473,1,0,0:0:0:0:
320,192,86534,1,0,0:0:0:0:
192,192,86534,1,0,0:0:0:0:
448,192,86595,1,0,0:0:0:0:
64,192,86595,1,0,0:0:0:0:
192,192,86657,1,0,0:0:0:0:
320,192,86718,1,0,0:0:0:0:
64,192,86780,1,0,0:0:0:0:
448,192,86780,1,0,0:0:0:0:
320,192,86841,1,0,0:0:0:0:
192,192,86841,1,0,0:0:0:0:
64,192,86903,1,0,0:0:0:0:
448,192,86964,1,0,0:0:0:0:
192,192,87026,1,0,0:0:0:0:
64,192,87087,1,0,0:0:0:0:
320,192,87148,1,0,0:0:0:0:
448,192,87148,1,0,0:0:0:0:
192,192,87210,1,0,0:0:0:0:
320,192,87271,1,0,0:0:0:0:
192,192,87333,1,0,0:0:0:0:
64,192,87333,1,0,0:0:0:0:
320,192,87394,1,0,0:0:0:0:
192,192,87456,1,0,0:0:0:0:
448,192,87517,1,0,0:0:0:0:
320,192,87517,1,0,0:0:0:0:
64,192,87579,1,0,0:0:0:0:
192,192,87640,1,0,0:0:0:0:
448,192,87701,1,0,0:0:0:0:
320,192,87701,1,0,0:0:0:0:
64,192,87763,1,0,0:0:0:0:
192,192,87763,1,0,0:0:0:0:
320,192,87824,1,0,0:0:0:0:
448,192,87886,1,0,0:0:0:0:
64,192,87947,1,0,0:0:0:0:
192,192,88009,1,0,0:0:0:0:
320,192,88009,1,0,0:0:0:0:
448,192,88070,1,0,0:0:0:0:
64,192,88070,1,0,0:0:0:0:
320,192,88132,1,0,0:0:0:0:
192,192,88193,1,0,0:0:0:0:
320,192,88254,1,0,0:0:0:0:
64,192,88254,1,0,0:0:0:0:
448,192,88316,1,0,0:0:0:0:
192,192,88316,1,0,0:0:0:0:
320,192,88377,1,0,0:0:0:0:
64,192,88439,1,0,0:0:0:0:
192,192,88500,1,0,0:0:0:0:
320,192,88562,1,0,0:0:0:0:
192,192,88623,1,0,0:0:0:0:
64,192,88623,1,0,0:0:0:0:
448,192,88685,1,0,0:0:0:0:
64,192,88746,1,0,0:0:0:0:
320,192,88807,1,0,0:0:0:0:
448,192,88807,1,0,0:0:0:0:
64,192,88869,1,0,0:0:0:0:
448,192,88930,1,0,0:0:0:0:
64,192,88992,1,0,0:0:0:0:
192,192,88992,1,0,0:0:0:0:
320,192,89053,1,0,0:0:0:0:
192,192,89115,1,0,0:0:0:0:
448,192,89176,1,0,0:0:0:0:
64,192,89176,1,0,0:0:0:0:
320,192,89238,1,0,0:0:0:0:
192,192,89238,1,0,0:0:0:0:
448,192,89299,1,0,0:0:0:0:
64,192,89360,1,0,0:0:0:0:
192,192,89422,1,0,0:0:0:0:
320,192,89483,1,0,0:0:0:0:
64,192,89483,1,0,0:0:0:0:
192,192,89545,1,0,0:0:0:0:
448,192,89545,1,0,0:0:0:0:
320,192,89606,1,0,0:0:0:0:
64,192,89668,1,0,0:0:0:0:
320,192,89729,1,0,0:0:0:0:
448,192,89729,1,0,0:0:0:0:
192,192,89791,1,0,0:0:0:0:
64,192,89791,1,0,0:0:0:0:
448,192,89852,1,0,0:0:0:0:
320,192,89913,1,0,0:0:0:0:
64,192,89975,1,0,0:0:0:0:
192,192,90036,1,0,0:0:0:0:
320,192,90098,1,0,0:0:0:0:
448,192,90098,1,0,0:0:0:0:
64,192,90159,1,0,0:0:0:0:
320,192,90221,1,0,0:0:0:0:
192,192,90282,1,0,0:0:0:0:
64,192,90282,1,0,0:0:0:0:
448,192,90344,1,0,0:0:0:0:
192,192,90405,1,0,0:0:0:0:
320,192,90466,1,0,0:0:0:0:
448,192,90466,1,0,0:0:0:0:
64,192,90528,1,0,0:0:0:0:
192,192,90589,1,0,0:0:0:0:
448,192,90651,1,0,0:0:0:0:
64,192,90651,1,0,0:0:0:0:
320,192,90712,1,0,0:0:0:0:
192,192,90712,1,0,0:0:0:0:
448,192,90774,1,0,0:0:0:0:
64,192,90835,1,0,0:0:0:0:
192,192,90897,1,0,0:0:0:0:
448,192,90958,1,0,0:0:0:0:
320,192,90958,1,0,0:0:0:0:
192,192,91019,1,0,0:0:0:0:
64,192,91019,1,0,0:0:0:0:
448,192,91081,1,0,0:0:0:0:
320,192,91081,1,0,0:0:0:0:
192,192,91142,1,0,0:0:0:0:
64,192,91142,1,0,0:0:0:0:
320,192,91204,1,0,0:0:0:0:
448,192,91265,1,0,0:0:0:0:
64,192,91327,1,0,0:0:0:0:
320,192,91388,1,0,0:0:0:0:
448,192,91388,1,0,0:0:0:0:
192,192,91450,1,0,0:0:0:0:
64,192,91450,1,0,0:0:0:0:
320,192,91511,1,0,0:0:0:0:
448,192,91511,1,0,0:0:0:0:
192,192,91572,1,0,0:0:0:0:
64,192,91572,1,0,0:0:0:0:
320,192,91634,1,0,0:0:0:0:
448,192,91634,1,0,0:0:0:0:
64,192,91695,1,0,0:0:0:0:
192,192,91695,1,0,0:0:0:0:
320,192,91757,1,0,0:0:0:0:
448,192,91757,1,0,0:0:0:0:
192,192,91818,1,0,0:0:0:0:
64,192,91818,1,0,0:0:0:0:
448,192,91880,1,0,0:0:0:0:
320,192,91880,1,0,0:0:0:0:
192,192,91941,1,0,0:0:0:0:
64,192,91941,1,0,0:0:0:0:
320,192,92003,1,0,0:0:0:0:
192,192,92064,1,0,0:0:0:0:
448,192,92125,1,0,0:0:0:0:
64,192,92125,1,0,0:0:0:0:
192,192,92187,1,0,0:0:0:0:
320,192,92187,1,0,0:0:0:0:
64,192,92248,1,0,0:0:0:0:
448,192,92310,1,0,0:0:0:0:
192,192,92371,1,0,0:0:0:0:
320,192,92433,1,0,0:0:0:0:
64,192,92433,1,0,0:0:0:0:
448,192,92494,1,0,0:0:0:0:
192,192,92494,1,0,0:0:0:0:
320,192,92556,1,0,0:0:0:0:
64,192,92617,1,0,0:0:0:0:
448,192,92678,1,0,0:0:0:0:
320,192,92678,1,0,0:0:0:0:
192,192,92740,1,0,0:0:0:0:
64,192,92740,1,0,0:0:0:0:
448,192,92801,1,0,0:0:0:0:
192,192,92863,1,0,0:0:0:0:
64,192,92924,1,0,0:0:0:0:
448,192,92986,1,0,0:0:0:0:
192,192,93047,1,0,0:0:0:0:
64,192,93047,1,0,0:0:0:0:
320,192,93109,1,0,0:0:0:0:
192,192,93170,1,0,0:0:0:0:
448,192,93231,1,0,0:0:0:0:
320,192,93231,1,0,0:0:0:0:
192,192,93293,1,0,0:0:0:0:
320,192,93354,1,0,0:0:0:0:
192,192,93416,1,0,0:0:0:0:
64,192,93416,1,0,0:0:0:0:
448,192,93477,1,0,0:0:0:0:
192,192,93539,1,0,0:0:0:0:
64,192,93600,1,0,0:0:0:0:
320,192,93600,1,0,0:0:0:0:
192,192,93662,1,0,0:0:0:0:
448,192,93662,1,0,0:0:0:0:
320,192,93723,1,0,0:0:0:0:
448,192,93784,1,0,0:0:0:0:
64,192,93846,1,0,0:0:0:0:
448,192,93907,1,0,0:0:0:0:
320,192,93907,1,0,0:0:0:0:
192,192,93969,1,0,0:0:0:0:
64,192,93969,1,0,0:0:0:0:
320,192,94030,1,0,0:0:0:0:
448,192,94092,1,0,0:0:0:0:
320,192,94153,1,0,0:0:0:0:
192,192,94153,1,0,0:0:0:0:
448,192,94214,1,0,0:0:0:0:
64,192,94214,1,0,0:0:0:0:
192,192,94276,1,0,0:0:0:0:
320,192,94337,1,0,0:0:0:0:
64,192,94399,1,0,0:0:0:0:
448,192,94460,1,0,0:0:0:0:
192,192,94522,1,0,0:0:0:0:
64,192,94522,1,0,0:0:0:0:
320,192,94583,1,0,0:0:0:0:
192,192,94645,1,0,0:0:0:0:
448,192,94706,1,0,0:0:0:0:
64,192,94706,1,0,0:0:0:0:
320,192,94767,1,0,0:0:0:0:
192,192,94829,1,0,0:0:0:0:
448,192,94890,1,0,0:0:0:0:
320,192,94890,1,0,0:0:0:0:
64,192,94952,1,0,0:0:0:0:
192,192,95013,1,0,0:0:0:0:
448,192,95075,1,0,0:0:0:0:
320,192,95075,1,0,0:0:0:0:
64,192,95136,1,0,0:0:0:0:
192,192,95136,1,0,0:0:0:0:
320,192,95198,1,0,0:0:0:0:
448,192,95259,1,0,0:0:0:0:
64,192,95320,1,0,0:0:0:0:
320,192,95382,1,0,0:0:0:0:
192,192,95382,1,0,0:0:0:0:
448,192,95443,1,0,0:0:0:0:
64,192,95443,1,0,0:0:0:0:
320,192,95505,1,0,0:0:0:0:
192,192,95566,1,0,0:0:0:0:
64,192,95628,1,0,0:0:0:0:
320,192,95628,1,0,0:0:0:0:
448,192,95689,1,0,0:0:0:0:
192,192,95689,1,0,0:0:0:0:
64,192,95751,1,0,0:0:0:0:
320,192,95812,1,0,0:0:0:0:
192,192,95873,1,0,0:0:0:0:
448,192,95935,1,0,0:0:0:0:
192,192,95996,1,0,0:0:0:0:
64,192,95996,1,0,0:0:0:0:
320,192,96058,1,0,0:0:0:0:
64,192,96119,1,0,0:0:0:0:
448,192,96181,1,0,0:0:0:0:
320,192,96181,1,0,0:0:0:0:
192,192,96242,1,0,0:0:0:0:
448,192,96304,1,0,0:0:0:0:
64,192,96365,1,0,0:0:0:0:
192,192,96365,1,0,0:0:0:0:
320,192,96426,1,0,0:0:0:0:
448,192,96488,1,0,0:0:0:0:
192,192,96549,1,0,0:0:0:0:
64,192,96549,1,0,0:0:0:0:
320,192,96611,1,0,0:0:0:0:
448,192,96611,1,0,0:0:0:0:
64,192,96672,1,0,0:0:0:0:
192,192,96734,1,0,0:0:0:0:
448,192,96795,1,0,0:0:0:0:
64,192,96857,1,0,0:0:0:0:
192,192,96857,1,0,0:0:0:0:
320,192,96918,1,0,0:0:0:0:
448,192,96918,1,0,0:0:0:0:
64,192,96979,1,0,0:0:0:0:
192,192,97041,1,0,0:0:0:0:
448,192,97102,1,0,0:0:0:0:
320,192,97102,1,0,0:0:0:0:
192,192,97748,1,0,0:0:0:0:
64,192,97840,1,0,0:0:0:0:
448,192,97840,1,0,0:0:0:0:
192,192,97886,1,0,0:0:0:0:
320,192,97932,1,0,0:0:0:0:
64,192,97978,1,0,0:0:0:0:
448,192,98024,1,0,0:0:0:0:
192,192,98070,1,0,0:0:0:0:
320,192,98116,1,0,0:0:0:0:
448,192,98162,1,0,0:0:0:0:
64,192,98208,1,0,0:0:0:0:
320,192,98254,1,0,0:0:0:0:
192,192,98301,1,0,0:0:0:0:
448,192,98347,1,0,0:0:0:0:
192,192,98393,1,0,0:0:0:0:
64,192,98439,1,0,0:0:0:0:
448,192,98485,1,0,0:0:0:0:
320,192,98531,1,0,0:0:0:0:
192,192,98577,1,0,0:0:0:0:
64,192,98623,1,0,0:0:0:0:
448,192,98669,1,0,0:0:0:0:
320,192,98715,1,0,0:0:0:0:
64,192,98761,1,0,0:0:0:0:
448,192,98807,1,0,0:0:0:0:
192,192,98854,1,0,0:0:0:0:
64,192,98900,1,0,0:0:0:0:
448,192,98946,1,0,0:0:0:0:
320,192,98992,1,0,0:0:0:0:
192,192,99038,1,0,0:0:0:0:
448,192,99084,1,0,0:0:0:0:
64,192,99130,1,0,0:0:0:0:
320,192,99176,1,0,0:0:0:0:
192,192,99222,1,0,0:0:0:0:
448,192,99268,1,0,0:0:0:0:
64,192,99314,1,0,0:0:0:0:
192,192,99360,1,0,0:0:0:0:
448,192,99407,1,0,0:0:0:0:
64,192,99453,1,0,0:0:0:0:
320,192,99499,1,0,0:0:0:0:
192,192,99545,1,0,0:0:0:0:
64,192,99591,1,0,0:0:0:0:
448,192,99637,1,0,0:0:0:0:
192,192,99683,1,0,0:0:0:0:
320,192,99729,1,0,0:0:0:0:
64,192,99775,1,0,0:0:0:0:
448,192,99821,1,0,0:0:0:0:
192,192,99867,1,0,0:0:0:0:
64,192,99913,1,0,0:0:0:0:
320,192,99960,1,0,0:0:0:0:
448,192,100006,1,0,0:0:0:0:
192,192,100052,1,0,0:0:0:0:
64,192,100098,1,0,0:0:0:0:
320,192,100144,1,0,0:0:0:0:
192,192,100190,1,0,0:0:0:0:
448,192,100236,1,0,0:0:0:0:
64,192,100282,1,0,0:0:0:0:
192,192,100328,1,0,0:0:0:0:
448,192,100374,1,0,0:0:0:0:
64,192,100420,1,0,0:0:0:0:
320,192,100466,1,0,0:0:0:0:
192,192,100512,1,0,0:0:0:0:
64,192,100559,1,0,0:0:0:0:
448,192,100605,1,0,0:0:0:0:
192,192,100651,1,0,0:0:0:0:
64,192,100697,1,0,0:0:0:0:
320,192,100743,1,0,0:0:0:0:
448,192,100789,1,0,0:0:0:0:
64,192,100835,1,0,0:0:0:0:
192,192,100881,1,0,0:0:0:0:
320,192,100927,1,0,0:0:0:0:
448,192,100973,1,0,0:0:0:0:
192,192,101019,1,0,0:0:0:0:
64,192,101065,1,0,0:0:0:0:
320,192,101112,1,0,0:0:0:0:
448,192,101158,1,0,0:0:0:0:
64,192,101204,1,0,0:0:0:0:
192,192,101250,1,0,0:0:0:0:
320,192,101296,1,0,0:0:0:0:
448,192,101342,1,0,0:0:0:0:
64,192,101388,1,0,0:0:0:0:
320,192,101434,1,0,0:0:0:0:
192,192,101480,1,0,0:0:0:0:
64,192,101526,1,0,0:0:0:0:
448,192,101572,1,0,0:0:0:0:
192,192,101618,1,0,0:0:0:0:
320,192,101665,1,0,0:0:0:0:
64,192,101711,1,0,0:0:0:0:
448,192,101757,1,0,0:0:0:0:
320,192,101803,1,0,0:0:0:0:
192,192,101849,1,0,0:0:0:0:
448,192,101895,1,0,0:0:0:0:
64,192,101941,1,0,0:0:0:0:
320,192,101987,1,0,0:0:0:0:
192,192,102033,1,0,0:0:0:0:
448,192,102079,1,0,0:0:0:0:
320,192,102125,1,0,0:0:0:0:
192,192,102171,1,0,0:0:0:0:
64,192,102218,1,0,0:0:0:0:
448,192,102264,1,0,0:0:0:0:
320,192,102310,1,0,0:0:0:0:
192,192,102356,1,0,0:0:0:0:
64,192,102402,1,0,0:0:0:0:
192,192,102448,1,0,0:0:0:0:
320,192,102494,1,0,0:0:0:0:
448,192,102540,1,0,0:0:0:0:
64,192,102586,1,0,0:0:0:0:
192,192,102632,1,0,0:0:0:0:
320,192,102678,1,0,0:0:0:0:
448,192,102724,1,0,0:0:0:0:
64,192,102771,1,0,0:0:0:0:
192,192,102817,1,0,0:0:0:0:
64,192,102863,1,0,0:0:0:0:
448,192,102909,1,0,0:0:0:0:
320,192,102955,1,0,0:0:0:0:
192,192,103001,1,0,0:0:0:0:
64,192,103047,1,0,0:0:0:0:
448,192,103093,1,0,0:0:0:0:
320,192,103139,1,0,0:0:0:0:
192,192,103185,1,0,0:0:0:0:
320,192,103231,1,0,0:0:0:0:
448,192,103277,1,0,0:0:0:0:
64,192,103324,1,0,0:0:0:0:
192,192,103370,1,0,0:0:0:0:
320,192,103416,1,0,0:0:0:0:
448,192,103462,1,0,0:0:0:0:
320,192,103508,1,0,0:0:0:0:
64,192,103554,1,0,0:0:0:0:
192,192,103600,1,0,0:0:0:0:
448,192,103646,1,0,0:0:0:0:
320,192,103692,1,0,0:0:0:0:
64,192,103738,1,0,0:0:0:0:
192,192,103738,1,0,0:0:0:0:
448,192,103784,1,0,0:0:0:0:
192,192,103830,1,0,0:0:0:0:
320,192,103877,1,0,0:0:0:0:
64,192,103923,1,0,0:0:0:0:
192,192,103969,1,0,0:0:0:0:
320,192,104015,1,0,0:0:0:0:
448,192,104061,1,0,0:0:0:0:
64,192,104107,1,0,0:0:0:0:
320,192,104153,1,0,0:0:0:0:
192,192,104199,1,0,0:0:0:0:
448,192,104245,1,0,0:0:0:0:
64,192,104291,1,0,0:0:0:0:
192,192,104337,1,0,0:0:0:0:
448,192,104383,1,0,0:0:0:0:
64,192,104430,1,0,0:0:0:0:
320,192,104476,1,0,0:0:0:0:
192,192,104522,1,0,0:0:0:0:
64,192,104568,1,0,0:0:0:0:
448,192,104614,1,0,0:0:0:0:
320,192,104660,1,0,0:0:0:0:
448,192,104706,1,0,0:0:0:0:
64,192,104752,1,0,0:0:0:0:
320,192,104798,1,0,0:0:0:0:
192,192,104844,1,0,0:0:0:0:
448,192,104890,1,0,0:0:0:0:
64,192,104936,1,0,0:0:0:0:
320,192,104983,1,0,0:0:0:0:
192,192,105029,1,0,0:0:0:0:
64,192,105075,1,0,0:0:0:0:
448,192,105121,1,0,0:0:0:0:
192,192,105167,1,0,0:0:0:0:
320,192,105213,1,0,0:0:0:0:
64,192,105259,1,0,0:0:0:0:
448,192,105305,1,0,0:0:0:0:
192,192,105351,1,0,0:0:0:0:
320,192,105397,1,0,0:0:0:0:
448,192,105443,1,0,0:0:0:0:
64,192,105489,1,0,0:0:0:0:
320,192,105536,1,0,0:0:0:0:
192,192,105582,1,0,0:0:0:0:
448,192,105628,1,0,0:0:0:0:
320,192,105674,1,0,0:0:0:0:
192,192,105720,1,0,0:0:0:0:
448,192,105766,1,0,0:0:0:0:
64,192,105812,1,0,0:0:0:0:
320,192,105858,1,0,0:0:0:0:
448,192,105904,1,0,0:0:0:0:
192,192,105950,1,0,0:0:0:0:
320,192,105996,1,0,0:0:0:0:
64,192,106042,1,0,0:0:0:0:
192,192,106089,1,0,0:0:0:0:
448,192,106135,1,0,0:0:0:0:
320,192,106181,1,0,0:0:0:0:
64,192,106227,1,0,0:0:0:0:
448,192,106273,1,0,0:0:0:0:
192,192,106319,1,0,0:0:0:0:
320,192,106365,1,0,0:0:0:0:
448,192,106411,1,0,0:0:0:0:
192,192,106457,1,0,0:0:0:0:
320,192,106503,1,0,0:0:0:0:
64,192,106549,1,0,0:0:0:0:
448,192,106595,1,0,0:0:0:0:
320,192,106642,1,0,0:0:0:0:
192,192,106688,1,0,0:0:0:0:
448,192,106734,1,0,0:0:0:0:
64,192,106780,1,0,0:0:0:0:
320,192,106826,1,0,0:0:0:0:
192,192,106872,1,0,0:0:0:0:
448,192,106918,1,0,0:0:0:0:
320,192,106964,1,0,0:0:0:0:
64,192,107010,1,0,0:0:0:0:
448,192,107056,1,0,0:0:0:0:
192,192,107102,1,0,0:0:0:0:
320,192,107148,1,0,0:0:0:0:
448,192,107195,1,0,0:0:0:0:
64,192,107241,1,0,0:0:0:0:
192,192,107287,1,0,0:0:0:0:
320,192,107333,1,0,0:0:0:0:
448,192,107379,1,0,0:0:0:0:
192,192,107425,1,0,0:0:0:0:
320,192,107471,1,0,0:0:0:0:
64,192,107517,1,0,0:0:0:0:
192,192,107563,1,0,0:0:0:0:
448,192,107609,1,0,0:0:0:0:
64,192,107655,1,0,0:0:0:0:
192,192,107701,1,0,0:0:0:0:
320,192,107748,1,0,0:0:0:0:
64,192,107794,1,0,0:0:0:0:
448,192,107794,1,0,0:0:0:0:
192,192,107840,1,0,0:0:0:0:
320,192,107886,1,0,0:0:0:0:
448,192,107932,1,0,0:0:0:0:
64,192,107978,1,0,0:0:0:0:
192,192,108024,1,0,0:0:0:0:
320,192,108070,1,0,0:0:0:0:
448,192,108116,1,0,0:0:0:0:
64,192,108162,1,0,0:0:0:0:
192,192,108208,1,0,0:0:0:0:
320,192,108254,1,0,0:0:0:0:
448,192,108301,1,0,0:0:0:0:
64,192,108347,1,0,0:0:0:0:
448,192,108393,1,0,0:0:0:0:
320,192,108439,1,0,0:0:0:0:
192,192,108485,1,0,0:0:0:0:
64,192,108531,1,0,0:0:0:0:
448,192,108577,1,0,0:0:0:0:
320,192,108623,1,0,0:0:0:0:
192,192,108669,1,0,0:0:0:0:
64,192,108715,1,0,0:0:0:0:
192,192,108761,1,0,0:0:0:0:
320,192,108807,1,0,0:0:0:0:
448,192,108854,1,0,0:0:0:0:
64,192,108900,1,0,0:0:0:0:
192,192,108946,1,0,0:0:0:0:
320,192,108992,1,0,0:0:0:0:
448,192,109038,1,0,0:0:0:0:
64,192,109084,1,0,0:0:0:0:
448,192,109130,1,0,0:0:0:0:
320,192,109176,1,0,0:0:0:0:
192,192,109222,1,0,0:0:0:0:
64,192,109268,1,0,0:0:0:0:
448,192,109314,1,0,0:0:0:0:
320,192,109360,1,0,0:0:0:0:
192,192,109407,1,0,0:0:0:0:
64,192,109453,1,0,0:0:0:0:
64,192,109637,1,0,0:0:0:0:
192,192,109637,1,0,0:0:0:0:
320,192,109683,1,0,0:0:0:0:
64,192,109729,1,0,0:0:0:0:
448,192,109775,1,0,0:0:0:0:
192,192,109821,1,0,0:0:0:0:
320,192,109867,1,0,0:0:0:0:
192,192,109913,1,0,0:0:0:0:
64,192,109960,1,0,0:0:0:0:
448,192,110006,1,0,0:0:0:0:
320,192,110052,1,0,0:0:0:0:
448,192,110098,1,0,0:0:0:0:
64,192,110144,1,0,0:0:0:0:
192,192,110190,1,0,0:0:0:0:
448,192,110236,1,0,0:0:0:0:
192,192,110282,1,0,0:0:0:0:
320,192,110328,1,0,0:0:0:0:
448,192,110374,1,0,0:0:0:0:
64,192,110420,1,0,0:0:0:0:
320,192,110466,1,0,0:0:0:0:
192,192,110512,1,0,0:0:0:0:
448,192,110559,1,0,0:0:0:0:
64,192,110605,1,0,0:0:0:0:
320,192,110651,1,0,0:0:0:0:
448,192,110697,1,0,0:0:0:0:
64,192,110743,1,0,0:0:0:0:
192,192,110789,1,0,0:0:0:0:
320,192,110835,1,0,0:0:0:0:
64,192,110881,1,0,0:0:0:0:
448,192,110927,1,0,0:0:0:0:
192,192,110973,1,0,0:0:0:0:
320,192,111019,1,0,0:0:0:0:
64,192,111065,1,0,0:0:0:0:
448,192,111112,1,0,0:0:0:0:
320,192,111158,1,0,0:0:0:0:
64,192,111204,1,0,0:0:0:0:
448,192,111250,1,0,0:0:0:0:
192,192,111296,1,0,0:0:0:0:
320,192,111342,1,0,0:0:0:0:
448,192,111388,1,0,0:0:0:0:
64,192,111434,1,0,0:0:0:0:
320,192,111480,1,0,0:0:0:0:
192,192,111526,1,0,0:0:0:0:
448,192,111572,1,0,0:0:0:0:
64,192,111618,1,0,0:0:0:0:
320,192,111665,1,0,0:0:0:0:
448,192,111711,1,0,0:0:0:0:
192,192,111757,1,0,0:0:0:0:
64,192,111803,1,0,0:0:0:0:
320,192,111849,1,0,0:0:0:0:
448,192,111895,1,0,0:0:0:0:
192,192,111941,1,0,0:0:0:0:
320,192,111987,1,0,0:0:0:0:
64,192,112033,1,0,0:0:0:0:
448,192,112079,1,0,0:0:0:0:
320,192,112125,1,0,0:0:0:0:
64,192,112171,1,0,0:0:0:0:
448,192,112218,1,0,0:0:0:0:
192,192,112264,1,0,0:0:0:0:
320,192,112310,1,0,0:0:0:0:
448,192,112356,1,0,0:0:0:0:
64,192,112402,1,0,0:0:0:0:
320,192,112448,1,0,0:0:0:0:
448,192,112494,1,0,0:0:0:0:
192,192,112540,1,0,0:0:0:0:
64,192,112586,1,0,0:0:0:0:
448,192,112632,1,0,0:0:0:0:
320,192,112678,1,0,0:0:0:0:
192,192,112724,1,0,0:0:0:0:
64,192,112771,1,0,0:0:0:0:
320,192,112817,1,0,0:0:0:0:
448,192,112863,1,0,0:0:0:0:
192,192,112909,1,0,0:0:0:0:
64,192,112955,1,0,0:0:0:0:
448,192,113001,1,0,0:0:0:0:
320,192,113047,1,0,0:0:0:0:
192,192,113093,1,0,0:0:0:0:
64,192,113139,1,0,0:0:0:0:
448,192,113185,1,0,0:0:0:0:
192,192,113231,1,0,0:0:0:0:
320,192,113277,1,0,0:0:0:0:
448,192,113324,1,0,0:0:0:0:
64,192,113370,1,0,0:0:0:0:
320,192,113416,1,0,0:0:0:0:
192,192,113462,1,0,0:0:0:0:
448,192,113508,1,0,0:0:0:0:
64,192,113554,1,0,0:0:0:0:
192,192,113600,1,0,0:0:0:0:
320,192,113646,1,0,0:0:0:0:
64,192,113692,1,0,0:0:0:0:
448,192,113738,1,0,0:0:0:0:
192,192,113784,1,0,0:0:0:0:
320,192,113830,1,0,0:0:0:0:
64,192,113877,1,0,0:0:0:0:
192,192,113923,1,0,0:0:0:0:
320,192,113969,1,0,0:0:0:0:
448,192,114015,1,0,0:0:0:0:
64,192,114061,1,0,0:0:0:0:
192,192,114107,1,0,0:0:0:0:
320,192,114153,1,0,0:0:0:0:
448,192,114199,1,0,0:0:0:0:
320,192,114245,1,0,0:0:0:0:
192,192,114291,1,0,0:0:0:0:
64,192,114337,1,0,0:0:0:0:
448,192,114383,1,0,0:0:0:0:
320,192,114430,1,0,0:0:0:0:
192,192,114476,1,0,0:0:0:0:
64,192,114522,1,0,0:0:0:0:
448,192,114568,1,0,0:0:0:0:
320,192,114614,1,0,0:0:0:0:
448,192,114660,1,0,0:0:0:0:
64,192,114706,1,0,0:0:0:0:
192,192,114752,1,0,0:0:0:0:
320,192,114798,1,0,0:0:0:0:
448,192,114844,1,0,0:0:0:0:
64,192,114890,1,0,0:0:0:0:
192,192,114936,1,0,0:0:0:0:
320,192,114983,1,0,0:0:0:0:
192,192,115029,1,0,0:0:0:0:
64,192,115075,1,0,0:0:0:0:
448,192,115121,1,0,0:0:0:0:
320,192,115167,1,0,0:0:0:0:
192,192,115213,1,0,0:0:0:0:
64,192,115259,1,0,0:0:0:0:
192,192,115305,1,0,0:0:0:0:
448,192,115351,1,0,0:0:0:0:
320,192,115397,1,0,0:0:0:0:
64,192,115443,1,0,0:0:0:0:
192,192,115489,1,0,0:0:0:0:
448,192,115536,1,0,0:0:0:0:
320,192,115536,1,0,0:0:0:0:
64,192,115582,1,0,0:0:0:0:
320,192,115628,1,0,0:0:0:0:
192,192,115674,1,0,0:0:0:0:
448,192,115720,1,0,0:0:0:0:
320,192,115766,1,0,0:0:0:0:
192,192,115812,1,0,0:0:0:0:
64,192,115858,1,0,0:0:0:0:
448,192,115904,1,0,0:0:0:0:
192,192,115950,1,0,0:0:0:0:
320,192,115996,1,0,0:0:0:0:
64,192,116042,1,0,0:0:0:0:
448,192,116089,1,0,0:0:0:0:
320,192,116135,1,0,0:0:0:0:
64,192,116181,1,0,0:0:0:0:
448,192,116227,1,0,0:0:0:0:
192,192,116273,1,0,0:0:0:0:
320,192,116319,1,0,0:0:0:0:
448,192,116365,1,0,0:0:0:0:
64,192,116411,1,0,0:0:0:0:
192,192,116457,1,0,0:0:0:0:
64,192,116503,1,0,0:0:0:0:
448,192,116549,1,0,0:0:0:0:
192,192,116595,1,0,0:0:0:0:
320,192,116642,1,0,0:0:0:0:
64,192,116688,1,0,0:0:0:0:
448,192,116734,1,0,0:0:0:0:
192,192,116780,1,0,0:0:0:0:
320,192,116826,1,0,0:0:0:0:
448,192,116872,1,0,0:0:0:0:
64,192,116918,1,0,0:0:0:0:
320,192,116964,1,0,0:0:0:0:
192,192,117010,1,0,0:0:0:0:
448,192,117056,1,0,0:0:0:0:
64,192,117102,1,0,0:0:0:0:
320,192,117148,1,0,0:0:0:0:
192,192,117195,1,0,0:0:0:0:
64,192,117241,1,0,0:0:0:0:
448,192,117287,1,0,0:0:0:0:
192,192,117333,1,0,0:0:0:0:
320,192,117379,1,0,0:0:0:0:
64,192,117425,1,0,0:0:0:0:
192,192,117471,1,0,0:0:0:0:
320,192,117517,1,0,0:0:0:0:
64,192,117563,1,0,0:0:0:0:
448,192,117609,1,0,0:0:0:0:
192,192,117655,1,0,0:0:0:0:
64,192,117701,1,0,0:0:0:0:
320,192,117748,1,0,0:0:0:0:
192,192,117794,1,0,0:0:0:0:
448,192,117840,1,0,0:0:0:0:
320,192,117886,1,0,0:0:0:0:
64,192,117932,1,0,0:0:0:0:
192,192,117978,1,0,0:0:0:0:
448,192,118024,1,0,0:0:0:0:
64,192,118070,1,0,0:0:0:0:
320,192,118116,1,0,0:0:0:0:
192,192,118162,1,0,0:0:0:0:
64,192,118208,1,0,0:0:0:0:
320,192,118254,1,0,0:0:0:0:
192,192,118301,1,0,0:0:0:0:
448,192,118347,1,0,0:0:0:0:
64,192,118393,1,0,0:0:0:0:
192,192,118439,1,0,0:0:0:0:
320,192,118485,1,0,0:0:0:0:
64,192,118531,1,0,0:0:0:0:
448,192,118577,1,0,0:0:0:0:
192,192,118623,1,0,0:0:0:0:
320,192,118669,1,0,0:0:0:0:
64,192,118715,1,0,0:0:0:0:
192,192,118761,1,0,0:0:0:0:
448,192,118807,1,0,0:0:0:0:
64,192,118854,1,0,0:0:0:0:
320,192,118900,1,0,0:0:0:0:
192,192,118946,1,0,0:0:0:0:
64,192,118992,1,0,0:0:0:0:
448,192,119038,1,0,0:0:0:0:
320,192,119084,1,0,0:0:0:0:
192,192,119130,1,0,0:0:0:0:
64,192,119176,1,0,0:0:0:0:
320,192,119222,1,0,0:0:0:0:
192,192,119268,1,0,0:0:0:0:
448,192,119314,1,0,0:0:0:0:
320,192,119360,1,0,0:0:0:0:
64,192,119407,1,0,0:0:0:0:
192,192,119453,1,0,0:0:0:0:
448,192,119499,1,0,0:0:0:0:
64,192,119545,1,0,0:0:0:0:
320,192,119591,1,0,0:0:0:0:
448,192,119637,1,0,0:0:0:0:
192,192,119683,1,0,0:0:0:0:
64,192,119729,1,0,0:0:0:0:
448,192,119775,1,0,0:0:0:0:
320,192,119821,1,0,0:0:0:0:
192,192,119867,1,0,0:0:0:0:
64,192,119913,1,0,0:0:0:0:
448,192,119960,1,0,0:0:0:0:
320,192,120006,1,0,0:0:0:0:
192,192,120052,1,0,0:0:0:0:
64,192,120098,1,0,0:0:0:0:
448,192,120144,1,0,0:0:0:0:
64,192,120190,1,0,0:0:0:0:
192,192,120236,1,0,0:0:0:0:
320,192,120282,1,0,0:0:0:0:
448,192,120328,1,0,0:0:0:0:
64,192,120374,1,0,0:0:0:0:
448,192,120420,1,0,0:0:0:0:
320,192,120466,1,0,0:0:0:0:
192,192,120512,1,0,0:0:0:0:
64,192,120559,1,0,0:0:0:0:
320,192,120605,1,0,0:0:0:0:
192,192,120651,1,0,0:0:0:0:
448,192,120697,1,0,0:0:0:0:
320,192,120743,1,0,0:0:0:0:
192,192,120789,1,0,0:0:0:0:
64,192,120835,1,0,0:0:0:0:
320,192,120881,1,0,0:0:0:0:
448,192,120927,1,0,0:0:0:0:
192,192,120973,1,0,0:0:0:0:
320,192,121019,1,0,0:0:0:0:
64,192,121065,1,0,0:0:0:0:
192,192,121112,1,0,0:0:0:0:
320,192,121158,1,0,0:0:0:0:
448,192,121204,1,0,0:0:0:0:
64,192,121250,1,0,0:0:0:0:
64,192,121434,1,0,0:0:0:0:
320,192,121434,1,0,0:0:0:0:
192,192,121480,1,0,0:0:0:0:
64,192,121526,1,0,0:0:0:0:
448,192,121572,1,0,0:0:0:0:
192,192,121618,1,0,0:0:0:0:
64,192,121665,1,0,0:0:0:0:
320,192,121711,1,0,0:0:0:0:
192,192,121757,1,0,0:0:0:0:
64,192,121803,1,0,0:0:0:0:
448,192,121849,1,0,0:0:0:0:
192,192,121895,1,0,0:0:0:0:
320,192,121941,1,0,0:0:0:0:
64,192,121987,1,0,0:0:0:0:
192,192,122033,1,0,0:0:0:0:
320,192,122079,1,0,0:0:0:0:
448,192,122125,1,0,0:0:0:0:
192,192,122171,1,0,0:0:0:0:
320,192,122218,1,0,0:0:0:0:
448,192,122264,1,0,0:0:0:0:
64,192,122310,1,0,0:0:0:0:
320,192,122356,1,0,0:0:0:0:
192,192,122402,1,0,0:0:0:0:
64,192,122448,1,0,0:0:0:0:
448,192,122494,1,0,0:0:0:0:
192,192,122540,1,0,0:0:0:0:
64,192,122586,1,0,0:0:0:0:
320,192,122632,1,0,0:0:0:0:
448,192,122678,1,0,0:0:0:0:
192,192,122724,1,0,0:0:0:0:
320,192,122771,1,0,0:0:0:0:
448,192,122817,1,0,0:0:0:0:
64,192,122863,1,0,0:0:0:0:
192,192,122909,1,0,0:0:0:0:
320,192,122955,1,0,0:0:0:0:
448,192,123001,1,0,0:0:0:0:
64,192,123047,1,0,0:0:0:0:
320,192,123093,1,0,0:0:0:0:
192,192,123139,1,0,0:0:0:0:
64,192,123185,1,0,0:0:0:0:
448,192,123231,1,0,0:0:0:0:
320,192,123277,1,0,0:0:0:0:
192,192,123324,1,0,0:0:0:0:
448,192,123370,1,0,0:0:0:0:
64,192,123416,1,0,0:0:0:0:
320,192,123462,1,0,0:0:0:0:
192,192,123508,1,0,0:0:0:0:
64,192,123554,1,0,0:0:0:0:
448,192,123600,1,0,0:0:0:0:
320,192,123646,1,0,0:0:0:0:
192,192,123692,1,0,0:0:0:0:
64,192,123738,1,0,0:0:0:0:
448,192,123784,1,0,0:0:0:0:
192,192,123830,1,0,0:0:0:0:
320,192,123877,1,0,0:0:0:0:
448,192,123923,1,0,0:0:0:0:
64,192,123969,1,0,0:0:0:0:
320,192,124015,1,0,0:0:0:0:
192,192,124061,1,0,0:0:0:0:
64,192,124107,1,0,0:0:0:0:
448,192,124153,1,0,0:0:0:0:
192,192,124199,1,0,0:0:0:0:
320,192,124245,1,0,0:0:0:0:
448,192,124291,1,0,0:0:0:0:
64,192,124337,1,0,0:0:0:0:
320,192,124383,1,0,0:0:0:0:
192,192,124430,1,0,0:0:0:0:
320,192,124476,1,0,0:0:0:0:
192,192,124522,1,0,0:0:0:0:
448,192,124568,1,0,0:0:0:0:
64,192,124614,1,0,0:0:0:0:
192,192,124660,1,0,0:0:0:0:
320,192,124706,1,0,0:0:0:0:
64,192,124752,1,0,0:0:0:0:
448,192,124798,1,0,0:0:0:0:
192,192,124844,1,0,0:0:0:0:
64,192,124890,1,0,0:0:0:0:
320,192,124936,1,0,0:0:0:0:
192,192,124983,1,0,0:0:0:0:
448,192,125029,1,0,0:0:0:0:
320,192,125075,1,0,0:0:0:0:
64,192,125121,1,0,0:0:0:0:
448,192,125167,1,0,0:0:0:0:
320,192,125213,1,0,0:0:0:0:
192,192,125259,1,0,0:0:0:0:
64,192,125305,1,0,0:0:0:0:
320,192,125351,1,0,0:0:0:0:
192,192,125397,1,0,0:0:0:0:
448,192,125443,1,0,0:0:0:0:
64,192,125489,1,0,0:0:0:0:
320,192,125536,1,0,0:0:0:0:
192,192,125582,1,0,0:0:0:0:
64,192,125628,1,0,0:0:0:0:
448,192,125674,1,0,0:0:0:0:
320,192,125720,1,0,0:0:0:0:
448,192,125766,1,0,0:0:0:0:
320,192,125812,1,0,0:0:0:0:
64,192,125858,1,0,0:0:0:0:
192,192,125904,1,0,0:0:0:0:
448,192,125950,1,0,0:0:0:0:
320,192,125996,1,0,0:0:0:0:
64,192,126042,1,0,0:0:0:0:
192,192,126089,1,0,0:0:0:0:
320,192,126135,1,0,0:0:0:0:
64,192,126181,1,0,0:0:0:0:
192,192,126227,1,0,0:0:0:0:
448,192,126273,1,0,0:0:0:0:
320,192,126319,1,0,0:0:0:0:
192,192,126365,1,0,0:0:0:0:
448,192,126411,1,0,0:0:0:0:
64,192,126457,1,0,0:0:0:0:
320,192,126503,1,0,0:0:0:0:
192,192,126549,1,0,0:0:0:0:
448,192,126595,1,0,0:0:0:0:
64,192,126642,1,0,0:0:0:0:
320,192,126688,1,0,0:0:0:0:
192,192,126734,1,0,0:0:0:0:
64,192,126780,1,0,0:0:0:0:
320,192,126826,1,0,0:0:0:0:
448,192,126872,1,0,0:0:0:0:
192,192,126918,1,0,0:0:0:0:
64,192,126964,1,0,0:0:0:0:
320,192,127056,1,0,0:0:0:0:
448,192,127079,1,0,0:0:0:0:
192,192,127148,1,0,0:0:0:0:
64,192,127171,1,0,0:0:0:0:
320,192,127241,1,0,0:0:0:0:
448,192,127264,1,0,0:0:0:0:
192,192,127333,1,0,0:0:0:0:
64,192,127356,1,0,0:0:0:0:
320,192,127379,1,0,0:0:0:0:
448,192,127425,1,0,0:0:0:0:
192,192,127471,1,0,0:0:0:0:
320,192,127517,1,0,0:0:0:0:
448,192,127563,1,0,0:0:0:0:
64,192,127609,1,0,0:0:0:0:
320,192,127655,1,0,0:0:0:0:
192,192,127701,1,0,0:0:0:0:
64,192,127748,1,0,0:0:0:0:
448,192,127794,1,0,0:0:0:0:
320,192,127840,1,0,0:0:0:0:
64,192,127886,1,0,0:0:0:0:
448,192,127932,1,0,0:0:0:0:
192,192,127978,1,0,0:0:0:0:
320,192,128024,1,0,0:0:0:0:
64,192,128070,1,0,0:0:0:0:
192,192,128116,1,0,0:0:0:0:
320,192,128162,1,0,0:0:0:0:
448,192,128208,1,0,0:0:0:0:
192,192,128254,1,0,0:0:0:0:
64,192,128301,1,0,0:0:0:0:
320,192,128347,1,0,0:0:0:0:
192,192,128393,1,0,0:0:0:0:
448,192,128439,1,0,0:0:0:0:
64,192,128485,1,0,0:0:0:0:
320,192,128531,1,0,0:0:0:0:
192,192,128577,1,0,0:0:0:0:
64,192,128623,1,0,0:0:0:0:
448,192,128669,1,0,0:0:0:0:
192,192,128715,1,0,0:0:0:0:
320,192,128761,1,0,0:0:0:0:
64,192,128807,1,0,0:0:0:0:
448,192,128854,1,0,0:0:0:0:
192,192,128900,1,0,0:0:0:0:
320,192,128946,1,0,0:0:0:0:
448,192,128992,1,0,0:0:0:0:
64,192,129038,1,0,0:0:0:0:
192,192,129084,1,0,0:0:0:0:
320,192,129130,1,0,0:0:0:0:
448,192,129176,1,0,0:0:0:0:
192,192,129222,1,0,0:0:0:0:
320,192,129268,1,0,0:0:0:0:
64,192,129314,1,0,0:0:0:0:
192,192,129360,1,0,0:0:0:0:
448,192,129407,1,0,0:0:0:0:
320,192,129453,1,0,0:0:0:0:
192,192,129499,1,0,0:0:0:0:
64,192,129545,1,0,0:0:0:0:
320,192,129591,1,0,0:0:0:0:
192,192,129637,1,0,0:0:0:0:
448,192,129683,1,0,0:0:0:0:
320,192,129729,1,0,0:0:0:0:
192,192,129775,1,0,0:0:0:0:
64,192,129821,1,0,0:0:0:0:
448,192,129867,1,0,0:0:0:0:
192,192,129913,1,0,0:0:0:0:
320,192,129960,1,0,0:0:0:0:
448,192,130006,1,0,0:0:0:0:
64,192,130052,1,0,0:0:0:0:
320,192,130098,1,0,0:0:0:0:
448,192,130144,1,0,0:0:0:0:
192,192,130190,1,0,0:0:0:0:
320,192,130236,1,0,0:0:0:0:
448,192,130282,1,0,0:0:0:0:
192,192,130328,1,0,0:0:0:0:
64,192,130374,1,0,0:0:0:0:
320,192,130420,1,0,0:0:0:0:
192,192,130466,1,0,0:0:0:0:
448,192,130512,1,0,0:0:0:0:
320,192,130559,1,0,0:0:0:0:
192,192,130605,1,0,0:0:0:0:
64,192,130651,1,0,0:0:0:0:
320,192,130697,1,0,0:0:0:0:
448,192,130743,1,0,0:0:0:0:
192,192,130789,1,0,0:0:0:0:
320,192,130835,1,0,0:0:0:0:
64,192,130881,1,0,0:0:0:0:
192,192,130927,1,0,0:0:0:0:
448,192,130973,1,0,0:0:0:0:
64,192,131019,1,0,0:0:0:0:
320,192,131065,1,0,0:0:0:0:
192,192,131112,1,0,0:0:0:0:
448,192,131158,1,0,0:0:0:0:
64,192,131204,1,0,0:0:0:0:
192,192,131250,1,0,0:0:0:0:
320,192,131296,1,0,0:0:0:0:
64,192,131342,1,0,0:0:0:0:
448,192,131388,1,0,0:0:0:0:
192,192,131434,1,0,0:0:0:0:
320,192,131480,1,0,0:0:0:0:
448,192,131526,1,0,0:0:0:0:
64,192,131572,1,0,0:0:0:0:
192,192,131618,1,0,0:0:0:0:
320,192,131665,1,0,0:0:0:0:
448,192,131711,1,0,0:0:0:0:
64,192,131757,1,0,0:0:0:0:
192,192,131803,1,0,0:0:0:0:
320,192,131849,1,0,0:0:0:0:
448,192,131895,1,0,0:0:0:0:
64,192,131941,1,0,0:0:0:0:
448,192,131987,1,0,0:0:0:0:
320,192,132033,1,0,0:0:0:0:
192,192,132079,1,0,0:0:0:0:
448,192,132125,1,0,0:0:0:0:
64,192,132171,1,0,0:0:0:0:
192,192,132218,1,0,0:0:0:0:
320,192,132264,1,0,0:0:0:0:
192,192,132310,1,0,0:0:0:0:
448,192,132356,1,0,0:0:0:0:
320,192,132402,1,0,0:0:0:0:
192,192,132448,1,0,0:0:0:0:
64,192,132494,1,0,0:0:0:0:
448,192,132540,1,0,0:0:0:0:
320,192,132586,1,0,0:0:0:0:
192,192,132632,1,0,0:0:0:0:
64,192,132678,1,0,0:0:0:0:
192,192,132724,1,0,0:0:0:0:
320,192,132771,1,0,0:0:0:0:
448,192,132817,1,0,0:0:0:0:
64,192,132863,1,0,0:0:0:0:
192,192,132886,1,0,0:0:0:0:
448,192,132955,1,0,0:0:0:0:
320,192,132978,1,0,0:0:0:0:
64,192,133047,1,0,0:0:0:0:
192,192,133070,1,0,0:0:0:0:
448,192,133139,1,0,0:0:0:0:
320,192,133162,1,0,0:0:0:0:
64,192,133231,1,0,0:0:0:0:
192,192,133277,1,0,0:0:0:0:
448,192,133324,1,0,0:0:0:0:
64,192,133370,1,0,0:0:0:0:
320,192,133416,1,0,0:0:0:0:
192,192,133462,1,0,0:0:0:0:
64,192,133508,1,0,0:0:0:0:
448,192,133554,1,0,0:0:0:0:
320,192,133600,1,0,0:0:0:0:
192,192,133646,1,0,0:0:0:0:
448,192,133692,1,0,0:0:0:0:
64,192,133738,1,0,0:0:0:0:
320,192,133784,1,0,0:0:0:0:
192,192,133830,1,0,0:0:0:0:
448,192,133877,1,0,0:0:0:0:
64,192,133923,1,0,0:0:0:0:
192,192,133969,1,0,0:0:0:0:
320,192,134015,1,0,0:0:0:0:
448,192,134061,1,0,0:0:0:0:
64,192,134107,1,0,0:0:0:0:
320,192,134153,1,0,0:0:0:0:
192,192,134199,1,0,0:0:0:0:
448,192,134245,1,0,0:0:0:0:
320,192,134291,1,0,0:0:0:0:
64,192,134337,1,0,0:0:0:0:
192,192,134383,1,0,0:0:0:0:
448,192,134430,1,0,0:0:0:0:
64,192,134476,1,0,0:0:0:0:
192,192,134522,1,0,0:0:0:0:
320,192,134568,1,0,0:0:0:0:
448,192,134614,1,0,0:0:0:0:
64,192,134660,1,0,0:0:0:0:
320,192,134706,1,0,0:0:0:0:
192,192,134752,1,0,0:0:0:0:
64,192,134798,1,0,0:0:0:0:
448,192,134844,1,0,0:0:0:0:
320,192,134890,1,0,0:0:0:0:
192,192,134936,1,0,0:0:0:0:
448,192,134983,1,0,0:0:0:0:
320,192,135029,1,0,0:0:0:0:
64,192,135075,1,0,0:0:0:0:
448,192,135121,1,0,0:0:0:0:
192,192,135167,1,0,0:0:0:0:
320,192,135213,1,0,0:0:0:0:
448,192,135259,1,0,0:0:0:0:
64,192,135305,1,0,0:0:0:0:
192,192,135351,1,0,0:0:0:0:
320,192,135397,1,0,0:0:0:0:
64,192,135443,1,0,0:0:0:0:
448,192,135489,1,0,0:0:0:0:
192,192,135536,1,0,0:0:0:0:
64,192,135582,1,0,0:0:0:0:
320,192,135628,1,0,0:0:0:0:
448,192,135674,1,0,0:0:0:0:
192,192,135720,1,0,0:0:0:0:
64,192,135766,1,0,0:0:0:0:
320,192,135812,1,0,0:0:0:0:
192,192,135858,1,0,0:0:0:0:
64,192,135904,1,0,0:0:0:0:
448,192,135950,1,0,0:0:0:0:
320,192,135996,1,0,0:0:0:0:
192,192,136042,1,0,0:0:0:0:
448,192,136089,1,0,0:0:0:0:
64,192,136135,1,0,0:0:0:0:
320,192,136181,1,0,0:0:0:0:
192,192,136227,1,0,0:0:0:0:
448,192,136273,1,0,0:0:0:0:
64,192,136319,1,0,0:0:0:0:
320,192,136365,1,0,0:0:0:0:
448,192,136411,1,0,0:0:0:0:
64,192,136457,1,0,0:0:0:0:
320,192,136503,1,0,0:0:0:0:
192,192,136549,1,0,0:0:0:0:
448,192,136595,1,0,0:0:0:0:
320,192,136642,1,0,0:0:0:0:
192,192,136688,1,0,0:0:0:0:
64,192,136734,1,0,0:0:0:0:
320,192,136780,1,0,0:0:0:0:
448,192,136826,1,0,0:0:0:0:
192,192,136872,1,0,0:0:0:0:
320,192,136918,1,0,0:0:0:0:
64,192,136964,1,0,0:0:0:0:
192,192,137010,1,0,0:0:0:0:
448,192,137056,1,0,0:0:0:0:
64,192,137102,1,0,0:0:0:0:
192,192,137148,1,0,0:0:0:0:
320,192,137195,1,0,0:0:0:0:
192,192,137241,1,0,0:0:0:0:
320,192,137287,1,0,0:0:0:0:
448,192,137333,1,0,0:0:0:0:
64,192,137379,1,0,0:0:0:0:
192,192,137425,1,0,0:0:0:0:
448,192,137471,1,0,0:0:0:0:
320,192,137517,1,0,0:0:0:0:
192,192,137563,1,0,0:0:0:0:
64,192,137609,1,0,0:0:0:0:
448,192,137655,1,0,0:0:0:0:
320,192,137701,1,0,0:0:0:0:
192,192,137748,1,0,0:0:0:0:
64,192,137794,1,0,0:0:0:0:
448,192,137840,1,0,0:0:0:0:
320,192,137886,1,0,0:0:0:0:
192,192,137932,1,0,0:0:0:0:
448,192,137978,1,0,0:0:0:0:
320,192,138024,1,0,0:0:0:0:
64,192,138070,1,0,0:0:0:0:
192,192,138116,1,0,0:0:0:0:
320,192,138162,1,0,0:0:0:0:
64,192,138208,1,0,0:0:0:0:
192,192,138254,1,0,0:0:0:0:
320,192,138301,1,0,0:0:0:0:
448,192,138347,1,0,0:0:0:0:
64,192,138393,1,0,0:0:0:0:
448,192,138439,1,0,0:0:0:0:
320,192,138485,1,0,0:0:0:0:
192,192,138531,1,0,0:0:0:0:
64,192,138577,1,0,0:0:0:0:
448,192,138623,1,0,0:0:0:0:
320,192,138669,1,0,0:0:0:0:
192,192,138715,1,0,0:0:0:0:
320,192,138761,1,0,0:0:0:0:
448,192,138784,1,0,0:0:0:0:
192,192,138854,1,0,0:0:0:0:
64,192,138877,1,0,0:0:0:0:
320,192,138946,1,0,0:0:0:0:
448,192,138969,1,0,0:0:0:0:
192,192,139038,1,0,0:0:0:0:
64,192,139061,1,0,0:0:0:0:
320,192,139130,1,0,0:0:0:0:
448,192,139176,1,0,0:0:0:0:
192,192,139222,1,0,0:0:0:0:
320,192,139268,1,0,0:0:0:0:
448,192,139314,1,0,0:0:0:0:
64,192,139360,1,0,0:0:0:0:
320,192,139407,1,0,0:0:0:0:
192,192,139453,1,0,0:0:0:0:
64,192,139499,1,0,0:0:0:0:
448,192,139545,1,0,0:0:0:0:
320,192,139591,1,0,0:0:0:0:
64,192,139637,1,0,0:0:0:0:
448,192,139683,1,0,0:0:0:0:
192,192,139729,1,0,0:0:0:0:
320,192,139775,1,0,0:0:0:0:
64,192,139821,1,0,0:0:0:0:
192,192,139867,1,0,0:0:0:0:
320,192,139913,1,0,0:0:0:0:
448,192,139960,1,0,0:0:0:0:
192,192,140006,1,0,0:0:0:0:
64,192,140052,1,0,0:0:0:0:
320,192,140098,1,0,0:0:0:0:
192,192,140144,1,0,0:0:0:0:
448,192,140190,1,0,0:0:0:0:
64,192,140236,1,0,0:0:0:0:
320,192,140282,1,0,0:0:0:0:
192,192,140328,1,0,0:0:0:0:
64,192,140374,1,0,0:0:0:0:
448,192,140420,1,0,0:0:0:0:
192,192,140466,1,0,0:0:0:0:
320,192,140512,1,0,0:0:0:0:
64,192,140559,1,0,0:0:0:0:
448,192,140605,1,0,0:0:0:0:
192,192,140651,1,0,0:0:0:0:
320,192,140697,1,0,0:0:0:0:
448,192,140743,1,0,0:0:0:0:
64,192,140789,1,0,0:0:0:0:
192,192,140835,1,0,0:0:0:0:
320,192,140881,1,0,0:0:0:0:
448,192,140927,1,0,0:0:0:0:
192,192,140973,1,0,0:0:0:0:
320,192,141019,1,0,0:0:0:0:
64,192,141065,1,0,0:0:0:0:
192,192,141112,1,0,0:0:0:0:
448,192,141158,1,0,0:0:0:0:
320,192,141204,1,0,0:0:0:0:
192,192,141250,1,0,0:0:0:0:
64,192,141296,1,0,0:0:0:0:
320,192,141342,1,0,0:0:0:0:
192,192,141388,1,0,0:0:0:0:
448,192,141434,1,0,0:0:0:0:
320,192,141480,1,0,0:0:0:0:
192,192,141526,1,0,0:0:0:0:
64,192,141572,1,0,0:0:0:0:
448,192,141618,1,0,0:0:0:0:
192,192,141665,1,0,0:0:0:0:
320,192,141711,1,0,0:0:0:0:
448,192,141757,1,0,0:0:0:0:
64,192,141803,1,0,0:0:0:0:
320,192,141849,1,0,0:0:0:0:
448,192,141895,1,0,0:0:0:0:
192,192,141941,1,0,0:0:0:0:
320,192,141987,1,0,0:0:0:0:
448,192,142033,1,0,0:0:0:0:
192,192,142079,1,0,0:0:0:0:
64,192,142125,1,0,0:0:0:0:
320,192,142171,1,0,0:0:0:0:
192,192,142218,1,0,0:0:0:0:
448,192,142264,1,0,0:0:0:0:
320,192,142310,1,0,0:0:0:0:
192,192,142356,1,0,0:0:0:0:
64,192,142402,1,0,0:0:0:0:
320,192,142448,1,0,0:0:0:0:
448,192,142494,1,0,0:0:0:0:
192,192,142540,1,0,0:0:0:0:
320,192,142586,1,0,0:0:0:0:
64,192,142632,1,0,0:0:0:0:
192,192,142678,1,0,0:0:0:0:
448,192,142724,1,0,0:0:0:0:
64,192,142771,1,0,0:0:0:0:
320,192,142817,1,0,0:0:0:0:
192,192,142863,1,0,0:0:0:0:
448,192,142909,1,0,0:0:0:0:
64,192,142955,1,0,0:0:0:0:
192,192,143001,1,0,0:0:0:0:
320,192,143047,1,0,0:0:0:0:
64,192,143093,1,0,0:0:0:0:
448,192,143139,1,0,0:0:0:0:
192,192,143185,1,0,0:0:0:0:
320,192,143231,1,0,0:0:0:0:
448,192,143277,1,0,0:0:0:0:
64,192,143324,1,0,0:0:0:0:
192,192,143370,1,0,0:0:0:0:
320,192,143416,1,0,0:0:0:0:
448,192,143462,1,0,0:0:0:0:
64,192,143508,1,0,0:0:0:0:
192,192,143554,1,0,0:0:0:0:
320,192,143600,1,0,0:0:0:0:
448,192,143646,1,0,0:0:0:0:
64,192,143692,1,0,0:0:0:0:
448,192,143738,1,0,0:0:0:0:
320,192,143784,1,0,0:0:0:0:
192,192,143830,1,0,0:0:0:0:
448,192,143877,1,0,0:0:0:0:
64,192,143923,1,0,0:0:0:0:
192,192,143969,1,0,0:0:0:0:
320,192,144015,1,0,0:0:0:0:
192,192,144061,1,0,0:0:0:0:
448,192,144107,1,0,0:0:0:0:
320,192,144153,1,0,0:0:0:0:
192,192,144199,5,0,0:0:0:0:
64,192,144245,1,0,0:0:0:0:
448,192,144291,1,0,0:0:0:0:
320,192,144337,1,0,0:0:0:0:
192,192,144383,1,0,0:0:0:0:
64,192,144430,1,0,0:0:0:0:
192,192,144476,1,0,0:0:0:0:
320,192,144522,1,0,0:0:0:0:
448,192,144568,1,0,0:0:0:0:
64,192,144614,1,0,0:0:0:0:
320,192,144660,1,0,0:0:0:0:
448,192,144683,1,0,0:0:0:0:
192,192,144752,1,0,0:0:0:0:
64,192,144775,1,0,0:0:0:0:
320,192,144844,1,0,0:0:0:0:
448,192,144867,1,0,0:0:0:0:
192,192,144936,1,0,0:0:0:0:
64,192,144960,1,0,0:0:0:0:
320,192,145029,1,0,0:0:0:0:
448,192,145029,1,0,0:0:0:0:
192,192,145090,1,0,0:0:0:0:
64,192,145152,1,0,0:0:0:0:
192,192,145213,1,0,0:0:0:0:
448,192,145213,1,0,0:0:0:0:
320,192,145274,1,0,0:0:0:0:
64,192,145336,1,0,0:0:0:0:
192,192,145397,1,0,0:0:0:0:
448,192,145397,1,0,0:0:0:0:
320,192,145459,1,0,0:0:0:0:
192,192,145520,1,0,0:0:0:0:
64,192,145582,1,0,0:0:0:0:
320,192,145582,1,0,0:0:0:0:
448,192,145643,1,0,0:0:0:0:
192,192,145705,1,0,0:0:0:0:
64,192,145766,1,0,0:0:0:0:
320,192,145766,1,0,0:0:0:0:
448,192,145827,1,0,0:0:0:0:
64,192,145889,1,0,0:0:0:0:
192,192,145950,1,0,0:0:0:0:
320,192,145950,1,0,0:0:0:0:
448,192,146012,1,0,0:0:0:0:
64,192,146073,1,0,0:0:0:0:
192,192,146135,1,0,0:0:0:0:
320,192,146135,1,0,0:0:0:0:
448,192,146196,1,0,0:0:0:0:
64,192,146258,1,0,0:0:0:0:
192,192,146319,1,0,0:0:0:0:
448,192,146319,1,0,0:0:0:0:
320,192,146380,1,0,0:0:0:0:
64,192,146442,1,0,0:0:0:0:
192,192,146503,1,0,0:0:0:0:
448,192,146503,1,0,0:0:0:0:
320,192,146565,1,0,0:0:0:0:
448,192,146626,1,0,0:0:0:0:
64,192,146688,1,0,0:0:0:0:
192,192,146688,1,0,0:0:0:0:
320,192,146749,1,0,0:0:0:0:
448,192,146811,1,0,0:0:0:0:
64,192,146872,1,0,0:0:0:0:
192,192,146872,1,0,0:0:0:0:
320,192,146933,1,0,0:0:0:0:
448,192,146995,1,0,0:0:0:0:
64,192,147056,1,0,0:0:0:0:
320,192,147118,1,0,0:0:0:0:
192,192,147179,1,0,0:0:0:0:
320,192,147241,1,0,0:0:0:0:
64,192,147241,1,0,0:0:0:0:
448,192,147302,1,0,0:0:0:0:
64,192,147363,1,0,0:0:0:0:
192,192,147425,1,0,0:0:0:0:
320,192,147425,1,0,0:0:0:0:
448,192,147486,1,0,0:0:0:0:
192,192,147548,1,0,0:0:0:0:
64,192,147609,1,0,0:0:0:0:
320,192,147609,1,0,0:0:0:0:
448,192,147671,1,0,0:0:0:0:
192,192,147732,1,0,0:0:0:0:
320,192,147794,1,0,0:0:0:0:
448,192,147794,1,0,0:0:0:0:
64,192,147855,1,0,0:0:0:0:
320,192,147916,1,0,0:0:0:0:
192,192,147978,1,0,0:0:0:0:
448,192,147978,1,0,0:0:0:0:
64,192,148039,1,0,0:0:0:0:
448,192,148101,1,0,0:0:0:0:
320,192,148162,1,0,0:0:0:0:
64,192,148224,1,0,0:0:0:0:
192,192,148285,1,0,0:0:0:0:
64,192,148347,1,0,0:0:0:0:
320,192,148347,1,0,0:0:0:0:
448,192,148408,1,0,0:0:0:0:
192,192,148469,1,0,0:0:0:0:
320,192,148531,1,0,0:0:0:0:
448,192,148592,1,0,0:0:0:0:
64,192,148654,1,0,0:0:0:0:
320,192,148715,1,0,0:0:0:0:
448,192,148715,1,0,0:0:0:0:
192,192,148777,1,0,0:0:0:0:
64,192,148838,1,0,0:0:0:0:
192,192,148900,1,0,0:0:0:0:
448,192,148900,1,0,0:0:0:0:
320,192,148961,1,0,0:0:0:0:
64,192,149022,1,0,0:0:0:0:
448,192,149084,1,0,0:0:0:0:
192,192,149145,1,0,0:0:0:0:
320,192,149207,1,0,0:0:0:0:
448,192,149268,1,0,0:0:0:0:
64,192,149268,1,0,0:0:0:0:
192,192,149330,1,0,0:0:0:0:
320,192,149391,1,0,0:0:0:0:
448,192,149453,1,0,0:0:0:0:
320,192,149514,1,0,0:0:0:0:
192,192,149575,1,0,0:0:0:0:
64,192,149637,1,0,0:0:0:0:
448,192,149637,1,0,0:0:0:0:
320,192,149698,1,0,0:0:0:0:
192,192,149760,1,0,0:0:0:0:
64,192,149821,1,0,0:0:0:0:
320,192,149883,1,0,0:0:0:0:
192,192,149944,1,0,0:0:0:0:
320,192,150006,1,0,0:0:0:0:
64,192,150006,1,0,0:0:0:0:
448,192,150067,1,0,0:0:0:0:
192,192,150128,1,0,0:0:0:0:
64,192,150190,1,0,0:0:0:0:
320,192,150282,1,0,0:0:0:0:
448,192,150282,1,0,0:0:0:0:
64,192,150374,1,0,0:0:0:0:
192,192,150374,1,0,0:0:0:0:
320,192,150466,1,0,0:0:0:0:
448,192,150466,1,0,0:0:0:0:
192,192,150559,1,0,0:0:0:0:
64,192,150559,1,0,0:0:0:0:
320,192,150651,1,0,0:0:0:0:
448,192,150651,1,0,0:0:0:0:
192,192,150743,1,0,0:0:0:0:
64,192,150743,1,0,0:0:0:0:
320,192,150835,1,0,0:0:0:0:
448,192,150835,1,0,0:0:0:0:
64,192,150927,1,0,0:0:0:0:
192,192,150927,1,0,0:0:0:0:
320,192,150989,1,0,0:0:0:0:
448,192,151050,1,0,0:0:0:0:
320,192,151112,1,0,0:0:0:0:
64,192,151112,1,0,0:0:0:0:
192,192,151173,1,0,0:0:0:0:
448,192,151234,1,0,0:0:0:0:
320,192,151296,1,0,0:0:0:0:
64,192,151296,1,0,0:0:0:0:
192,192,151357,1,0,0:0:0:0:
320,192,151419,1,0,0:0:0:0:
448,192,151480,1,0,0:0:0:0:
192,192,151480,1,0,0:0:0:0:
64,192,151542,1,0,0:0:0:0:
320,192,151603,1,0,0:0:0:0:
448,192,151665,1,0,0:0:0:0:
192,192,151665,1,0,0:0:0:0:
64,192,151726,1,0,0:0:0:0:
448,192,151787,1,0,0:0:0:0:
320,192,151849,1,0,0:0:0:0:
192,192,151849,1,0,0:0:0:0:
64,192,151910,1,0,0:0:0:0:
448,192,151972,1,0,0:0:0:0:
320,192,152033,1,0,0:0:0:0:
192,192,152033,1,0,0:0:0:0:
64,192,152095,1,0,0:0:0:0:
448,192,152156,1,0,0:0:0:0:
320,192,152218,1,0,0:0:0:0:
64,192,152218,1,0,0:0:0:0:
192,192,152279,1,0,0:0:0:0:
448,192,152340,1,0,0:0:0:0:
320,192,152402,1,0,0:0:0:0:
64,192,152402,1,0,0:0:0:0:
192,192,152463,1,0,0:0:0:0:
64,192,152525,1,0,0:0:0:0:
448,192,152586,1,0,0:0:0:0:
320,192,152586,1,0,0:0:0:0:
192,192,152648,1,0,0:0:0:0:
64,192,152709,1,0,0:0:0:0:
448,192,152771,1,0,0:0:0:0:
320,192,152771,1,0,0:0:0:0:
192,192,152832,1,0,0:0:0:0:
64,192,152893,1,0,0:0:0:0:
448,192,152955,1,0,0:0:0:0:
192,192,153016,1,0,0:0:0:0:
320,192,153078,1,0,0:0:0:0:
192,192,153139,1,0,0:0:0:0:
448,192,153139,1,0,0:0:0:0:
64,192,153201,1,0,0:0:0:0:
448,192,153262,1,0,0:0:0:0:
320,192,153324,1,0,0:0:0:0:
192,192,153324,1,0,0:0:0:0:
64,192,153385,1,0,0:0:0:0:
320,192,153446,1,0,0:0:0:0:
448,192,153508,1,0,0:0:0:0:
192,192,153508,1,0,0:0:0:0:
64,192,153569,1,0,0:0:0:0:
320,192,153631,1,0,0:0:0:0:
192,192,153692,1,0,0:0:0:0:
64,192,153692,1,0,0:0:0:0:
448,192,153754,1,0,0:0:0:0:
192,192,153815,1,0,0:0:0:0:
320,192,153877,1,0,0:0:0:0:
64,192,153877,1,0,0:0:0:0:
448,192,153938,1,0,0:0:0:0:
64,192,153999,1,0,0:0:0:0:
192,192,154061,1,0,0:0:0:0:
448,192,154122,1,0,0:0:0:0:
320,192,154184,1,0,0:0:0:0:
448,192,154245,1,0,0:0:0:0:
192,192,154245,1,0,0:0:0:0:
64,192,154307,1,0,0:0:0:0:
320,192,154368,1,0,0:0:0:0:
192,192,154430,1,0,0:0:0:0:
64,192,154491,1,0,0:0:0:0:
448,192,154552,1,0,0:0:0:0:
192,192,154614,1,0,0:0:0:0:
64,192,154614,1,0,0:0:0:0:
320,192,154675,1,0,0:0:0:0:
448,192,154737,1,0,0:0:0:0:
320,192,154798,1,0,0:0:0:0:
64,192,154798,1,0,0:0:0:0:
192,192,154860,1,0,0:0:0:0:
448,192,154921,1,0,0:0:0:0:
64,192,154983,1,0,0:0:0:0:
320,192,155044,1,0,0:0:0:0:
192,192,155105,1,0,0:0:0:0:
64,192,155167,1,0,0:0:0:0:
448,192,155167,1,0,0:0:0:0:
320,192,155228,1,0,0:0:0:0:
192,192,155290,1,0,0:0:0:0:
448,192,155351,1,0,0:0:0:0:
192,192,155413,1,0,0:0:0:0:
320,192,155474,1,0,0:0:0:0:
64,192,155536,1,0,0:0:0:0:
192,192,155536,1,0,0:0:0:0:
448,192,155597,1,0,0:0:0:0:
64,192,155658,1,0,0:0:0:0:
320,192,155720,1,0,0:0:0:0:
192,192,155781,1,0,0:0:0:0:
448,192,155843,1,0,0:0:0:0:
192,192,155904,1,0,0:0:0:0:
320,192,155904,1,0,0:0:0:0:
64,192,155904,1,0,0:0:0:0:
448,192,155966,1,0,0:0:0:0:
64,192,156027,5,0,0:0:0:0:
320,192,156089,1,0,0:0:0:0:
192,192,156150,1,0,0:0:0:0:
448,192,156211,1,0,0:0:0:0:
320,192,156273,1,0,0:0:0:0:
192,192,156273,1,0,0:0:0:0:
64,192,156273,1,0,0:0:0:0:
320,192,156642,1,0,0:0:0:0:
448,192,156734,1,0,0:0:0:0:
192,192,156826,1,0,0:0:0:0:
192,192,157195,5,0,0:0:0:0:
192,192,157379,1,0,0:0:0:0:
192,192,157563,1,0,0:0:0:0:
192,192,157748,1,0,0:0:0:0:
192,192,157932,1,0,0:0:0:0:
320,192,158024,1,0,0:0:0:0:
192,192,158116,1,0,0:0:0:0:
320,192,158208,1,0,0:0:0:0:
64,192,158301,1,0,0:0:0:0:
448,192,158301,1,0,0:0:0:0:
320,192,158362,1,0,0:0:0:0:
192,192,158423,1,0,0:0:0:0:
320,192,158485,1,0,0:0:0:0:
448,192,158485,1,0,0:0:0:0:
192,192,158546,1,0,0:0:0:0:
64,192,158546,1,0,0:0:0:0:
448,192,158608,1,0,0:0:0:0:
320,192,158669,1,0,0:0:0:0:
64,192,158731,1,0,0:0:0:0:
320,192,158792,1,0,0:0:0:0:
192,192,158792,1,0,0:0:0:0:
448,192,158854,1,0,0:0:0:0:
64,192,158854,1,0,0:0:0:0:
320,192,158915,1,0,0:0:0:0:
192,192,158976,1,0,0:0:0:0:
64,192,159038,1,0,0:0:0:0:
448,192,159038,1,0,0:0:0:0:
320,192,159099,1,0,0:0:0:0:
192,192,159099,1,0,0:0:0:0:
448,192,159161,1,0,0:0:0:0:
64,192,159222,1,0,0:0:0:0:
320,192,159284,1,0,0:0:0:0:
448,192,159345,1,0,0:0:0:0:
64,192,159407,1,0,0:0:0:0:
192,192,159407,1,0,0:0:0:0:
320,192,159468,1,0,0:0:0:0:
192,192,159529,1,0,0:0:0:0:
448,192,159591,1,0,0:0:0:0:
320,192,159591,1,0,0:0:0:0:
192,192,159652,1,0,0:0:0:0:
320,192,159714,1,0,0:0:0:0:
192,192,159775,1,0,0:0:0:0:
64,192,159775,1,0,0:0:0:0:
448,192,159837,1,0,0:0:0:0:
320,192,159898,1,0,0:0:0:0:
192,192,159960,1,0,0:0:0:0:
64,192,159960,1,0,0:0:0:0:
320,192,160021,1,0,0:0:0:0:
448,192,160021,1,0,0:0:0:0:
192,192,160082,1,0,0:0:0:0:
64,192,160144,1,0,0:0:0:0:
448,192,160205,1,0,0:0:0:0:
192,192,160267,1,0,0:0:0:0:
320,192,160267,1,0,0:0:0:0:
448,192,160328,1,0,0:0:0:0:
64,192,160328,1,0,0:0:0:0:
192,192,160390,1,0,0:0:0:0:
320,192,160451,1,0,0:0:0:0:
448,192,160512,1,0,0:0:0:0:
192,192,160512,1,0,0:0:0:0:
320,192,160574,1,0,0:0:0:0:
64,192,160574,1,0,0:0:0:0:
192,192,160635,1,0,0:0:0:0:
448,192,160697,1,0,0:0:0:0:
320,192,160758,1,0,0:0:0:0:
192,192,160820,1,0,0:0:0:0:
448,192,160881,1,0,0:0:0:0:
320,192,160881,1,0,0:0:0:0:
64,192,160943,1,0,0:0:0:0:
448,192,161004,1,0,0:0:0:0:
64,192,161065,1,0,0:0:0:0:
192,192,161065,1,0,0:0:0:0:
448,192,161127,1,0,0:0:0:0:
64,192,161188,1,0,0:0:0:0:
320,192,161250,1,0,0:0:0:0:
448,192,161250,1,0,0:0:0:0:
192,192,161311,1,0,0:0:0:0:
320,192,161373,1,0,0:0:0:0:
448,192,161434,1,0,0:0:0:0:
64,192,161434,1,0,0:0:0:0:
320,192,161496,1,0,0:0:0:0:
192,192,161496,1,0,0:0:0:0:
64,192,161557,1,0,0:0:0:0:
448,192,161618,1,0,0:0:0:0:
320,192,161680,1,0,0:0:0:0:
448,192,161741,1,0,0:0:0:0:
192,192,161741,1,0,0:0:0:0:
64,192,161803,1,0,0:0:0:0:
320,192,161803,1,0,0:0:0:0:
192,192,161864,1,0,0:0:0:0:
448,192,161926,1,0,0:0:0:0:
64,192,161987,1,0,0:0:0:0:
192,192,161987,1,0,0:0:0:0:
448,192,162049,1,0,0:0:0:0:
320,192,162049,1,0,0:0:0:0:
64,192,162110,1,0,0:0:0:0:
192,192,162171,1,0,0:0:0:0:
448,192,162233,1,0,0:0:0:0:
320,192,162294,1,0,0:0:0:0:
64,192,162356,1,0,0:0:0:0:
192,192,162356,1,0,0:0:0:0:
448,192,162417,1,0,0:0:0:0:
192,192,162479,1,0,0:0:0:0:
448,192,162540,1,0,0:0:0:0:
320,192,162540,1,0,0:0:0:0:
64,192,162602,1,0,0:0:0:0:
320,192,162663,1,0,0:0:0:0:
64,192,162724,1,0,0:0:0:0:
192,192,162724,1,0,0:0:0:0:
448,192,162786,1,0,0:0:0:0:
320,192,162847,1,0,0:0:0:0:
448,192,162909,1,0,0:0:0:0:
64,192,162909,1,0,0:0:0:0:
320,192,162970,1,0,0:0:0:0:
192,192,162970,1,0,0:0:0:0:
64,192,163032,1,0,0:0:0:0:
448,192,163093,1,0,0:0:0:0:
320,192,163155,1,0,0:0:0:0:
192,192,163216,1,0,0:0:0:0:
64,192,163216,1,0,0:0:0:0:
448,192,163277,1,0,0:0:0:0:
320,192,163277,1,0,0:0:0:0:
192,192,163339,1,0,0:0:0:0:
64,192,163339,1,0,0:0:0:0:
448,192,163400,1,0,0:0:0:0:
320,192,163400,1,0,0:0:0:0:
192,192,163462,1,0,0:0:0:0:
64,192,163523,1,0,0:0:0:0:
448,192,163585,1,0,0:0:0:0:
64,192,163646,1,0,0:0:0:0:
192,192,163646,1,0,0:0:0:0:
448,192,163708,1,0,0:0:0:0:
320,192,163708,1,0,0:0:0:0:
64,192,163769,1,0,0:0:0:0:
192,192,163769,1,0,0:0:0:0:
448,192,163830,1,0,0:0:0:0:
320,192,163830,1,0,0:0:0:0:
64,192,163892,1,0,0:0:0:0:
192,192,163892,1,0,0:0:0:0:
320,192,163953,1,0,0:0:0:0:
448,192,163953,1,0,0:0:0:0:
64,192,164015,1,0,0:0:0:0:
192,192,164015,1,0,0:0:0:0:
448,192,164076,1,0,0:0:0:0:
320,192,164076,1,0,0:0:0:0:
192,192,164138,1,0,0:0:0:0:
64,192,164138,1,0,0:0:0:0:
448,192,164199,1,0,0:0:0:0:
320,192,164199,1,0,0:0:0:0:
192,192,164261,1,0,0:0:0:0:
320,192,164322,1,0,0:0:0:0:
448,192,164383,1,0,0:0:0:0:
64,192,164383,1,0,0:0:0:0:
192,192,164445,1,0,0:0:0:0:
320,192,164445,1,0,0:0:0:0:
448,192,164506,1,0,0:0:0:0:
64,192,164568,1,0,0:0:0:0:
320,192,164629,1,0,0:0:0:0:
448,192,164691,1,0,0:0:0:0:
192,192,164691,1,0,0:0:0:0:
320,192,164752,1,0,0:0:0:0:
64,192,164752,1,0,0:0:0:0:
192,192,164814,1,0,0:0:0:0:
448,192,164875,1,0,0:0:0:0:
192,192,164936,1,0,0:0:0:0:
64,192,164936,1,0,0:0:0:0:
448,192,164998,1,0,0:0:0:0:
320,192,164998,1,0,0:0:0:0:
64,192,165059,1,0,0:0:0:0:
320,192,165121,1,0,0:0:0:0:
448,192,165182,1,0,0:0:0:0:
64,192,165244,1,0,0:0:0:0:
448,192,165305,1,0,0:0:0:0:
320,192,165305,1,0,0:0:0:0:
192,192,165367,1,0,0:0:0:0:
320,192,165428,1,0,0:0:0:0:
192,192,165489,1,0,0:0:0:0:
64,192,165489,1,0,0:0:0:0:
320,192,165551,1,0,0:0:0:0:
192,192,165612,1,0,0:0:0:0:
448,192,165674,1,0,0:0:0:0:
320,192,165674,1,0,0:0:0:0:
64,192,165735,1,0,0:0:0:0:
320,192,165797,1,0,0:0:0:0:
192,192,165858,1,0,0:0:0:0:
448,192,165858,1,0,0:0:0:0:
64,192,165920,1,0,0:0:0:0:
320,192,165920,1,0,0:0:0:0:
192,192,165981,1,0,0:0:0:0:
64,192,166042,1,0,0:0:0:0:
448,192,166104,1,0,0:0:0:0:
192,192,166165,1,0,0:0:0:0:
64,192,166165,1,0,0:0:0:0:
448,192,166227,1,0,0:0:0:0:
320,192,166227,1,0,0:0:0:0:
192,192,166288,1,0,0:0:0:0:
64,192,166350,1,0,0:0:0:0:
320,192,166411,1,0,0:0:0:0:
192,192,166411,1,0,0:0:0:0:
448,192,166473,1,0,0:0:0:0:
64,192,166473,1,0,0:0:0:0:
320,192,166534,1,0,0:0:0:0:
192,192,166595,1,0,0:0:0:0:
448,192,166657,1,0,0:0:0:0:
64,192,166718,1,0,0:0:0:0:
448,192,166780,1,0,0:0:0:0:
320,192,166780,1,0,0:0:0:0:
192,192,166841,1,0,0:0:0:0:
320,192,166903,1,0,0:0:0:0:
448,192,166964,1,0,0:0:0:0:
64,192,166964,1,0,0:0:0:0:
192,192,167026,1,0,0:0:0:0:
320,192,167087,1,0,0:0:0:0:
192,192,167148,1,0,0:0:0:0:
64,192,167148,1,0,0:0:0:0:
448,192,167210,1,0,0:0:0:0:
320,192,167271,1,0,0:0:0:0:
192,192,167333,1,0,0:0:0:0:
64,192,167333,1,0,0:0:0:0:
320,192,167394,1,0,0:0:0:0:
448,192,167394,1,0,0:0:0:0:
192,192,167456,1,0,0:0:0:0:
64,192,167517,1,0,0:0:0:0:
448,192,167579,1,0,0:0:0:0:
320,192,167640,1,0,0:0:0:0:
192,192,167640,1,0,0:0:0:0:
448,192,167701,1,0,0:0:0:0:
64,192,167701,1,0,0:0:0:0:
192,192,167763,1,0,0:0:0:0:
320,192,167824,1,0,0:0:0:0:
192,192,167886,1,0,0:0:0:0:
448,192,167886,1,0,0:0:0:0:
320,192,167947,1,0,0:0:0:0:
64,192,167947,1,0,0:0:0:0:
448,192,168009,1,0,0:0:0:0:
192,192,168070,1,0,0:0:0:0:
320,192,168132,1,0,0:0:0:0:
64,192,168193,1,0,0:0:0:0:
448,192,168254,1,0,0:0:0:0:
320,192,168254,1,0,0:0:0:0:
192,192,168316,1,0,0:0:0:0:
448,192,168377,1,0,0:0:0:0:
192,192,168439,1,0,0:0:0:0:
64,192,168439,1,0,0:0:0:0:
320,192,168500,1,0,0:0:0:0:
64,192,168562,1,0,0:0:0:0:
320,192,168623,1,0,0:0:0:0:
448,192,168623,1,0,0:0:0:0:
192,192,168685,1,0,0:0:0:0:
64,192,168746,1,0,0:0:0:0:
448,192,168807,1,0,0:0:0:0:
320,192,168807,1,0,0:0:0:0:
64,192,168869,1,0,0:0:0:0:
192,192,168869,1,0,0:0:0:0:
448,192,168930,1,0,0:0:0:0:
320,192,168992,1,0,0:0:0:0:
64,192,169053,1,0,0:0:0:0:
320,192,169115,1,0,0:0:0:0:
448,192,169115,1,0,0:0:0:0:
64,192,169176,1,0,0:0:0:0:
192,192,169176,1,0,0:0:0:0:
320,192,169238,1,0,0:0:0:0:
448,192,169299,1,0,0:0:0:0:
64,192,169360,1,0,0:0:0:0:
192,192,169360,1,0,0:0:0:0:
448,192,169913,1,0,0:0:0:0:
64,192,170098,1,0,0:0:0:0:
320,192,170098,1,0,0:0:0:0:
192,192,170190,1,0,0:0:0:0:
320,192,170282,1,0,0:0:0:0:
448,192,170282,1,0,0:0:0:0:
320,192,170466,1,0,0:0:0:0:
448,192,170466,1,0,0:0:0:0:
64,192,170559,1,0,0:0:0:0:
192,192,170651,1,0,0:0:0:0:
448,192,170651,1,0,0:0:0:0:
320,192,170681,1,0,0:0:0:0:
64,192,170712,1,0,0:0:0:0:
192,192,170835,1,0,0:0:0:0:
320,192,170835,1,0,0:0:0:0:
64,192,170927,1,0,0:0:0:0:
192,192,171019,1,0,0:0:0:0:
448,192,171019,1,0,0:0:0:0:
320,192,171204,1,0,0:0:0:0:
448,192,171204,1,0,0:0:0:0:
64,192,171296,1,0,0:0:0:0:
192,192,171388,1,0,0:0:0:0:
320,192,171388,1,0,0:0:0:0:
64,192,171572,1,0,0:0:0:0:
320,192,171572,1,0,0:0:0:0:
192,192,171665,1,0,0:0:0:0:
64,192,171757,1,0,0:0:0:0:
448,192,171757,1,0,0:0:0:0:
320,192,171941,1,0,0:0:0:0:
448,192,171941,1,0,0:0:0:0:
192,192,172033,1,0,0:0:0:0:
64,192,172125,1,0,0:0:0:0:
320,192,172125,1,0,0:0:0:0:
448,192,172156,1,0,0:0:0:0:
192,192,172187,1,0,0:0:0:0:
320,192,172310,1,0,0:0:0:0:
448,192,172310,1,0,0:0:0:0:
64,192,172402,1,0,0:0:0:0:
192,192,172494,1,0,0:0:0:0:
448,192,172494,1,0,0:0:0:0:
192,192,172678,1,0,0:0:0:0:
320,192,172678,1,0,0:0:0:0:
448,192,172771,1,0,0:0:0:0:
64,192,172863,1,0,0:0:0:0:
320,192,172863,1,0,0:0:0:0:
64,192,173047,1,0,0:0:0:0:
320,192,173047,1,0,0:0:0:0:
192,192,173078,1,0,0:0:0:0:
448,192,173139,1,0,0:0:0:0:
64,192,173231,1,0,0:0:0:0:
192,192,173231,1,0,0:0:0:0:
192,192,173416,1,0,0:0:0:0:
320,192,173416,1,0,0:0:0:0:
448,192,173508,1,0,0:0:0:0:
64,192,173600,1,0,0:0:0:0:
320,192,173600,1,0,0:0:0:0:
192,192,173784,1,0,0:0:0:0:
64,192,173784,1,0,0:0:0:0:
448,192,173877,1,0,0:0:0:0:
320,192,173969,1,0,0:0:0:0:
64,192,173969,1,0,0:0:0:0:
320,192,174153,1,0,0:0:0:0:
448,192,174153,1,0,0:0:0:0:
192,192,174245,1,0,0:0:0:0:
64,192,174337,1,0,0:0:0:0:
448,192,174337,1,0,0:0:0:0:
320,192,174399,1,0,0:0:0:0:
192,192,174460,1,0,0:0:0:0:
64,192,174522,1,0,0:0:0:0:
448,192,174583,1,0,0:0:0:0:
320,192,174645,1,0,0:0:0:0:
448,192,174706,1,0,0:0:0:0:
64,192,174767,1,0,0:0:0:0:
192,192,174829,1,0,0:0:0:0:
320,192,174890,1,0,0:0:0:0:
448,192,174952,1,0,0:0:0:0:
64,192,175013,1,0,0:0:0:0:
320,192,175075,1,0,0:0:0:0:
192,192,175136,1,0,0:0:0:0:
64,192,175198,1,0,0:0:0:0:
448,192,175259,1,0,0:0:0:0:
320,192,175320,1,0,0:0:0:0:
192,192,175382,1,0,0:0:0:0:
320,192,175443,1,0,0:0:0:0:
448,192,175505,1,0,0:0:0:0:
64,192,175566,1,0,0:0:0:0:
320,192,175628,1,0,0:0:0:0:
448,192,175628,1,0,0:0:0:0:
192,192,175720,1,0,0:0:0:0:
64,192,175720,1,0,0:0:0:0:
320,192,175812,1,0,0:0:0:0:
448,192,175812,1,0,0:0:0:0:
192,192,175904,1,0,0:0:0:0:
64,192,175904,1,0,0:0:0:0:
320,192,175996,1,0,0:0:0:0:
448,192,175996,1,0,0:0:0:0:
192,192,176058,1,0,0:0:0:0:
64,192,176119,1,0,0:0:0:0:
320,192,176181,1,0,0:0:0:0:
448,192,176181,1,0,0:0:0:0:
192,192,176242,1,0,0:0:0:0:
320,192,176304,1,0,0:0:0:0:
64,192,176365,1,0,0:0:0:0:
448,192,176365,1,0,0:0:0:0:
192,192,176426,1,0,0:0:0:0:
320,192,176488,1,0,0:0:0:0:
192,192,176549,1,0,0:0:0:0:
64,192,176549,1,0,0:0:0:0:
448,192,176595,1,0,0:0:0:0:
320,192,176642,1,0,0:0:0:0:
64,192,176688,1,0,0:0:0:0:
192,192,176734,1,0,0:0:0:0:
448,192,176795,1,0,0:0:0:0:
64,192,176857,1,0,0:0:0:0:
320,192,176918,1,0,0:0:0:0:
192,192,176918,1,0,0:0:0:0:
448,192,176979,1,0,0:0:0:0:
64,192,177041,1,0,0:0:0:0:
192,192,177102,1,0,0:0:0:0:
448,192,177102,1,0,0:0:0:0:
320,192,177164,1,0,0:0:0:0:
64,192,177225,1,0,0:0:0:0:
320,192,177287,1,0,0:0:0:0:
448,192,177287,1,0,0:0:0:0:
192,192,177348,1,0,0:0:0:0:
64,192,177410,1,0,0:0:0:0:
192,192,177471,1,0,0:0:0:0:
448,192,177471,1,0,0:0:0:0:
320,192,177532,1,0,0:0:0:0:
64,192,177594,1,0,0:0:0:0:
320,192,177655,1,0,0:0:0:0:
448,192,177655,1,0,0:0:0:0:
192,192,177717,1,0,0:0:0:0:
64,192,177778,1,0,0:0:0:0:
448,192,177840,1,0,0:0:0:0:
320,192,177840,1,0,0:0:0:0:
192,192,177901,1,0,0:0:0:0:
320,192,177963,1,0,0:0:0:0:
448,192,178024,1,0,0:0:0:0:
64,192,178024,1,0,0:0:0:0:
192,192,178085,1,0,0:0:0:0:
64,192,178147,1,0,0:0:0:0:
320,192,178208,1,0,0:0:0:0:
192,192,178270,1,0,0:0:0:0:
448,192,178331,1,0,0:0:0:0:
64,192,178393,1,0,0:0:0:0:
192,192,178393,1,0,0:0:0:0:
320,192,178454,1,0,0:0:0:0:
448,192,178516,1,0,0:0:0:0:
64,192,178577,1,0,0:0:0:0:
320,192,178577,1,0,0:0:0:0:
192,192,178638,1,0,0:0:0:0:
448,192,178700,1,0,0:0:0:0:
320,192,178761,1,0,0:0:0:0:
192,192,178761,1,0,0:0:0:0:
64,192,178823,1,0,0:0:0:0:
448,192,178884,1,0,0:0:0:0:
64,192,178946,1,0,0:0:0:0:
192,192,178946,1,0,0:0:0:0:
320,192,179007,1,0,0:0:0:0:
448,192,179069,1,0,0:0:0:0:
192,192,179130,1,0,0:0:0:0:
320,192,179191,1,0,0:0:0:0:
64,192,179253,1,0,0:0:0:0:
192,192,179314,1,0,0:0:0:0:
448,192,179314,1,0,0:0:0:0:
320,192,179376,1,0,0:0:0:0:
448,192,179437,1,0,0:0:0:0:
192,192,179499,1,0,0:0:0:0:
64,192,179499,1,0,0:0:0:0:
320,192,179560,1,0,0:0:0:0:
448,192,179622,1,0,0:0:0:0:
192,192,179683,1,0,0:0:0:0:
320,192,179744,1,0,0:0:0:0:
64,192,179806,1,0,0:0:0:0:
192,192,179867,1,0,0:0:0:0:
448,192,179867,1,0,0:0:0:0:
320,192,179929,1,0,0:0:0:0:
64,192,179990,1,0,0:0:0:0:
448,192,180052,1,0,0:0:0:0:
320,192,180052,1,0,0:0:0:0:
192,192,180144,1,0,0:0:0:0:
64,192,180144,1,0,0:0:0:0:
320,192,180236,1,0,0:0:0:0:
448,192,180236,1,0,0:0:0:0:
64,192,180605,1,0,0:0:0:0:
448,192,180605,1,0,0:0:0:0:
64,192,180973,1,0,0:0:0:0:
320,192,180973,1,0,0:0:0:0:
192,192,181342,1,0,0:0:0:0:
448,192,181342,1,0,0:0:0:0:
320,192,181711,1,0,0:0:0:0:
64,192,181895,1,0,0:0:0:0:
448,192,181895,1,0,0:0:0:0:
192,192,181895,1,0,0:0:0:0:
320,192,182079,1,0,0:0:0:0:
192,192,182264,1,0,0:0:0:0:
448,192,182448,1,0,0:0:0:0:
320,192,182632,1,0,0:0:0:0:
64,192,182632,1,0,0:0:0:0:
192,192,182817,1,0,0:0:0:0:
320,192,183001,1,0,0:0:0:0:
448,192,183185,1,0,0:0:0:0:
320,192,183370,1,0,0:0:0:0:
64,192,183370,1,0,0:0:0:0:
192,192,183554,1,0,0:0:0:0:
320,192,183738,1,0,0:0:0:0:
192,192,183923,1,0,0:0:0:0:
448,192,184107,1,0,0:0:0:0:
64,192,184107,1,0,0:0:0:0:
320,192,184291,1,0,0:0:0:0:
192,192,184476,1,0,0:0:0:0:
192,192,184660,1,0,0:0:0:0:
320,192,184844,1,0,0:0:0:0:
448,192,184844,1,0,0:0:0:0:
64,192,185029,1,0,0:0:0:0:
192,192,185213,1,0,0:0:0:0:
320,192,185213,1,0,0:0:0:0:
320,192,185397,1,0,0:0:0:0:
64,192,185397,1,0,0:0:0:0:
448,192,185582,1,0,0:0:0:0:
192,192,185582,1,0,0:0:0:0:
64,192,185766,1,0,0:0:0:0:
320,192,185766,1,0,0:0:0:0:
320,192,185950,1,0,0:0:0:0:
448,192,185950,1,0,0:0:0:0:
192,192,186135,1,0,0:0:0:0:
64,192,186135,1,0,0:0:0:0:
320,192,186319,1,0,0:0:0:0:
320,192,186503,1,0,0:0:0:0:
448,192,186503,1,0,0:0:0:0:
64,192,186595,1,0,0:0:0:0:
320,192,186780,1,0,0:0:0:0:
192,192,186872,1,0,0:0:0:0:
448,192,186872,1,0,0:0:0:0:
320,192,186964,1,0,0:0:0:0:
64,192,187056,1,0,0:0:0:0:
64,192,187241,1,0,0:0:0:0:
448,192,187241,1,0,0:0:0:0:
320,192,187425,1,0,0:0:0:0:
192,192,187609,1,0,0:0:0:0:
64,192,187701,1,0,0:0:0:0:
192,192,187794,1,0,0:0:0:0:
448,192,187794,1,0,0:0:0:0:
320,192,187794,1,0,0:0:0:0:
320,192,187978,1,0,0:0:0:0:
448,192,188162,1,0,0:0:0:0:
192,192,188162,1,0,0:0:0:0:
320,192,188254,1,0,0:0:0:0:
64,192,188347,1,0,0:0:0:0:
192,192,188439,1,0,0:0:0:0:
448,192,188531,1,0,0:0:0:0:
320,192,188531,1,0,0:0:0:0:
64,192,188531,1,0,0:0:0:0:
64,192,188715,1,0,0:0:0:0:
192,192,188715,1,0,0:0:0:0:
448,192,188900,1,0,0:0:0:0:
192,192,188900,1,0,0:0:0:0:
320,192,188992,1,0,0:0:0:0:
64,192,189084,1,0,0:0:0:0:
192,192,189084,1,0,0:0:0:0:
448,192,189176,1,0,0:0:0:0:
192,192,189268,1,0,0:0:0:0:
320,192,189268,1,0,0:0:0:0:
64,192,189268,1,0,0:0:0:0:
192,192,189453,1,0,0:0:0:0:
320,192,189453,1,0,0:0:0:0:
64,192,189545,1,0,0:0:0:0:
448,192,189637,1,0,0:0:0:0:
320,192,189637,1,0,0:0:0:0:
192,192,189729,1,0,0:0:0:0:
64,192,189821,1,0,0:0:0:0:
320,192,189821,1,0,0:0:0:0:
192,192,189913,1,0,0:0:0:0:
448,192,190006,1,0,0:0:0:0:
320,192,190006,1,0,0:0:0:0:
64,192,190006,1,0,0:0:0:0:
192,192,190190,1,0,0:0:0:0:
64,192,190190,1,0,0:0:0:0:
320,192,190282,1,0,0:0:0:0:
448,192,190374,1,0,0:0:0:0:
192,192,190374,1,0,0:0:0:0:
320,192,190559,1,0,0:0:0:0:
64,192,190559,1,0,0:0:0:0:
192,192,190651,1,0,0:0:0:0:
448,192,190743,1,0,0:0:0:0:
320,192,190743,1,0,0:0:0:0:
64,192,191112,1,0,0:0:0:0:
192,192,191112,1,0,0:0:0:0:
192,192,191296,1,0,0:0:0:0:
64,192,191296,1,0,0:0:0:0:
192,192,191665,1,0,0:0:0:0:
448,192,191665,1,0,0:0:0:0:
320,192,191849,1,0,0:0:0:0:
448,192,191849,1,0,0:0:0:0:
320,192,192033,1,0,0:0:0:0:
448,192,192033,1,0,0:0:0:0:
64,192,192033,1,0,0:0:0:0:
448,192,192402,1,0,0:0:0:0:
192,192,192402,1,0,0:0:0:0:
64,192,192586,5,0,0:0:0:0:
320,192,192586,1,0,0:0:0:0:
448,192,192771,5,0,0:0:0:0:
192,192,192771,1,0,0:0:0:0:
448,192,193139,1,0,0:0:0:0:
64,192,193139,1,0,0:0:0:0:
192,192,193692,5,0,0:0:0:0:
448,192,193692,1,0,0:0:0:0:
320,192,193738,1,0,0:0:0:0:
448,192,193784,1,0,0:0:0:0:
64,192,193830,1,0,0:0:0:0:
320,192,193877,1,0,0:0:0:0:
448,192,193923,1,0,0:0:0:0:
192,192,193969,1,0,0:0:0:0:
320,192,194015,1,0,0:0:0:0:
448,192,194061,1,0,0:0:0:0:
64,192,194107,1,0,0:0:0:0:
320,192,194153,1,0,0:0:0:0:
192,192,194199,1,0,0:0:0:0:
448,192,194245,1,0,0:0:0:0:
320,192,194291,1,0,0:0:0:0:
192,192,194337,1,0,0:0:0:0:
64,192,194383,1,0,0:0:0:0:
320,192,194430,1,0,0:0:0:0:
192,192,194476,1,0,0:0:0:0:
64,192,194522,1,0,0:0:0:0:
448,192,194568,1,0,0:0:0:0:
192,192,194614,1,0,0:0:0:0:
320,192,194660,1,0,0:0:0:0:
448,192,194706,1,0,0:0:0:0:
64,192,194752,1,0,0:0:0:0:
320,192,194798,1,0,0:0:0:0:
448,192,194844,1,0,0:0:0:0:
192,192,194890,1,0,0:0:0:0:
64,192,194936,1,0,0:0:0:0:
320,192,194983,1,0,0:0:0:0:
192,192,195029,1,0,0:0:0:0:
64,192,195075,1,0,0:0:0:0:
448,192,195121,1,0,0:0:0:0:
320,192,195167,1,0,0:0:0:0:
192,192,195213,1,0,0:0:0:0:
64,192,195259,1,0,0:0:0:0:
448,192,195305,1,0,0:0:0:0:
192,192,195351,1,0,0:0:0:0:
320,192,195397,1,0,0:0:0:0:
448,192,195443,1,0,0:0:0:0:
64,192,195489,1,0,0:0:0:0:
192,192,195536,1,0,0:0:0:0:
320,192,195582,1,0,0:0:0:0:
64,192,195628,1,0,0:0:0:0:
448,192,195674,1,0,0:0:0:0:
192,192,195720,1,0,0:0:0:0:
320,192,195766,1,0,0:0:0:0:
448,192,195812,1,0,0:0:0:0:
64,192,195858,1,0,0:0:0:0:
192,192,195904,1,0,0:0:0:0:
320,192,195950,1,0,0:0:0:0:
448,192,195996,1,0,0:0:0:0:
64,192,196042,1,0,0:0:0:0:
320,192,196089,1,0,0:0:0:0:
192,192,196135,1,0,0:0:0:0:
64,192,196181,1,0,0:0:0:0:
448,192,196227,1,0,0:0:0:0:
192,192,196273,1,0,0:0:0:0:
320,192,196319,1,0,0:0:0:0:
448,192,196365,1,0,0:0:0:0:
64,192,196411,1,0,0:0:0:0:
320,192,196457,1,0,0:0:0:0:
192,192,196503,1,0,0:0:0:0:
64,192,196549,1,0,0:0:0:0:
448,192,196595,1,0,0:0:0:0:
192,192,196642,1,0,0:0:0:0:
320,192,196688,1,0,0:0:0:0:
192,192,196734,1,0,0:0:0:0:
320,192,196780,1,0,0:0:0:0:
64,192,196826,1,0,0:0:0:0:
448,192,196872,1,0,0:0:0:0:
320,192,196918,1,0,0:0:0:0:
192,192,196964,1,0,0:0:0:0:
448,192,197010,1,0,0:0:0:0:
64,192,197056,1,0,0:0:0:0:
320,192,197102,1,0,0:0:0:0:
448,192,197148,1,0,0:0:0:0:
192,192,197195,1,0,0:0:0:0:
320,192,197241,1,0,0:0:0:0:
64,192,197287,1,0,0:0:0:0:
192,192,197333,1,0,0:0:0:0:
448,192,197379,1,0,0:0:0:0:
64,192,197425,1,0,0:0:0:0:
192,192,197471,1,0,0:0:0:0:
320,192,197517,1,0,0:0:0:0:
448,192,197563,1,0,0:0:0:0:
192,192,197609,1,0,0:0:0:0:
320,192,197655,1,0,0:0:0:0:
64,192,197701,1,0,0:0:0:0:
448,192,197748,1,0,0:0:0:0:
192,192,197794,1,0,0:0:0:0:
320,192,197840,1,0,0:0:0:0:
448,192,197886,1,0,0:0:0:0:
64,192,197932,1,0,0:0:0:0:
192,192,197978,1,0,0:0:0:0:
64,192,198024,1,0,0:0:0:0:
192,192,198070,1,0,0:0:0:0:
448,192,198116,1,0,0:0:0:0:
320,192,198162,1,0,0:0:0:0:
64,192,198208,1,0,0:0:0:0:
192,192,198254,1,0,0:0:0:0:
448,192,198301,1,0,0:0:0:0:
320,192,198347,1,0,0:0:0:0:
192,192,198393,1,0,0:0:0:0:
448,192,198439,1,0,0:0:0:0:
320,192,198485,1,0,0:0:0:0:
64,192,198531,1,0,0:0:0:0:
192,192,198577,1,0,0:0:0:0:
320,192,198623,1,0,0:0:0:0:
64,192,198669,1,0,0:0:0:0:
448,192,198715,1,0,0:0:0:0:
192,192,198761,1,0,0:0:0:0:
320,192,198807,1,0,0:0:0:0:
64,192,198854,1,0,0:0:0:0:
448,192,198900,1,0,0:0:0:0:
192,192,198946,1,0,0:0:0:0:
320,192,198992,1,0,0:0:0:0:
448,192,199038,1,0,0:0:0:0:
192,192,199084,1,0,0:0:0:0:
64,192,199130,1,0,0:0:0:0:
320,192,199176,1,0,0:0:0:0:
448,192,199222,1,0,0:0:0:0:
192,192,199314,1,0,0:0:0:0:
64,192,199337,1,0,0:0:0:0:
320,192,199407,1,0,0:0:0:0:
448,192,199430,1,0,0:0:0:0:
192,192,199499,1,0,0:0:0:0:
64,192,199522,1,0,0:0:0:0:
320,192,199591,1,0,0:0:0:0:
448,192,199614,1,0,0:0:0:0:
192,192,199637,1,0,0:0:0:0:
64,192,199683,1,0,0:0:0:0:
320,192,199729,1,0,0:0:0:0:
192,192,199775,1,0,0:0:0:0:
64,192,199821,1,0,0:0:0:0:
448,192,199867,1,0,0:0:0:0:
192,192,199913,1,0,0:0:0:0:
320,192,199960,1,0,0:0:0:0:
448,192,200006,1,0,0:0:0:0:
64,192,200052,1,0,0:0:0:0:
192,192,200098,1,0,0:0:0:0:
448,192,200144,1,0,0:0:0:0:
64,192,200190,1,0,0:0:0:0:
320,192,200236,1,0,0:0:0:0:
192,192,200282,1,0,0:0:0:0:
448,192,200328,1,0,0:0:0:0:
320,192,200374,1,0,0:0:0:0:
192,192,200420,1,0,0:0:0:0:
64,192,200466,1,0,0:0:0:0:
320,192,200512,1,0,0:0:0:0:
448,192,200559,1,0,0:0:0:0:
192,192,200605,1,0,0:0:0:0:
320,192,200651,1,0,0:0:0:0:
64,192,200697,1,0,0:0:0:0:
448,192,200743,1,0,0:0:0:0:
192,192,200789,1,0,0:0:0:0:
320,192,200835,1,0,0:0:0:0:
448,192,200881,1,0,0:0:0:0:
64,192,200927,1,0,0:0:0:0:
320,192,200973,1,0,0:0:0:0:
192,192,201019,1,0,0:0:0:0:
448,192,201065,1,0,0:0:0:0:
64,192,201112,1,0,0:0:0:0:
320,192,201158,1,0,0:0:0:0:
192,192,201204,1,0,0:0:0:0:
64,192,201250,1,0,0:0:0:0:
448,192,201296,1,0,0:0:0:0:
320,192,201342,1,0,0:0:0:0:
192,192,201388,1,0,0:0:0:0:
64,192,201434,1,0,0:0:0:0:
320,192,201480,1,0,0:0:0:0:
192,192,201526,1,0,0:0:0:0:
448,192,201572,1,0,0:0:0:0:
320,192,201618,1,0,0:0:0:0:
64,192,201665,1,0,0:0:0:0:
192,192,201711,1,0,0:0:0:0:
320,192,201757,1,0,0:0:0:0:
448,192,201803,1,0,0:0:0:0:
192,192,201849,1,0,0:0:0:0:
320,192,201895,1,0,0:0:0:0:
64,192,201941,1,0,0:0:0:0:
192,192,201987,1,0,0:0:0:0:
320,192,202033,1,0,0:0:0:0:
448,192,202079,1,0,0:0:0:0:
64,192,202125,1,0,0:0:0:0:
320,192,202171,1,0,0:0:0:0:
192,192,202218,1,0,0:0:0:0:
64,192,202264,1,0,0:0:0:0:
448,192,202310,1,0,0:0:0:0:
192,192,202356,1,0,0:0:0:0:
64,192,202402,1,0,0:0:0:0:
320,192,202448,1,0,0:0:0:0:
192,192,202494,1,0,0:0:0:0:
64,192,202540,1,0,0:0:0:0:
320,192,202586,1,0,0:0:0:0:
448,192,202632,1,0,0:0:0:0:
192,192,202678,1,0,0:0:0:0:
320,192,202724,1,0,0:0:0:0:
64,192,202771,1,0,0:0:0:0:
192,192,202817,1,0,0:0:0:0:
320,192,202863,1,0,0:0:0:0:
448,192,202909,1,0,0:0:0:0:
192,192,202955,1,0,0:0:0:0:
64,192,203001,1,0,0:0:0:0:
320,192,203047,1,0,0:0:0:0:
192,192,203093,1,0,0:0:0:0:
448,192,203139,1,0,0:0:0:0:
320,192,203185,1,0,0:0:0:0:
64,192,203231,1,0,0:0:0:0:
448,192,203277,1,0,0:0:0:0:
192,192,203324,1,0,0:0:0:0:
320,192,203370,1,0,0:0:0:0:
64,192,203416,1,0,0:0:0:0:
448,192,203462,1,0,0:0:0:0:
320,192,203508,1,0,0:0:0:0:
192,192,203554,1,0,0:0:0:0:
448,192,203600,1,0,0:0:0:0:
64,192,203646,1,0,0:0:0:0:
320,192,203692,1,0,0:0:0:0:
192,192,203738,1,0,0:0:0:0:
64,192,203784,1,0,0:0:0:0:
448,192,203830,1,0,0:0:0:0:
320,192,203877,1,0,0:0:0:0:
192,192,203923,1,0,0:0:0:0:
64,192,203969,1,0,0:0:0:0:
448,192,204015,1,0,0:0:0:0:
320,192,204061,1,0,0:0:0:0:
192,192,204107,1,0,0:0:0:0:
64,192,204153,1,0,0:0:0:0:
448,192,204199,1,0,0:0:0:0:
64,192,204245,1,0,0:0:0:0:
192,192,204291,1,0,0:0:0:0:
320,192,204337,1,0,0:0:0:0:
64,192,204383,1,0,0:0:0:0:
448,192,204430,1,0,0:0:0:0:
320,192,204476,1,0,0:0:0:0:
192,192,204522,1,0,0:0:0:0:
320,192,204568,1,0,0:0:0:0:
64,192,204614,1,0,0:0:0:0:
192,192,204660,1,0,0:0:0:0:
320,192,204706,1,0,0:0:0:0:
448,192,204752,1,0,0:0:0:0:
64,192,204798,1,0,0:0:0:0:
192,192,204844,1,0,0:0:0:0:
320,192,204890,1,0,0:0:0:0:
448,192,204936,1,0,0:0:0:0:
320,192,204983,1,0,0:0:0:0:
192,192,205029,1,0,0:0:0:0:
64,192,205075,1,0,0:0:0:0:
448,192,205121,1,0,0:0:0:0:
320,192,205144,1,0,0:0:0:0:
64,192,205213,1,0,0:0:0:0:
192,192,205236,1,0,0:0:0:0:
448,192,205305,1,0,0:0:0:0:
320,192,205328,1,0,0:0:0:0:
64,192,205397,1,0,0:0:0:0:
192,192,205420,1,0,0:0:0:0:
448,192,205489,1,0,0:0:0:0:
320,192,205489,1,0,0:0:0:0:
64,192,205551,1,0,0:0:0:0:
192,192,205612,1,0,0:0:0:0:
320,192,205674,1,0,0:0:0:0:
448,192,205674,1,0,0:0:0:0:
192,192,205735,1,0,0:0:0:0:
64,192,205797,1,0,0:0:0:0:
192,192,205858,1,0,0:0:0:0:
448,192,205858,1,0,0:0:0:0:
320,192,205920,1,0,0:0:0:0:
64,192,205981,1,0,0:0:0:0:
192,192,206042,1,0,0:0:0:0:
448,192,206042,1,0,0:0:0:0:
320,192,206104,1,0,0:0:0:0:
448,192,206165,1,0,0:0:0:0:
64,192,206227,1,0,0:0:0:0:
192,192,206227,1,0,0:0:0:0:
320,192,206288,1,0,0:0:0:0:
448,192,206350,1,0,0:0:0:0:
64,192,206411,1,0,0:0:0:0:
192,192,206411,1,0,0:0:0:0:
320,192,206473,1,0,0:0:0:0:
64,192,206534,1,0,0:0:0:0:
192,192,206595,1,0,0:0:0:0:
448,192,206595,1,0,0:0:0:0:
320,192,206657,1,0,0:0:0:0:
64,192,206718,1,0,0:0:0:0:
192,192,206780,1,0,0:0:0:0:
448,192,206780,1,0,0:0:0:0:
320,192,206841,1,0,0:0:0:0:
64,192,206903,1,0,0:0:0:0:
320,192,206964,1,0,0:0:0:0:
448,192,206964,1,0,0:0:0:0:
192,192,207026,1,0,0:0:0:0:
64,192,207087,1,0,0:0:0:0:
320,192,207148,1,0,0:0:0:0:
448,192,207148,1,0,0:0:0:0:
192,192,207210,1,0,0:0:0:0:
320,192,207271,1,0,0:0:0:0:
64,192,207333,1,0,0:0:0:0:
448,192,207333,1,0,0:0:0:0:
192,192,207394,1,0,0:0:0:0:
320,192,207456,1,0,0:0:0:0:
64,192,207517,1,0,0:0:0:0:
448,192,207579,1,0,0:0:0:0:
192,192,207640,1,0,0:0:0:0:
320,192,207701,1,0,0:0:0:0:
64,192,207701,1,0,0:0:0:0:
448,192,207763,1,0,0:0:0:0:
192,192,207824,1,0,0:0:0:0:
320,192,207886,1,0,0:0:0:0:
448,192,207886,1,0,0:0:0:0:
64,192,207947,1,0,0:0:0:0:
192,192,208009,1,0,0:0:0:0:
320,192,208070,1,0,0:0:0:0:
448,192,208070,1,0,0:0:0:0:
192,192,208132,1,0,0:0:0:0:
64,192,208193,1,0,0:0:0:0:
192,192,208254,1,0,0:0:0:0:
448,192,208254,1,0,0:0:0:0:
320,192,208316,1,0,0:0:0:0:
64,192,208377,1,0,0:0:0:0:
448,192,208439,1,0,0:0:0:0:
320,192,208439,1,0,0:0:0:0:
192,192,208500,1,0,0:0:0:0:
64,192,208562,1,0,0:0:0:0:
448,192,208623,1,0,0:0:0:0:
320,192,208685,1,0,0:0:0:0:
192,192,208746,1,0,0:0:0:0:
64,192,208807,1,0,0:0:0:0:
448,192,208807,1,0,0:0:0:0:
320,192,208869,1,0,0:0:0:0:
448,192,208930,1,0,0:0:0:0:
192,192,208992,1,0,0:0:0:0:
64,192,208992,1,0,0:0:0:0:
320,192,209053,1,0,0:0:0:0:
448,192,209115,1,0,0:0:0:0:
192,192,209176,1,0,0:0:0:0:
320,192,209238,1,0,0:0:0:0:
64,192,209299,1,0,0:0:0:0:
192,192,209360,1,0,0:0:0:0:
448,192,209360,1,0,0:0:0:0:
320,192,209422,1,0,0:0:0:0:
64,192,209483,1,0,0:0:0:0:
320,192,209545,1,0,0:0:0:0:
448,192,209545,1,0,0:0:0:0:
192,192,209606,1,0,0:0:0:0:
64,192,209668,1,0,0:0:0:0:
448,192,209729,1,0,0:0:0:0:
192,192,209775,1,0,0:0:0:0:
320,192,209821,1,0,0:0:0:0:
448,192,209867,1,0,0:0:0:0:
64,192,209913,1,0,0:0:0:0:
192,192,209960,1,0,0:0:0:0:
320,192,210006,1,0,0:0:0:0:
448,192,210052,1,0,0:0:0:0:
192,192,210144,1,0,0:0:0:0:
320,192,210190,1,0,0:0:0:0:
64,192,210236,1,0,0:0:0:0:
192,192,210282,1,0,0:0:0:0:
448,192,210328,1,0,0:0:0:0:
320,192,210374,1,0,0:0:0:0:
192,192,210420,1,0,0:0:0:0:
448,192,210466,1,0,0:0:0:0:
320,192,210512,1,0,0:0:0:0:
192,192,210559,1,0,0:0:0:0:
64,192,210605,1,0,0:0:0:0:
448,192,210651,1,0,0:0:0:0:
64,192,210697,1,0,0:0:0:0:
192,192,210743,1,0,0:0:0:0:
320,192,210789,1,0,0:0:0:0:
448,192,210835,1,0,0:0:0:0:
64,192,210881,1,0,0:0:0:0:
192,192,210927,1,0,0:0:0:0:
320,192,210973,1,0,0:0:0:0:
448,192,211019,1,0,0:0:0:0:
192,192,211112,1,0,0:0:0:0:
64,192,211112,1,0,0:0:0:0:
448,192,211204,1,0,0:0:0:0:
320,192,211204,1,0,0:0:0:0:
192,192,211296,1,0,0:0:0:0:
64,192,211296,1,0,0:0:0:0:
320,192,211388,1,0,0:0:0:0:
448,192,211388,1,0,0:0:0:0:
192,192,211450,1,0,0:0:0:0:
64,192,211511,1,0,0:0:0:0:
320,192,211572,1,0,0:0:0:0:
448,192,211572,1,0,0:0:0:0:
192,192,211634,1,0,0:0:0:0:
448,192,211695,1,0,0:0:0:0:
320,192,211757,1,0,0:0:0:0:
64,192,211757,1,0,0:0:0:0:
192,192,211818,1,0,0:0:0:0:
448,192,211880,1,0,0:0:0:0:
320,192,211941,1,0,0:0:0:0:
64,192,211941,1,0,0:0:0:0:
192,192,212003,1,0,0:0:0:0:
64,192,212064,1,0,0:0:0:0:
320,192,212125,1,0,0:0:0:0:
448,192,212125,1,0,0:0:0:0:
192,192,212187,1,0,0:0:0:0:
64,192,212248,1,0,0:0:0:0:
320,192,212310,1,0,0:0:0:0:
448,192,212310,1,0,0:0:0:0:
192,192,212371,1,0,0:0:0:0:
64,192,212433,1,0,0:0:0:0:
192,192,212494,1,0,0:0:0:0:
448,192,212494,1,0,0:0:0:0:
320,192,212556,1,0,0:0:0:0:
64,192,212617,1,0,0:0:0:0:
192,192,212678,1,0,0:0:0:0:
448,192,212678,1,0,0:0:0:0:
320,192,212740,1,0,0:0:0:0:
448,192,212801,1,0,0:0:0:0:
64,192,212863,1,0,0:0:0:0:
192,192,212863,1,0,0:0:0:0:
320,192,212924,1,0,0:0:0:0:
448,192,212986,1,0,0:0:0:0:
192,192,213047,1,0,0:0:0:0:
64,192,213047,1,0,0:0:0:0:
320,192,213109,1,0,0:0:0:0:
448,192,213170,1,0,0:0:0:0:
64,192,213231,1,0,0:0:0:0:
320,192,213231,1,0,0:0:0:0:
192,192,213293,1,0,0:0:0:0:
448,192,213354,1,0,0:0:0:0:
320,192,213416,1,0,0:0:0:0:
64,192,213477,1,0,0:0:0:0:
448,192,213539,1,0,0:0:0:0:
192,192,213600,1,0,0:0:0:0:
320,192,213662,1,0,0:0:0:0:
448,192,213723,1,0,0:0:0:0:
64,192,213723,1,0,0:0:0:0:
192,192,213784,1,0,0:0:0:0:
320,192,213846,1,0,0:0:0:0:
448,192,213907,1,0,0:0:0:0:
192,192,213969,1,0,0:0:0:0:
64,192,213969,1,0,0:0:0:0:
320,192,214030,1,0,0:0:0:0:
448,192,214092,1,0,0:0:0:0:
192,192,214153,1,0,0:0:0:0:
64,192,214153,1,0,0:0:0:0:
448,192,214214,1,0,0:0:0:0:
320,192,214276,1,0,0:0:0:0:
192,192,214337,1,0,0:0:0:0:
448,192,214337,1,0,0:0:0:0:
64,192,214399,1,0,0:0:0:0:
320,192,214460,1,0,0:0:0:0:
448,192,214522,1,0,0:0:0:0:
192,192,214583,1,0,0:0:0:0:
64,192,214645,1,0,0:0:0:0:
320,192,214706,1,0,0:0:0:0:
448,192,214706,1,0,0:0:0:0:
192,192,214767,1,0,0:0:0:0:
448,192,214829,1,0,0:0:0:0:
320,192,214890,1,0,0:0:0:0:
64,192,214890,1,0,0:0:0:0:
192,192,214952,1,0,0:0:0:0:
448,192,215013,1,0,0:0:0:0:
320,192,215075,1,0,0:0:0:0:
64,192,215136,1,0,0:0:0:0:
448,192,215198,1,0,0:0:0:0:
192,192,215259,1,0,0:0:0:0:
320,192,215259,1,0,0:0:0:0:
448,192,215582,1,0,0:0:0:0:
320,192,215628,1,0,0:0:0:0:
192,192,215674,1,0,0:0:0:0:
64,192,215720,1,0,0:0:0:0:
448,192,215766,1,0,0:0:0:0:
320,192,215812,1,0,0:0:0:0:
192,192,215858,1,0,0:0:0:0:
64,192,215904,1,0,0:0:0:0:
448,192,215950,1,0,0:0:0:0:
64,192,215996,1,0,0:0:0:0:
192,192,216042,1,0,0:0:0:0:
320,192,216089,1,0,0:0:0:0:
64,192,216135,1,0,0:0:0:0:
448,192,216181,1,0,0:0:0:0:
320,192,216227,1,0,0:0:0:0:
192,192,216273,1,0,0:0:0:0:
320,192,216319,1,0,0:0:0:0:
64,192,216365,1,0,0:0:0:0:
192,192,216411,1,0,0:0:0:0:
320,192,216457,5,0,0:0:0:0:
448,192,216503,1,0,0:0:0:0:
64,192,216549,1,0,0:0:0:0:
192,192,216595,1,0,0:0:0:0:
320,192,216642,1,0,0:0:0:0:
448,192,216688,1,0,0:0:0:0:
320,192,216734,1,0,0:0:0:0:
192,192,216780,1,0,0:0:0:0:
64,192,216826,1,0,0:0:0:0:
448,192,216872,1,0,0:0:0:0:
320,192,216918,1,0,0:0:0:0:
192,192,217102,1,0,0:0:0:0:
64,192,217195,1,0,0:0:0:0:
320,192,217287,1,0,0:0:0:0:
320,192,217655,5,0,0:0:0:0:
320,192,217840,1,0,0:0:0:0:
320,192,218024,1,0,0:0:0:0:
320,192,218208,1,0,0:0:0:0:
320,192,218393,1,0,0:0:0:0:
192,192,218485,1,0,0:0:0:0:
320,192,218577,1,0,0:0:0:0:
192,192,218669,1,0,0:0:0:0:
64,192,218761,1,0,0:0:0:0:
448,192,218761,1,0,0:0:0:0:
320,192,218823,1,0,0:0:0:0:
192,192,218884,1,0,0:0:0:0:
448,192,218946,1,0,0:0:0:0:
320,192,218946,1,0,0:0:0:0:
64,192,219007,1,0,0:0:0:0:
192,192,219007,1,0,0:0:0:0:
448,192,219069,1,0,0:0:0:0:
320,192,219130,1,0,0:0:0:0:
64,192,219191,1,0,0:0:0:0:
192,192,219253,1,0,0:0:0:0:
320,192,219253,1,0,0:0:0:0:
64,192,219314,1,0,0:0:0:0:
448,192,219314,1,0,0:0:0:0:
320,192,219376,1,0,0:0:0:0:
192,192,219437,1,0,0:0:0:0:
448,192,219499,1,0,0:0:0:0:
64,192,219499,1,0,0:0:0:0:
192,192,219560,1,0,0:0:0:0:
320,192,219560,1,0,0:0:0:0:
448,192,219622,1,0,0:0:0:0:
64,192,219683,1,0,0:0:0:0:
320,192,219744,1,0,0:0:0:0:
448,192,219806,1,0,0:0:0:0:
192,192,219867,1,0,0:0:0:0:
64,192,219867,1,0,0:0:0:0:
320,192,219929,1,0,0:0:0:0:
192,192,219990,1,0,0:0:0:0:
320,192,220052,1,0,0:0:0:0:
448,192,220052,1,0,0:0:0:0:
192,192,220113,1,0,0:0:0:0:
320,192,220175,1,0,0:0:0:0:
64,192,220236,1,0,0:0:0:0:
192,192,220236,1,0,0:0:0:0:
448,192,220297,1,0,0:0:0:0:
320,192,220359,1,0,0:0:0:0:
64,192,220420,1,0,0:0:0:0:
192,192,220420,1,0,0:0:0:0:
448,192,220482,1,0,0:0:0:0:
320,192,220482,1,0,0:0:0:0:
192,192,220543,1,0,0:0:0:0:
64,192,220605,1,0,0:0:0:0:
448,192,220666,1,0,0:0:0:0:
320,192,220728,1,0,0:0:0:0:
192,192,220728,1,0,0:0:0:0:
64,192,220789,1,0,0:0:0:0:
448,192,220789,1,0,0:0:0:0:
192,192,220850,1,0,0:0:0:0:
320,192,220912,1,0,0:0:0:0:
192,192,220973,1,0,0:0:0:0:
448,192,220973,1,0,0:0:0:0:
64,192,221035,1,0,0:0:0:0:
320,192,221035,1,0,0:0:0:0:
192,192,221096,1,0,0:0:0:0:
448,192,221158,1,0,0:0:0:0:
320,192,221219,1,0,0:0:0:0:
192,192,221281,1,0,0:0:0:0:
320,192,221342,1,0,0:0:0:0:
448,192,221342,1,0,0:0:0:0:
64,192,221403,1,0,0:0:0:0:
448,192,221465,1,0,0:0:0:0:
192,192,221526,1,0,0:0:0:0:
64,192,221526,1,0,0:0:0:0:
448,192,221588,1,0,0:0:0:0:
64,192,221649,1,0,0:0:0:0:
448,192,221711,1,0,0:0:0:0:
320,192,221711,1,0,0:0:0:0:
192,192,221772,1,0,0:0:0:0:
320,192,221834,1,0,0:0:0:0:
64,192,221895,1,0,0:0:0:0:
448,192,221895,1,0,0:0:0:0:
192,192,221956,1,0,0:0:0:0:
320,192,221956,1,0,0:0:0:0:
64,192,222018,1,0,0:0:0:0:
448,192,222079,1,0,0:0:0:0:
320,192,222141,1,0,0:0:0:0:
192,192,222202,1,0,0:0:0:0:
448,192,222202,1,0,0:0:0:0:
320,192,222264,1,0,0:0:0:0:
64,192,222264,1,0,0:0:0:0:
192,192,222325,1,0,0:0:0:0:
448,192,222387,1,0,0:0:0:0:
192,192,222448,1,0,0:0:0:0:
64,192,222448,1,0,0:0:0:0:
320,192,222509,1,0,0:0:0:0:
448,192,222509,1,0,0:0:0:0:
64,192,222571,1,0,0:0:0:0:
192,192,222632,1,0,0:0:0:0:
448,192,222694,1,0,0:0:0:0:
320,192,222755,1,0,0:0:0:0:
192,192,222817,1,0,0:0:0:0:
64,192,222817,1,0,0:0:0:0:
448,192,222878,1,0,0:0:0:0:
192,192,222940,1,0,0:0:0:0:
320,192,223001,1,0,0:0:0:0:
448,192,223001,1,0,0:0:0:0:
64,192,223062,1,0,0:0:0:0:
320,192,223124,1,0,0:0:0:0:
192,192,223185,1,0,0:0:0:0:
64,192,223185,1,0,0:0:0:0:
448,192,223247,1,0,0:0:0:0:
320,192,223308,1,0,0:0:0:0:
64,192,223370,1,0,0:0:0:0:
448,192,223370,1,0,0:0:0:0:
192,192,223431,1,0,0:0:0:0:
320,192,223431,1,0,0:0:0:0:
64,192,223493,1,0,0:0:0:0:
448,192,223554,1,0,0:0:0:0:
320,192,223615,1,0,0:0:0:0:
64,192,223677,1,0,0:0:0:0:
192,192,223677,1,0,0:0:0:0:
320,192,223738,1,0,0:0:0:0:
448,192,223738,1,0,0:0:0:0:
64,192,223800,1,0,0:0:0:0:
192,192,223800,1,0,0:0:0:0:
320,192,223861,1,0,0:0:0:0:
448,192,223861,1,0,0:0:0:0:
192,192,223923,1,0,0:0:0:0:
64,192,223984,1,0,0:0:0:0:
448,192,224046,1,0,0:0:0:0:
192,192,224107,1,0,0:0:0:0:
64,192,224107,1,0,0:0:0:0:
320,192,224168,1,0,0:0:0:0:
448,192,224168,1,0,0:0:0:0:
192,192,224230,1,0,0:0:0:0:
64,192,224230,1,0,0:0:0:0:
320,192,224291,1,0,0:0:0:0:
448,192,224291,1,0,0:0:0:0:
192,192,224353,1,0,0:0:0:0:
64,192,224353,1,0,0:0:0:0:
448,192,224414,1,0,0:0:0:0:
320,192,224414,1,0,0:0:0:0:
192,192,224476,1,0,0:0:0:0:
64,192,224476,1,0,0:0:0:0:
320,192,224537,1,0,0:0:0:0:
448,192,224537,1,0,0:0:0:0:
64,192,224599,1,0,0:0:0:0:
192,192,224599,1,0,0:0:0:0:
448,192,224660,1,0,0:0:0:0:
320,192,224660,1,0,0:0:0:0:
64,192,224844,1,0,0:0:0:0:
448,192,224844,1,0,0:0:0:0:
320,192,224906,1,0,0:0:0:0:
192,192,224906,1,0,0:0:0:0:
192,192,225152,1,0,0:0:0:0:
448,192,225152,1,0,0:0:0:0:
64,192,225213,1,0,0:0:0:0:
320,192,225213,1,0,0:0:0:0:
64,192,225397,1,0,0:0:0:0:
192,192,225397,1,0,0:0:0:0:
320,192,225459,1,0,0:0:0:0:
448,192,225459,1,0,0:0:0:0:
64,192,225705,1,0,0:0:0:0:
192,192,225705,1,0,0:0:0:0:
320,192,225766,1,0,0:0:0:0:
448,192,225766,1,0,0:0:0:0:
320,192,225889,1,0,0:0:0:0:
448,192,225889,1,0,0:0:0:0:
64,192,225950,1,0,0:0:0:0:
192,192,225950,1,0,0:0:0:0:
320,192,226135,1,0,0:0:0:0:
448,192,226135,1,0,0:0:0:0:
448,192,226319,1,0,0:0:0:0:
192,192,226319,1,0,0:0:0:0:
320,192,226380,1,0,0:0:0:0:
64,192,226380,1,0,0:0:0:0:
64,192,226626,1,0,0:0:0:0:
192,192,226626,1,0,0:0:0:0:
320,192,226688,1,0,0:0:0:0:
448,192,226688,1,0,0:0:0:0:
192,192,226872,1,0,0:0:0:0:
320,192,226872,1,0,0:0:0:0:
64,192,226933,1,0,0:0:0:0:
448,192,226933,1,0,0:0:0:0:
448,192,227179,1,0,0:0:0:0:
64,192,227179,1,0,0:0:0:0:
320,192,227241,1,0,0:0:0:0:
192,192,227241,1,0,0:0:0:0:
192,192,227363,1,0,0:0:0:0:
320,192,227363,1,0,0:0:0:0:
64,192,227425,1,0,0:0:0:0:
448,192,227425,1,0,0:0:0:0:
64,192,227609,1,0,0:0:0:0:
192,192,227609,1,0,0:0:0:0:
64,192,227794,1,0,0:0:0:0:
192,192,227794,1,0,0:0:0:0:
448,192,227855,1,0,0:0:0:0:
320,192,227855,1,0,0:0:0:0:
192,192,228101,1,0,0:0:0:0:
320,192,228101,1,0,0:0:0:0:
64,192,228162,1,0,0:0:0:0:
448,192,228162,1,0,0:0:0:0:
448,192,228347,1,0,0:0:0:0:
192,192,228347,1,0,0:0:0:0:
64,192,228408,1,0,0:0:0:0:
320,192,228408,1,0,0:0:0:0:
192,192,228654,1,0,0:0:0:0:
64,192,228654,1,0,0:0:0:0:
320,192,228715,1,0,0:0:0:0:
448,192,228715,1,0,0:0:0:0:
320,192,228838,1,0,0:0:0:0:
448,192,228838,1,0,0:0:0:0:
64,192,228900,1,0,0:0:0:0:
192,192,228900,1,0,0:0:0:0:
448,192,229084,1,0,0:0:0:0:
320,192,229084,1,0,0:0:0:0:
320,192,229268,1,0,0:0:0:0:
448,192,229268,1,0,0:0:0:0:
192,192,229330,1,0,0:0:0:0:
64,192,229330,1,0,0:0:0:0:
448,192,229575,1,0,0:0:0:0:
320,192,229575,1,0,0:0:0:0:
192,192,229637,1,0,0:0:0:0:
64,192,229637,1,0,0:0:0:0:
320,192,229760,1,0,0:0:0:0:
64,192,229760,1,0,0:0:0:0:
448,192,229821,1,0,0:0:0:0:
192,192,229821,1,0,0:0:0:0:
320,192,230559,5,0,0:0:0:0:
64,192,230559,1,0,0:0:0:0:
320,192,230743,1,0,0:0:0:0:
192,192,230835,1,0,0:0:0:0:
64,192,230927,1,0,0:0:0:0:
448,192,231019,1,0,0:0:0:0:
320,192,231204,1,0,0:0:0:0:
192,192,231296,1,0,0:0:0:0:
64,192,231296,1,0,0:0:0:0:
448,192,231357,1,0,0:0:0:0:
320,192,231419,1,0,0:0:0:0:
192,192,231480,1,0,0:0:0:0:
448,192,231572,1,0,0:0:0:0:
192,192,231665,1,0,0:0:0:0:
64,192,231665,1,0,0:0:0:0:
448,192,231849,1,0,0:0:0:0:
320,192,232033,1,0,0:0:0:0:
64,192,232033,1,0,0:0:0:0:
192,192,232125,1,0,0:0:0:0:
448,192,232310,1,0,0:0:0:0:
64,192,232402,1,0,0:0:0:0:
448,192,232494,1,0,0:0:0:0:
192,192,232586,1,0,0:0:0:0:
320,192,232648,1,0,0:0:0:0:
448,192,232709,1,0,0:0:0:0:
320,192,232771,1,0,0:0:0:0:
64,192,232771,1,0,0:0:0:0:
192,192,232863,1,0,0:0:0:0:
320,192,232955,1,0,0:0:0:0:
448,192,233139,1,0,0:0:0:0:
64,192,233139,1,0,0:0:0:0:
192,192,233231,1,0,0:0:0:0:
448,192,233324,1,0,0:0:0:0:
320,192,233508,1,0,0:0:0:0:
64,192,233508,1,0,0:0:0:0:
192,192,233692,1,0,0:0:0:0:
320,192,233784,1,0,0:0:0:0:
64,192,233877,1,0,0:0:0:0:
448,192,233969,1,0,0:0:0:0:
448,192,234153,1,0,0:0:0:0:
320,192,234245,1,0,0:0:0:0:
64,192,234245,1,0,0:0:0:0:
192,192,234307,1,0,0:0:0:0:
448,192,234368,1,0,0:0:0:0:
320,192,234430,1,0,0:0:0:0:
192,192,234491,1,0,0:0:0:0:
448,192,234522,1,0,0:0:0:0:
192,192,234614,1,0,0:0:0:0:
64,192,234614,1,0,0:0:0:0:
320,192,234798,1,0,0:0:0:0:
192,192,234983,1,0,0:0:0:0:
64,192,234983,1,0,0:0:0:0:
320,192,235075,1,0,0:0:0:0:
448,192,235259,1,0,0:0:0:0:
64,192,235351,1,0,0:0:0:0:
192,192,235443,1,0,0:0:0:0:
320,192,235536,1,0,0:0:0:0:
448,192,235597,1,0,0:0:0:0:
192,192,235658,1,0,0:0:0:0:
320,192,235720,1,0,0:0:0:0:
64,192,235720,1,0,0:0:0:0:
192,192,235812,1,0,0:0:0:0:
448,192,235996,1,0,0:0:0:0:
64,192,236089,1,0,0:0:0:0:
192,192,236181,1,0,0:0:0:0:
448,192,236273,1,0,0:0:0:0:
320,192,236334,1,0,0:0:0:0:
192,192,236396,1,0,0:0:0:0:
448,192,236457,1,0,0:0:0:0:
64,192,236457,1,0,0:0:0:0:
320,192,236642,1,0,0:0:0:0:
192,192,236734,1,0,0:0:0:0:
64,192,236826,1,0,0:0:0:0:
448,192,236918,1,0,0:0:0:0:
320,192,237102,1,0,0:0:0:0:
192,192,237195,1,0,0:0:0:0:
64,192,237195,1,0,0:0:0:0:
448,192,237256,1,0,0:0:0:0:
320,192,237317,1,0,0:0:0:0:
192,192,237379,1,0,0:0:0:0:
448,192,237471,1,0,0:0:0:0:
192,192,237563,1,0,0:0:0:0:
64,192,237563,1,0,0:0:0:0:
448,192,237748,1,0,0:0:0:0:
192,192,237840,1,0,0:0:0:0:
64,192,237932,1,0,0:0:0:0:
448,192,237932,1,0,0:0:0:0:
192,192,238116,1,0,0:0:0:0:
448,192,238208,1,0,0:0:0:0:
64,192,238301,1,0,0:0:0:0:
448,192,238393,1,0,0:0:0:0:
448,192,238577,1,0,0:0:0:0:
320,192,238669,1,0,0:0:0:0:
64,192,238669,1,0,0:0:0:0:
192,192,238731,1,0,0:0:0:0:
448,192,238792,1,0,0:0:0:0:
320,192,238854,1,0,0:0:0:0:
192,192,238946,1,0,0:0:0:0:
448,192,239038,1,0,0:0:0:0:
64,192,239038,1,0,0:0:0:0:
448,192,239222,1,0,0:0:0:0:
192,192,239314,1,0,0:0:0:0:
320,192,239407,1,0,0:0:0:0:
64,192,239407,1,0,0:0:0:0:
192,192,239591,1,0,0:0:0:0:
320,192,239683,1,0,0:0:0:0:
64,192,239775,1,0,0:0:0:0:
448,192,239867,1,0,0:0:0:0:
448,192,240052,1,0,0:0:0:0:
320,192,240144,1,0,0:0:0:0:
64,192,240144,1,0,0:0:0:0:
192,192,240205,1,0,0:0:0:0:
448,192,240267,1,0,0:0:0:0:
320,192,240328,1,0,0:0:0:0:
192,192,240390,1,0,0:0:0:0:
448,192,240420,1,0,0:0:0:0:
192,192,240512,1,0,0:0:0:0:
64,192,240512,1,0,0:0:0:0:
320,192,240697,1,0,0:0:0:0:
192,192,240881,1,0,0:0:0:0:
64,192,240881,1,0,0:0:0:0:
320,192,240973,1,0,0:0:0:0:
448,192,241158,1,0,0:0:0:0:
64,192,241250,1,0,0:0:0:0:
192,192,241342,1,0,0:0:0:0:
320,192,241434,1,0,0:0:0:0:
448,192,241496,1,0,0:0:0:0:
192,192,241557,1,0,0:0:0:0:
320,192,241618,1,0,0:0:0:0:
64,192,241618,1,0,0:0:0:0:
192,192,241711,1,0,0:0:0:0:
448,192,241895,1,0,0:0:0:0:
64,192,241987,1,0,0:0:0:0:
192,192,242079,1,0,0:0:0:0:
448,192,242171,1,0,0:0:0:0:
320,192,242233,1,0,0:0:0:0:
192,192,242294,1,0,0:0:0:0:
64,192,242356,1,0,0:0:0:0:
448,192,242356,1,0,0:0:0:0:
320,192,242402,1,0,0:0:0:0:
192,192,242448,1,0,0:0:0:0:
448,192,242494,1,0,0:0:0:0:
64,192,242540,1,0,0:0:0:0:
192,192,242586,1,0,0:0:0:0:
320,192,242632,1,0,0:0:0:0:
448,192,242678,1,0,0:0:0:0:
192,192,242724,1,0,0:0:0:0:
320,192,242771,1,0,0:0:0:0:
64,192,242817,1,0,0:0:0:0:
448,192,242863,1,0,0:0:0:0:
192,192,242909,1,0,0:0:0:0:
320,192,242955,1,0,0:0:0:0:
448,192,243001,1,0,0:0:0:0:
64,192,243032,1,0,0:0:0:0:
192,192,243093,1,0,0:0:0:0:
320,192,243155,1,0,0:0:0:0:
448,192,243216,1,0,0:0:0:0:
64,192,243231,1,0,0:0:0:0:
192,192,243277,1,0,0:0:0:0:
64,192,243324,1,0,0:0:0:0:
448,192,243370,1,0,0:0:0:0:
320,192,243416,1,0,0:0:0:0:
192,192,243462,1,0,0:0:0:0:
448,192,243508,1,0,0:0:0:0:
64,192,243554,1,0,0:0:0:0:
192,192,243600,1,0,0:0:0:0:
448,192,243646,1,0,0:0:0:0:
64,192,243692,1,0,0:0:0:0:
320,192,243738,1,0,0:0:0:0:
192,192,243784,1,0,0:0:0:0:
448,192,243830,1,0,0:0:0:0:
320,192,243892,1,0,0:0:0:0:
192,192,243953,1,0,0:0:0:0:
448,192,244015,1,0,0:0:0:0:
64,192,244015,1,0,0:0:0:0:
320,192,244061,1,0,0:0:0:0:
448,192,244107,1,0,0:0:0:0:
64,192,244153,1,0,0:0:0:0:
192,192,244199,1,0,0:0:0:0:
320,192,244245,1,0,0:0:0:0:
64,192,244291,1,0,0:0:0:0:
448,192,244337,1,0,0:0:0:0:
192,192,244383,1,0,0:0:0:0:
320,192,244430,1,0,0:0:0:0:
64,192,244476,1,0,0:0:0:0:
192,192,244522,1,0,0:0:0:0:
320,192,244568,1,0,0:0:0:0:
448,192,244614,1,0,0:0:0:0:
64,192,244691,1,0,0:0:0:0:
448,192,244752,1,0,0:0:0:0:
64,192,244814,1,0,0:0:0:0:
448,192,244875,1,0,0:0:0:0:
192,192,244936,1,0,0:0:0:0:
64,192,244998,1,0,0:0:0:0:
448,192,245059,1,0,0:0:0:0:
192,192,245121,1,0,0:0:0:0:
320,192,245121,1,0,0:0:0:0:
64,192,245182,1,0,0:0:0:0:
448,192,245244,1,0,0:0:0:0:
64,192,245305,1,0,0:0:0:0:
192,192,245305,1,0,0:0:0:0:
320,192,245367,1,0,0:0:0:0:
448,192,245428,1,0,0:0:0:0:
192,192,245489,1,0,0:0:0:0:
320,192,245551,1,0,0:0:0:0:
192,192,245612,1,0,0:0:0:0:
320,192,245674,1,0,0:0:0:0:
64,192,245735,1,0,0:0:0:0:
448,192,245735,1,0,0:0:0:0:
192,192,245797,1,0,0:0:0:0:
320,192,245858,1,0,0:0:0:0:
448,192,245920,1,0,0:0:0:0:
64,192,245981,1,0,0:0:0:0:
448,192,246042,1,0,0:0:0:0:
64,192,246104,1,0,0:0:0:0:
448,192,246165,1,0,0:0:0:0:
320,192,246227,1,0,0:0:0:0:
192,192,246273,1,0,0:0:0:0:
64,192,246319,1,0,0:0:0:0:
320,192,246365,1,0,0:0:0:0:
448,192,246411,1,0,0:0:0:0:
192,192,246457,1,0,0:0:0:0:
64,192,246503,1,0,0:0:0:0:
320,192,246534,1,0,0:0:0:0:
192,192,246595,1,0,0:0:0:0:
448,192,246595,1,0,0:0:0:0:
64,192,246657,1,0,0:0:0:0:
320,192,246718,1,0,0:0:0:0:
192,192,246780,1,0,0:0:0:0:
320,192,246841,1,0,0:0:0:0:
192,192,246903,1,0,0:0:0:0:
448,192,246964,1,0,0:0:0:0:
320,192,247026,1,0,0:0:0:0:
64,192,247026,1,0,0:0:0:0:
192,192,247087,1,0,0:0:0:0:
448,192,247148,1,0,0:0:0:0:
64,192,247210,1,0,0:0:0:0:
448,192,247271,1,0,0:0:0:0:
64,192,247333,1,0,0:0:0:0:
448,192,247394,1,0,0:0:0:0:
320,192,247456,1,0,0:0:0:0:
192,192,247517,1,0,0:0:0:0:
448,192,247517,1,0,0:0:0:0:
64,192,247579,1,0,0:0:0:0:
320,192,247640,1,0,0:0:0:0:
192,192,247701,1,0,0:0:0:0:
64,192,247763,1,0,0:0:0:0:
448,192,247763,1,0,0:0:0:0:
320,192,247824,1,0,0:0:0:0:
64,192,247886,1,0,0:0:0:0:
192,192,247886,1,0,0:0:0:0:
320,192,247978,1,0,0:0:0:0:
448,192,247978,1,0,0:0:0:0:
192,192,248070,1,0,0:0:0:0:
64,192,248070,1,0,0:0:0:0:
320,192,248162,1,0,0:0:0:0:
448,192,248162,1,0,0:0:0:0:
64,192,248254,1,0,0:0:0:0:
192,192,248254,1,0,0:0:0:0:
448,192,248301,1,0,0:0:0:0:
320,192,248347,1,0,0:0:0:0:
192,192,248393,1,0,0:0:0:0:
64,192,248439,1,0,0:0:0:0:
192,192,248485,1,0,0:0:0:0:
320,192,248531,1,0,0:0:0:0:
448,192,248577,1,0,0:0:0:0:
192,192,248623,1,0,0:0:0:0:
320,192,248669,1,0,0:0:0:0:
64,192,248715,1,0,0:0:0:0:
448,192,248761,1,0,0:0:0:0:
192,192,248807,1,0,0:0:0:0:
320,192,248854,1,0,0:0:0:0:
448,192,248900,1,0,0:0:0:0:
64,192,248930,1,0,0:0:0:0:
192,192,248992,1,0,0:0:0:0:
320,192,249053,1,0,0:0:0:0:
448,192,249115,1,0,0:0:0:0:
64,192,249130,1,0,0:0:0:0:
192,192,249176,1,0,0:0:0:0:
64,192,249222,1,0,0:0:0:0:
448,192,249268,1,0,0:0:0:0:
320,192,249314,1,0,0:0:0:0:
192,192,249360,1,0,0:0:0:0:
448,192,249407,1,0,0:0:0:0:
64,192,249453,1,0,0:0:0:0:
192,192,249499,1,0,0:0:0:0:
448,192,249545,1,0,0:0:0:0:
64,192,249591,1,0,0:0:0:0:
320,192,249637,1,0,0:0:0:0:
192,192,249683,1,0,0:0:0:0:
448,192,249729,1,0,0:0:0:0:
320,192,249791,1,0,0:0:0:0:
192,192,249852,1,0,0:0:0:0:
448,192,249913,1,0,0:0:0:0:
64,192,249913,1,0,0:0:0:0:
320,192,249960,1,0,0:0:0:0:
448,192,250006,1,0,0:0:0:0:
64,192,250052,1,0,0:0:0:0:
192,192,250098,1,0,0:0:0:0:
320,192,250144,1,0,0:0:0:0:
64,192,250190,1,0,0:0:0:0:
448,192,250236,1,0,0:0:0:0:
192,192,250282,1,0,0:0:0:0:
320,192,250328,1,0,0:0:0:0:
64,192,250374,1,0,0:0:0:0:
192,192,250420,1,0,0:0:0:0:
320,192,250466,1,0,0:0:0:0:
448,192,250512,1,0,0:0:0:0:
64,192,250589,1,0,0:0:0:0:
448,192,250651,1,0,0:0:0:0:
64,192,250712,1,0,0:0:0:0:
448,192,250774,1,0,0:0:0:0:
192,192,250835,1,0,0:0:0:0:
64,192,250897,1,0,0:0:0:0:
448,192,250958,1,0,0:0:0:0:
192,192,251019,1,0,0:0:0:0:
320,192,251019,1,0,0:0:0:0:
64,192,251081,1,0,0:0:0:0:
448,192,251142,1,0,0:0:0:0:
64,192,251204,1,0,0:0:0:0:
192,192,251204,1,0,0:0:0:0:
320,192,251265,1,0,0:0:0:0:
448,192,251327,1,0,0:0:0:0:
192,192,251388,1,0,0:0:0:0:
320,192,251450,1,0,0:0:0:0:
192,192,251511,1,0,0:0:0:0:
320,192,251572,1,0,0:0:0:0:
64,192,251634,1,0,0:0:0:0:
448,192,251634,1,0,0:0:0:0:
192,192,251695,1,0,0:0:0:0:
320,192,251757,1,0,0:0:0:0:
448,192,251818,1,0,0:0:0:0:
64,192,251880,1,0,0:0:0:0:
448,192,251941,1,0,0:0:0:0:
64,192,252003,1,0,0:0:0:0:
448,192,252064,1,0,0:0:0:0:
320,192,252125,1,0,0:0:0:0:
192,192,252171,1,0,0:0:0:0:
64,192,252218,1,0,0:0:0:0:
320,192,252264,1,0,0:0:0:0:
448,192,252310,1,0,0:0:0:0:
192,192,252310,1,0,0:0:0:0:
64,192,252371,1,0,0:0:0:0:
320,192,252433,1,0,0:0:0:0:
192,192,252494,1,0,0:0:0:0:
448,192,252494,1,0,0:0:0:0:
64,192,252494,1,0,0:0:0:0:
320,192,252678,1,0,0:0:0:0:
192,192,252771,1,0,0:0:0:0:
448,192,252955,1,0,0:0:0:0:
64,192,253139,1,0,0:0:0:0:
320,192,253231,1,0,0:0:0:0:
192,192,253416,5,0,0:0:0:0:
64,192,253508,1,0,0:0:0:0:
448,192,253692,1,0,0:0:0:0:
320,192,253877,1,0,0:0:0:0:
64,192,253969,1,0,0:0:0:0:
448,192,254061,1,0,0:0:0:0:
320,192,254153,1,0,0:0:0:0:
192,192,254245,1,0,0:0:0:0:
320,192,254337,1,0,0:0:0:0:
320,192,254522,5,0,0:0:0:0:
448,192,254614,1,0,0:0:0:0:
320,192,254706,1,0,0:0:0:0:
320,192,254890,1,0,0:0:0:0:
320,192,255075,1,0,0:0:0:0:
320,192,255259,1,0,0:0:0:0:
192,192,255351,1,0,0:0:0:0:
320,192,255443,1,0,0:0:0:0:
192,192,255536,1,0,0:0:0:0:
448,192,255628,1,0,0:0:0:0:
64,192,255628,1,0,0:0:0:0:
320,192,255674,1,0,0:0:0:0:
448,192,255720,1,0,0:0:0:0:
192,192,255766,1,0,0:0:0:0:
320,192,255812,1,0,0:0:0:0:
448,192,255858,1,0,0:0:0:0:
64,192,255904,1,0,0:0:0:0:
320,192,255950,1,0,0:0:0:0:
448,192,255996,1,0,0:0:0:0:
64,192,256042,1,0,0:0:0:0:
320,192,256089,1,0,0:0:0:0:
192,192,256135,1,0,0:0:0:0:
448,192,256181,1,0,0:0:0:0:
320,192,256227,1,0,0:0:0:0:
192,192,256273,1,0,0:0:0:0:
64,192,256319,1,0,0:0:0:0:
320,192,256365,1,0,0:0:0:0:
192,192,256411,1,0,0:0:0:0:
64,192,256457,1,0,0:0:0:0:
448,192,256503,1,0,0:0:0:0:
192,192,256549,1,0,0:0:0:0:
320,192,256595,1,0,0:0:0:0:
448,192,256642,1,0,0:0:0:0:
64,192,256688,1,0,0:0:0:0:
320,192,256734,1,0,0:0:0:0:
448,192,256780,1,0,0:0:0:0:
192,192,256826,1,0,0:0:0:0:
64,192,256872,1,0,0:0:0:0:
320,192,256918,1,0,0:0:0:0:
192,192,256964,1,0,0:0:0:0:
64,192,257010,1,0,0:0:0:0:
448,192,257056,1,0,0:0:0:0:
320,192,257102,1,0,0:0:0:0:
192,192,257148,1,0,0:0:0:0:
64,192,257195,1,0,0:0:0:0:
448,192,257241,1,0,0:0:0:0:
192,192,257287,1,0,0:0:0:0:
320,192,257333,1,0,0:0:0:0:
448,192,257379,1,0,0:0:0:0:
64,192,257425,1,0,0:0:0:0:
192,192,257471,1,0,0:0:0:0:
320,192,257517,1,0,0:0:0:0:
64,192,257563,1,0,0:0:0:0:
448,192,257609,1,0,0:0:0:0:
192,192,257655,1,0,0:0:0:0:
320,192,257701,1,0,0:0:0:0:
448,192,257748,1,0,0:0:0:0:
64,192,257794,1,0,0:0:0:0:
192,192,257840,1,0,0:0:0:0:
320,192,257886,1,0,0:0:0:0:
448,192,257932,1,0,0:0:0:0:
64,192,257978,1,0,0:0:0:0:
320,192,258024,1,0,0:0:0:0:
192,192,258070,1,0,0:0:0:0:
64,192,258116,1,0,0:0:0:0:
448,192,258162,1,0,0:0:0:0:
192,192,258208,1,0,0:0:0:0:
320,192,258254,1,0,0:0:0:0:
448,192,258301,1,0,0:0:0:0:
64,192,258347,1,0,0:0:0:0:
320,192,258393,1,0,0:0:0:0:
192,192,258439,1,0,0:0:0:0:
64,192,258485,1,0,0:0:0:0:
448,192,258531,1,0,0:0:0:0:
192,192,258577,1,0,0:0:0:0:
320,192,258623,1,0,0:0:0:0:
192,192,258669,1,0,0:0:0:0:
320,192,258715,1,0,0:0:0:0:
64,192,258761,1,0,0:0:0:0:
448,192,258807,1,0,0:0:0:0:
320,192,258854,1,0,0:0:0:0:
192,192,258900,1,0,0:0:0:0:
448,192,258946,1,0,0:0:0:0:
64,192,258992,1,0,0:0:0:0:
320,192,259038,1,0,0:0:0:0:
448,192,259084,1,0,0:0:0:0:
192,192,259130,1,0,0:0:0:0:
320,192,259176,1,0,0:0:0:0:
64,192,259222,1,0,0:0:0:0:
192,192,259268,1,0,0:0:0:0:
448,192,259314,1,0,0:0:0:0:
64,192,259360,1,0,0:0:0:0:
192,192,259407,1,0,0:0:0:0:
320,192,259453,1,0,0:0:0:0:
448,192,259499,1,0,0:0:0:0:
192,192,259545,1,0,0:0:0:0:
320,192,259591,1,0,0:0:0:0:
64,192,259637,1,0,0:0:0:0:
448,192,259683,1,0,0:0:0:0:
192,192,259729,1,0,0:0:0:0:
320,192,259775,1,0,0:0:0:0:
448,192,259821,1,0,0:0:0:0:
64,192,259867,1,0,0:0:0:0:
192,192,259913,1,0,0:0:0:0:
64,192,259960,1,0,0:0:0:0:
192,192,260006,1,0,0:0:0:0:
448,192,260052,1,0,0:0:0:0:
320,192,260098,1,0,0:0:0:0:
64,192,260144,1,0,0:0:0:0:
192,192,260190,1,0,0:0:0:0:
448,192,260236,1,0,0:0:0:0:
320,192,260282,1,0,0:0:0:0:
192,192,260328,1,0,0:0:0:0:
448,192,260374,1,0,0:0:0:0:
320,192,260420,1,0,0:0:0:0:
64,192,260466,1,0,0:0:0:0:
192,192,260512,1,0,0:0:0:0:
320,192,260559,1,0,0:0:0:0:
64,192,260605,1,0,0:0:0:0:
448,192,260651,1,0,0:0:0:0:
192,192,260697,1,0,0:0:0:0:
320,192,260743,1,0,0:0:0:0:
64,192,260789,1,0,0:0:0:0:
448,192,260835,1,0,0:0:0:0:
192,192,260881,1,0,0:0:0:0:
320,192,260927,1,0,0:0:0:0:
448,192,260973,1,0,0:0:0:0:
192,192,261019,1,0,0:0:0:0:
64,192,261065,1,0,0:0:0:0:
320,192,261112,1,0,0:0:0:0:
448,192,261158,1,0,0:0:0:0:
192,192,261250,1,0,0:0:0:0:
64,192,261273,1,0,0:0:0:0:
320,192,261342,1,0,0:0:0:0:
448,192,261365,1,0,0:0:0:0:
192,192,261434,1,0,0:0:0:0:
64,192,261457,1,0,0:0:0:0:
320,192,261526,1,0,0:0:0:0:
448,192,261549,1,0,0:0:0:0:
192,192,261572,1,0,0:0:0:0:
64,192,261618,1,0,0:0:0:0:
320,192,261665,1,0,0:0:0:0:
192,192,261711,1,0,0:0:0:0:
64,192,261757,1,0,0:0:0:0:
448,192,261803,1,0,0:0:0:0:
192,192,261849,1,0,0:0:0:0:
320,192,261895,1,0,0:0:0:0:
448,192,261941,1,0,0:0:0:0:
64,192,261987,1,0,0:0:0:0:
192,192,262033,1,0,0:0:0:0:
448,192,262079,1,0,0:0:0:0:
64,192,262125,1,0,0:0:0:0:
320,192,262171,1,0,0:0:0:0:
192,192,262218,1,0,0:0:0:0:
448,192,262264,1,0,0:0:0:0:
320,192,262310,1,0,0:0:0:0:
192,192,262356,1,0,0:0:0:0:
64,192,262402,1,0,0:0:0:0:
320,192,262448,1,0,0:0:0:0:
448,192,262494,1,0,0:0:0:0:
192,192,262540,1,0,0:0:0:0:
320,192,262586,1,0,0:0:0:0:
64,192,262632,1,0,0:0:0:0:
448,192,262678,1,0,0:0:0:0:
192,192,262724,1,0,0:0:0:0:
320,192,262771,1,0,0:0:0:0:
448,192,262817,1,0,0:0:0:0:
64,192,262863,1,0,0:0:0:0:
320,192,262909,1,0,0:0:0:0:
192,192,262955,1,0,0:0:0:0:
448,192,263001,1,0,0:0:0:0:
64,192,263047,1,0,0:0:0:0:
320,192,263093,1,0,0:0:0:0:
192,192,263139,1,0,0:0:0:0:
64,192,263185,1,0,0:0:0:0:
448,192,263231,1,0,0:0:0:0:
320,192,263277,1,0,0:0:0:0:
192,192,263324,1,0,0:0:0:0:
64,192,263370,1,0,0:0:0:0:
320,192,263416,1,0,0:0:0:0:
192,192,263462,1,0,0:0:0:0:
448,192,263508,1,0,0:0:0:0:
320,192,263554,1,0,0:0:0:0:
64,192,263600,1,0,0:0:0:0:
192,192,263646,1,0,0:0:0:0:
320,192,263692,1,0,0:0:0:0:
448,192,263738,1,0,0:0:0:0:
192,192,263784,1,0,0:0:0:0:
320,192,263830,1,0,0:0:0:0:
64,192,263877,1,0,0:0:0:0:
192,192,263923,1,0,0:0:0:0:
320,192,263969,1,0,0:0:0:0:
448,192,264015,1,0,0:0:0:0:
64,192,264061,1,0,0:0:0:0:
320,192,264107,1,0,0:0:0:0:
192,192,264153,1,0,0:0:0:0:
64,192,264199,1,0,0:0:0:0:
448,192,264245,1,0,0:0:0:0:
192,192,264291,1,0,0:0:0:0:
64,192,264337,1,0,0:0:0:0:
320,192,264383,1,0,0:0:0:0:
192,192,264430,1,0,0:0:0:0:
64,192,264476,1,0,0:0:0:0:
320,192,264522,1,0,0:0:0:0:
448,192,264568,1,0,0:0:0:0:
192,192,264614,1,0,0:0:0:0:
320,192,264660,1,0,0:0:0:0:
64,192,264706,1,0,0:0:0:0:
192,192,264752,1,0,0:0:0:0:
320,192,264798,1,0,0:0:0:0:
448,192,264844,1,0,0:0:0:0:
192,192,264890,1,0,0:0:0:0:
64,192,264936,1,0,0:0:0:0:
320,192,264983,1,0,0:0:0:0:
192,192,265029,1,0,0:0:0:0:
448,192,265075,1,0,0:0:0:0:
320,192,265121,1,0,0:0:0:0:
64,192,265167,1,0,0:0:0:0:
448,192,265213,1,0,0:0:0:0:
192,192,265259,1,0,0:0:0:0:
320,192,265305,1,0,0:0:0:0:
64,192,265351,1,0,0:0:0:0:
448,192,265397,1,0,0:0:0:0:
320,192,265443,1,0,0:0:0:0:
192,192,265489,1,0,0:0:0:0:
448,192,265536,1,0,0:0:0:0:
64,192,265582,1,0,0:0:0:0:
320,192,265628,1,0,0:0:0:0:
192,192,265674,1,0,0:0:0:0:
64,192,265720,1,0,0:0:0:0:
448,192,265766,1,0,0:0:0:0:
320,192,265812,1,0,0:0:0:0:
192,192,265858,1,0,0:0:0:0:
64,192,265904,1,0,0:0:0:0:
448,192,265950,1,0,0:0:0:0:
320,192,265996,1,0,0:0:0:0:
192,192,266042,1,0,0:0:0:0:
64,192,266089,1,0,0:0:0:0:
448,192,266135,1,0,0:0:0:0:
64,192,266181,1,0,0:0:0:0:
192,192,266227,1,0,0:0:0:0:
320,192,266273,1,0,0:0:0:0:
64,192,266319,1,0,0:0:0:0:
448,192,266365,1,0,0:0:0:0:
320,192,266411,1,0,0:0:0:0:
192,192,266457,1,0,0:0:0:0:
320,192,266503,1,0,0:0:0:0:
64,192,266549,1,0,0:0:0:0:
192,192,266595,1,0,0:0:0:0:
320,192,266642,1,0,0:0:0:0:
448,192,266688,1,0,0:0:0:0:
64,192,266734,1,0,0:0:0:0:
192,192,266780,1,0,0:0:0:0:
320,192,266826,1,0,0:0:0:0:
448,192,266872,1,0,0:0:0:0:
320,192,266918,1,0,0:0:0:0:
192,192,266964,1,0,0:0:0:0:
64,192,267010,1,0,0:0:0:0:
448,192,267056,1,0,0:0:0:0:
320,192,267079,1,0,0:0:0:0:
64,192,267148,1,0,0:0:0:0:
192,192,267171,1,0,0:0:0:0:
448,192,267241,1,0,0:0:0:0:
320,192,267264,1,0,0:0:0:0:
64,192,267333,1,0,0:0:0:0:
192,192,267356,1,0,0:0:0:0:
448,192,267425,1,0,0:0:0:0:
320,192,267471,1,0,0:0:0:0:
64,192,267517,1,0,0:0:0:0:
448,192,267563,1,0,0:0:0:0:
192,192,267609,1,0,0:0:0:0:
320,192,267655,1,0,0:0:0:0:
448,192,267701,1,0,0:0:0:0:
64,192,267748,1,0,0:0:0:0:
192,192,267794,1,0,0:0:0:0:
320,192,267840,1,0,0:0:0:0:
64,192,267886,1,0,0:0:0:0:
448,192,267932,1,0,0:0:0:0:
192,192,267978,1,0,0:0:0:0:
320,192,268024,1,0,0:0:0:0:
64,192,268070,1,0,0:0:0:0:
448,192,268116,1,0,0:0:0:0:
320,192,268162,1,0,0:0:0:0:
192,192,268208,1,0,0:0:0:0:
64,192,268254,1,0,0:0:0:0:
448,192,268301,1,0,0:0:0:0:
192,192,268347,1,0,0:0:0:0:
320,192,268393,1,0,0:0:0:0:
64,192,268439,1,0,0:0:0:0:
192,192,268485,1,0,0:0:0:0:
448,192,268531,1,0,0:0:0:0:
320,192,268577,1,0,0:0:0:0:
64,192,268623,1,0,0:0:0:0:
448,192,268669,1,0,0:0:0:0:
320,192,268715,1,0,0:0:0:0:
192,192,268761,1,0,0:0:0:0:
64,192,268807,1,0,0:0:0:0:
448,192,268854,1,0,0:0:0:0:
192,192,268900,1,0,0:0:0:0:
320,192,268946,1,0,0:0:0:0:
448,192,268992,1,0,0:0:0:0:
64,192,269038,1,0,0:0:0:0:
192,192,269084,1,0,0:0:0:0:
320,192,269130,1,0,0:0:0:0:
64,192,269176,1,0,0:0:0:0:
192,192,269222,1,0,0:0:0:0:
448,192,269268,1,0,0:0:0:0:
64,192,269314,1,0,0:0:0:0:
320,192,269360,1,0,0:0:0:0:
192,192,269407,1,0,0:0:0:0:
64,192,269453,1,0,0:0:0:0:
448,192,269499,1,0,0:0:0:0:
320,192,269545,1,0,0:0:0:0:
192,192,269591,1,0,0:0:0:0:
448,192,269637,1,0,0:0:0:0:
64,192,269683,1,0,0:0:0:0:
320,192,269729,1,0,0:0:0:0:
448,192,269775,1,0,0:0:0:0:
192,192,269821,1,0,0:0:0:0:
64,192,269867,1,0,0:0:0:0:
320,192,269913,1,0,0:0:0:0:
448,192,269960,1,0,0:0:0:0:
192,192,270006,1,0,0:0:0:0:
320,192,270052,1,0,0:0:0:0:
448,192,270098,1,0,0:0:0:0:
64,192,270144,1,0,0:0:0:0:
192,192,270190,1,0,0:0:0:0:
320,192,270236,1,0,0:0:0:0:
64,192,270282,1,0,0:0:0:0:
448,192,270328,1,0,0:0:0:0:
192,192,270374,1,0,0:0:0:0:
320,192,270420,1,0,0:0:0:0:
64,192,270466,1,0,0:0:0:0:
448,192,270512,1,0,0:0:0:0:
192,192,270559,1,0,0:0:0:0:
64,192,270605,1,0,0:0:0:0:
448,192,270651,1,0,0:0:0:0:
192,192,270697,1,0,0:0:0:0:
320,192,270743,1,0,0:0:0:0:
64,192,270789,1,0,0:0:0:0:
192,192,270835,1,0,0:0:0:0:
320,192,270881,1,0,0:0:0:0:
448,192,270927,1,0,0:0:0:0:
192,192,270973,1,0,0:0:0:0:
64,192,271019,1,0,0:0:0:0:
320,192,271065,1,0,0:0:0:0:
192,192,271112,1,0,0:0:0:0:
448,192,271158,1,0,0:0:0:0:
320,192,271204,1,0,0:0:0:0:
64,192,271250,1,0,0:0:0:0:
448,192,271296,1,0,0:0:0:0:
320,192,271342,1,0,0:0:0:0:
192,192,271388,1,0,0:0:0:0:
320,192,271434,1,0,0:0:0:0:
192,192,271480,1,0,0:0:0:0:
64,192,271526,1,0,0:0:0:0:
448,192,271572,1,0,0:0:0:0:
320,192,271618,1,0,0:0:0:0:
64,192,271665,1,0,0:0:0:0:
192,192,271711,1,0,0:0:0:0:
320,192,271757,1,0,0:0:0:0:
448,192,271803,1,0,0:0:0:0:
64,192,271849,1,0,0:0:0:0:
192,192,271895,1,0,0:0:0:0:
320,192,271941,1,0,0:0:0:0:
448,192,271987,1,0,0:0:0:0:
64,192,272033,1,0,0:0:0:0:
192,192,272079,1,0,0:0:0:0:
320,192,272125,1,0,0:0:0:0:
64,192,272171,1,0,0:0:0:0:
192,192,272218,1,0,0:0:0:0:
448,192,272264,1,0,0:0:0:0:
320,192,272310,1,0,0:0:0:0:
192,192,272356,1,0,0:0:0:0:
448,192,272402,1,0,0:0:0:0:
320,192,272448,1,0,0:0:0:0:
192,192,272494,1,0,0:0:0:0:
64,192,272540,1,0,0:0:0:0:
448,192,272586,1,0,0:0:0:0:
64,192,272632,1,0,0:0:0:0:
192,192,272678,1,0,0:0:0:0:
320,192,272724,1,0,0:0:0:0:
448,192,272771,1,0,0:0:0:0:
64,192,272817,1,0,0:0:0:0:
192,192,272863,1,0,0:0:0:0:
320,192,272909,1,0,0:0:0:0:
192,192,272955,1,0,0:0:0:0:
64,192,272978,1,0,0:0:0:0:
320,192,273047,1,0,0:0:0:0:
448,192,273070,1,0,0:0:0:0:
192,192,273139,1,0,0:0:0:0:
64,192,273162,1,0,0:0:0:0:
320,192,273231,1,0,0:0:0:0:
448,192,273254,1,0,0:0:0:0:
192,192,273324,1,0,0:0:0:0:
64,192,273370,1,0,0:0:0:0:
320,192,273416,1,0,0:0:0:0:
192,192,273462,1,0,0:0:0:0:
64,192,273508,1,0,0:0:0:0:
448,192,273554,1,0,0:0:0:0:
192,192,273600,1,0,0:0:0:0:
320,192,273646,1,0,0:0:0:0:
448,192,273692,1,0,0:0:0:0:
64,192,273738,1,0,0:0:0:0:
192,192,273784,1,0,0:0:0:0:
448,192,273830,1,0,0:0:0:0:
64,192,273877,1,0,0:0:0:0:
320,192,273923,1,0,0:0:0:0:
192,192,273969,1,0,0:0:0:0:
448,192,274015,1,0,0:0:0:0:
320,192,274061,1,0,0:0:0:0:
192,192,274107,1,0,0:0:0:0:
64,192,274153,1,0,0:0:0:0:
320,192,274199,1,0,0:0:0:0:
448,192,274245,1,0,0:0:0:0:
192,192,274291,1,0,0:0:0:0:
320,192,274337,1,0,0:0:0:0:
64,192,274383,1,0,0:0:0:0:
448,192,274430,1,0,0:0:0:0:
192,192,274476,1,0,0:0:0:0:
320,192,274522,1,0,0:0:0:0:
448,192,274568,1,0,0:0:0:0:
64,192,274614,1,0,0:0:0:0:
320,192,274660,1,0,0:0:0:0:
192,192,274706,1,0,0:0:0:0:
448,192,274752,1,0,0:0:0:0:
64,192,274798,1,0,0:0:0:0:
320,192,274844,1,0,0:0:0:0:
192,192,274890,1,0,0:0:0:0:
64,192,274936,1,0,0:0:0:0:
448,192,274983,1,0,0:0:0:0:
320,192,275029,1,0,0:0:0:0:
192,192,275075,1,0,0:0:0:0:
64,192,275121,1,0,0:0:0:0:
320,192,275167,1,0,0:0:0:0:
192,192,275213,1,0,0:0:0:0:
448,192,275259,1,0,0:0:0:0:
320,192,275305,1,0,0:0:0:0:
64,192,275351,1,0,0:0:0:0:
192,192,275397,1,0,0:0:0:0:
320,192,275443,1,0,0:0:0:0:
448,192,275489,1,0,0:0:0:0:
192,192,275536,1,0,0:0:0:0:
320,192,275582,1,0,0:0:0:0:
64,192,275628,1,0,0:0:0:0:
192,192,275674,1,0,0:0:0:0:
320,192,275720,1,0,0:0:0:0:
448,192,275766,1,0,0:0:0:0:
64,192,275812,1,0,0:0:0:0:
320,192,275858,1,0,0:0:0:0:
192,192,275904,1,0,0:0:0:0:
64,192,275950,1,0,0:0:0:0:
448,192,275996,1,0,0:0:0:0:
192,192,276042,1,0,0:0:0:0:
64,192,276089,1,0,0:0:0:0:
320,192,276135,1,0,0:0:0:0:
192,192,276181,1,0,0:0:0:0:
64,192,276227,1,0,0:0:0:0:
320,192,276273,1,0,0:0:0:0:
448,192,276319,1,0,0:0:0:0:
192,192,276365,1,0,0:0:0:0:
320,192,276411,1,0,0:0:0:0:
64,192,276457,1,0,0:0:0:0:
192,192,276503,1,0,0:0:0:0:
320,192,276549,1,0,0:0:0:0:
448,192,276595,1,0,0:0:0:0:
192,192,276642,1,0,0:0:0:0:
64,192,276688,1,0,0:0:0:0:
320,192,276734,1,0,0:0:0:0:
192,192,276780,1,0,0:0:0:0:
448,192,276826,1,0,0:0:0:0:
320,192,276872,1,0,0:0:0:0:
64,192,276918,1,0,0:0:0:0:
448,192,276964,1,0,0:0:0:0:
192,192,277010,1,0,0:0:0:0:
320,192,277056,1,0,0:0:0:0:
64,192,277102,1,0,0:0:0:0:
448,192,277148,1,0,0:0:0:0:
320,192,277195,1,0,0:0:0:0:
192,192,277241,1,0,0:0:0:0:
448,192,277287,1,0,0:0:0:0:
64,192,277333,1,0,0:0:0:0:
320,192,277379,1,0,0:0:0:0:
192,192,277425,1,0,0:0:0:0:
64,192,277471,1,0,0:0:0:0:
448,192,277517,1,0,0:0:0:0:
320,192,277563,1,0,0:0:0:0:
192,192,277609,1,0,0:0:0:0:
64,192,277655,1,0,0:0:0:0:
448,192,277701,1,0,0:0:0:0:
320,192,277748,1,0,0:0:0:0:
192,192,277794,1,0,0:0:0:0:
64,192,277840,1,0,0:0:0:0:
448,192,277886,1,0,0:0:0:0:
64,192,277932,1,0,0:0:0:0:
192,192,277978,1,0,0:0:0:0:
320,192,278024,1,0,0:0:0:0:
64,192,278070,1,0,0:0:0:0:
448,192,278116,1,0,0:0:0:0:
320,192,278162,1,0,0:0:0:0:
192,192,278208,1,0,0:0:0:0:
320,192,278254,1,0,0:0:0:0:
64,192,278301,1,0,0:0:0:0:
192,192,278347,1,0,0:0:0:0:
320,192,278393,5,0,0:0:0:0:
448,192,278439,1,0,0:0:0:0:
64,192,278485,1,0,0:0:0:0:
192,192,278531,1,0,0:0:0:0:
320,192,278577,1,0,0:0:0:0:
448,192,278623,1,0,0:0:0:0:
320,192,278669,1,0,0:0:0:0:
192,192,278715,1,0,0:0:0:0:
64,192,278761,1,0,0:0:0:0:
448,192,278807,1,0,0:0:0:0:
320,192,278854,1,0,0:0:0:0:
192,192,279038,1,0,0:0:0:0:
64,192,279130,1,0,0:0:0:0:
320,192,279222,1,0,0:0:0:0:
320,192,279591,5,0,0:0:0:0:
320,192,279775,1,0,0:0:0:0:
320,192,279960,1,0,0:0:0:0:
320,192,280144,1,0,0:0:0:0:
320,192,280328,1,0,0:0:0:0:
192,192,280420,1,0,0:0:0:0:
320,192,280512,1,0,0:0:0:0:
192,192,280605,1,0,0:0:0:0:
64,192,280697,1,0,0:0:0:0:
448,192,280697,1,0,0:0:0:0:
320,192,280758,1,0,0:0:0:0:
192,192,280820,1,0,0:0:0:0:
448,192,280881,1,0,0:0:0:0:
320,192,280881,1,0,0:0:0:0:
64,192,280943,1,0,0:0:0:0:
192,192,280943,1,0,0:0:0:0:
448,192,281004,1,0,0:0:0:0:
320,192,281065,1,0,0:0:0:0:
64,192,281127,1,0,0:0:0:0:
192,192,281188,1,0,0:0:0:0:
320,192,281188,1,0,0:0:0:0:
64,192,281250,1,0,0:0:0:0:
448,192,281250,1,0,0:0:0:0:
320,192,281311,1,0,0:0:0:0:
192,192,281373,1,0,0:0:0:0:
448,192,281434,1,0,0:0:0:0:
64,192,281434,1,0,0:0:0:0:
192,192,281496,1,0,0:0:0:0:
320,192,281496,1,0,0:0:0:0:
448,192,281557,1,0,0:0:0:0:
64,192,281618,1,0,0:0:0:0:
320,192,281680,1,0,0:0:0:0:
448,192,281741,1,0,0:0:0:0:
192,192,281803,1,0,0:0:0:0:
64,192,281803,1,0,0:0:0:0:
320,192,281864,1,0,0:0:0:0:
192,192,281926,1,0,0:0:0:0:
320,192,281987,1,0,0:0:0:0:
448,192,281987,1,0,0:0:0:0:
192,192,282049,1,0,0:0:0:0:
320,192,282110,1,0,0:0:0:0:
64,192,282171,1,0,0:0:0:0:
192,192,282171,1,0,0:0:0:0:
448,192,282233,1,0,0:0:0:0:
320,192,282294,1,0,0:0:0:0:
64,192,282356,1,0,0:0:0:0:
192,192,282356,1,0,0:0:0:0:
448,192,282417,1,0,0:0:0:0:
320,192,282417,1,0,0:0:0:0:
192,192,282479,1,0,0:0:0:0:
64,192,282540,1,0,0:0:0:0:
448,192,282602,1,0,0:0:0:0:
320,192,282663,1,0,0:0:0:0:
192,192,282663,1,0,0:0:0:0:
64,192,282724,1,0,0:0:0:0:
448,192,282724,1,0,0:0:0:0:
192,192,282786,1,0,0:0:0:0:
320,192,282847,1,0,0:0:0:0:
192,192,282909,1,0,0:0:0:0:
448,192,282909,1,0,0:0:0:0:
64,192,282970,1,0,0:0:0:0:
320,192,282970,1,0,0:0:0:0:
192,192,283032,1,0,0:0:0:0:
448,192,283093,1,0,0:0:0:0:
320,192,283155,1,0,0:0:0:0:
192,192,283216,1,0,0:0:0:0:
320,192,283277,1,0,0:0:0:0:
448,192,283277,1,0,0:0:0:0:
64,192,283339,1,0,0:0:0:0:
448,192,283400,1,0,0:0:0:0:
192,192,283462,1,0,0:0:0:0:
64,192,283462,1,0,0:0:0:0:
448,192,283523,1,0,0:0:0:0:
64,192,283585,1,0,0:0:0:0:
448,192,283646,1,0,0:0:0:0:
320,192,283646,1,0,0:0:0:0:
192,192,283708,1,0,0:0:0:0:
320,192,283769,1,0,0:0:0:0:
64,192,283830,1,0,0:0:0:0:
448,192,283830,1,0,0:0:0:0:
192,192,283892,1,0,0:0:0:0:
320,192,283892,1,0,0:0:0:0:
64,192,283953,1,0,0:0:0:0:
448,192,284015,1,0,0:0:0:0:
320,192,284076,1,0,0:0:0:0:
192,192,284138,1,0,0:0:0:0:
448,192,284138,1,0,0:0:0:0:
320,192,284199,1,0,0:0:0:0:
64,192,284199,1,0,0:0:0:0:
192,192,284261,1,0,0:0:0:0:
448,192,284322,1,0,0:0:0:0:
192,192,284383,1,0,0:0:0:0:
64,192,284383,1,0,0:0:0:0:
320,192,284445,1,0,0:0:0:0:
448,192,284445,1,0,0:0:0:0:
64,192,284506,1,0,0:0:0:0:
192,192,284568,1,0,0:0:0:0:
448,192,284629,1,0,0:0:0:0:
320,192,284691,1,0,0:0:0:0:
192,192,284752,1,0,0:0:0:0:
64,192,284752,1,0,0:0:0:0:
448,192,284814,1,0,0:0:0:0:
192,192,284875,1,0,0:0:0:0:
320,192,284936,1,0,0:0:0:0:
448,192,284936,1,0,0:0:0:0:
64,192,284998,1,0,0:0:0:0:
320,192,285059,1,0,0:0:0:0:
192,192,285121,1,0,0:0:0:0:
64,192,285121,1,0,0:0:0:0:
448,192,285182,1,0,0:0:0:0:
320,192,285244,1,0,0:0:0:0:
64,192,285305,1,0,0:0:0:0:
448,192,285305,1,0,0:0:0:0:
192,192,285367,1,0,0:0:0:0:
320,192,285367,1,0,0:0:0:0:
64,192,285428,1,0,0:0:0:0:
448,192,285489,1,0,0:0:0:0:
320,192,285551,1,0,0:0:0:0:
64,192,285612,1,0,0:0:0:0:
192,192,285612,1,0,0:0:0:0:
320,192,285674,1,0,0:0:0:0:
448,192,285674,1,0,0:0:0:0:
64,192,285735,1,0,0:0:0:0:
192,192,285735,1,0,0:0:0:0:
320,192,285797,1,0,0:0:0:0:
448,192,285797,1,0,0:0:0:0:
192,192,285858,1,0,0:0:0:0:
64,192,285920,1,0,0:0:0:0:
448,192,285981,1,0,0:0:0:0:
192,192,286042,1,0,0:0:0:0:
64,192,286042,1,0,0:0:0:0:
320,192,286104,1,0,0:0:0:0:
448,192,286104,1,0,0:0:0:0:
192,192,286165,1,0,0:0:0:0:
64,192,286165,1,0,0:0:0:0:
320,192,286227,1,0,0:0:0:0:
448,192,286227,1,0,0:0:0:0:
192,192,286288,1,0,0:0:0:0:
64,192,286288,1,0,0:0:0:0:
448,192,286350,1,0,0:0:0:0:
320,192,286350,1,0,0:0:0:0:
192,192,286411,1,0,0:0:0:0:
64,192,286411,1,0,0:0:0:0:
320,192,286473,1,0,0:0:0:0:
448,192,286473,1,0,0:0:0:0:
64,192,286534,1,0,0:0:0:0:
192,192,286534,1,0,0:0:0:0:
320,192,286595,1,0,0:0:0:0:
448,192,286595,1,0,0:0:0:0:
192,192,286657,1,0,0:0:0:0:
320,192,286718,1,0,0:0:0:0:
64,192,286780,1,0,0:0:0:0:
448,192,286780,1,0,0:0:0:0:
320,192,286841,1,0,0:0:0:0:
192,192,286841,1,0,0:0:0:0:
448,192,286903,1,0,0:0:0:0:
64,192,286964,1,0,0:0:0:0:
320,192,287026,1,0,0:0:0:0:
192,192,287087,1,0,0:0:0:0:
448,192,287087,1,0,0:0:0:0:
64,192,287148,1,0,0:0:0:0:
320,192,287148,1,0,0:0:0:0:
192,192,287210,1,0,0:0:0:0:
448,192,287271,1,0,0:0:0:0:
64,192,287333,1,0,0:0:0:0:
192,192,287333,1,0,0:0:0:0:
320,192,287394,1,0,0:0:0:0:
448,192,287394,1,0,0:0:0:0:
64,192,287456,1,0,0:0:0:0:
320,192,287517,1,0,0:0:0:0:
448,192,287579,1,0,0:0:0:0:
64,192,287640,1,0,0:0:0:0:
320,192,287701,1,0,0:0:0:0:
448,192,287701,1,0,0:0:0:0:
192,192,287763,1,0,0:0:0:0:
320,192,287824,1,0,0:0:0:0:
64,192,287886,1,0,0:0:0:0:
192,192,287886,1,0,0:0:0:0:
320,192,287947,1,0,0:0:0:0:
192,192,288009,1,0,0:0:0:0:
320,192,288070,1,0,0:0:0:0:
448,192,288070,1,0,0:0:0:0:
64,192,288132,1,0,0:0:0:0:
320,192,288193,1,0,0:0:0:0:
448,192,288254,1,0,0:0:0:0:
192,192,288254,1,0,0:0:0:0:
320,192,288316,1,0,0:0:0:0:
64,192,288316,1,0,0:0:0:0:
192,192,288377,1,0,0:0:0:0:
64,192,288439,1,0,0:0:0:0:
448,192,288500,1,0,0:0:0:0:
64,192,288562,1,0,0:0:0:0:
192,192,288562,1,0,0:0:0:0:
320,192,288623,1,0,0:0:0:0:
448,192,288623,1,0,0:0:0:0:
192,192,288685,1,0,0:0:0:0:
64,192,288746,1,0,0:0:0:0:
192,192,288807,1,0,0:0:0:0:
320,192,288807,1,0,0:0:0:0:
64,192,288869,1,0,0:0:0:0:
448,192,288869,1,0,0:0:0:0:
320,192,288930,1,0,0:0:0:0:
192,192,288992,1,0,0:0:0:0:
448,192,289053,1,0,0:0:0:0:
64,192,289115,1,0,0:0:0:0:
320,192,289176,1,0,0:0:0:0:
448,192,289176,1,0,0:0:0:0:
192,192,289238,1,0,0:0:0:0:
320,192,289299,1,0,0:0:0:0:
64,192,289360,1,0,0:0:0:0:
448,192,289360,1,0,0:0:0:0:
192,192,289422,1,0,0:0:0:0:
320,192,289483,1,0,0:0:0:0:
64,192,289545,1,0,0:0:0:0:
192,192,289545,1,0,0:0:0:0:
448,192,289606,1,0,0:0:0:0:
320,192,289668,1,0,0:0:0:0:
64,192,289729,1,0,0:0:0:0:
192,192,289729,1,0,0:0:0:0:
448,192,289791,1,0,0:0:0:0:
320,192,289791,1,0,0:0:0:0:
192,192,289852,1,0,0:0:0:0:
64,192,289913,1,0,0:0:0:0:
448,192,289975,1,0,0:0:0:0:
192,192,290036,1,0,0:0:0:0:
320,192,290036,1,0,0:0:0:0:
64,192,290098,1,0,0:0:0:0:
448,192,290098,1,0,0:0:0:0:
192,192,290159,1,0,0:0:0:0:
320,192,290221,1,0,0:0:0:0:
448,192,290282,1,0,0:0:0:0:
192,192,290282,1,0,0:0:0:0:
64,192,290344,1,0,0:0:0:0:
320,192,290344,1,0,0:0:0:0:
448,192,290405,1,0,0:0:0:0:
192,192,290466,1,0,0:0:0:0:
320,192,290528,1,0,0:0:0:0:
64,192,290589,1,0,0:0:0:0:
320,192,290651,1,0,0:0:0:0:
448,192,290651,1,0,0:0:0:0:
192,192,290712,1,0,0:0:0:0:
448,192,290774,1,0,0:0:0:0:
64,192,290835,1,0,0:0:0:0:
192,192,290835,1,0,0:0:0:0:
320,192,290897,1,0,0:0:0:0:
64,192,290958,1,0,0:0:0:0:
448,192,291019,1,0,0:0:0:0:
320,192,291019,1,0,0:0:0:0:
192,192,291081,1,0,0:0:0:0:
64,192,291142,1,0,0:0:0:0:
320,192,291204,1,0,0:0:0:0:
448,192,291204,1,0,0:0:0:0:
192,192,291265,1,0,0:0:0:0:
64,192,291265,1,0,0:0:0:0:
448,192,291327,1,0,0:0:0:0:
320,192,291388,1,0,0:0:0:0:
64,192,291450,1,0,0:0:0:0:
448,192,291511,1,0,0:0:0:0:
320,192,291511,1,0,0:0:0:0:
192,192,291572,1,0,0:0:0:0:
64,192,291572,1,0,0:0:0:0:
448,192,291634,1,0,0:0:0:0:
320,192,291695,1,0,0:0:0:0:
64,192,291757,1,0,0:0:0:0:
192,192,291757,1,0,0:0:0:0:
