osu file format v14

[General]
AudioFilename: audio.mp3
AudioLeadIn: 0
PreviewTime: 70311
Countdown: 0
SampleSet: Soft
StackLeniency: 0.4
Mode: 0
LetterboxInBreaks: 0
WidescreenStoryboard: 1

[Editor]
Bookmarks: 1728,22395,27728,49061,70395,91728,104728,105061,107395,107728,110061,110395,113061,116395
DistanceSpacing: 0.5
BeatDivisor: 4
GridSize: 4
TimelineZoom: 2.6

[Metadata]
Title:Flashes
TitleUnicode:Flashes
Artist:Dollscythe
ArtistUnicode:Dollscythe
Creator:PaRaDogi
Version:HARD
Source:beatmania IIDX 22 PENDUAL
Tags:okorin Okoratu pocket- ajt habiholic halgoh -ascended- ascended electronic rythm game daoski video game instrumental electronic hommarju remix &
BeatmapID:3044916
BeatmapSetID:1433412

[Difficulty]
HPDrainRate:3.5
CircleSize:3.8
OverallDifficulty:6.5
ApproachRate:7.5
SliderMultiplier:1.4
SliderTickRate:1

[Events]
//Background and Video events
0,0,"white-hair-anime-anime-girls-yellow-eyes-short-hair-weapon-17792-wallhere.com.jpg",0,0
//Break Periods
//Storyboard Layer 0 (Background)
//Storyboard Layer 1 (Fail)
//Storyboard Layer 2 (Pass)
//Storyboard Layer 3 (Foreground)
//Storyboard Layer 4 (Overlay)
//Storyboard Sound Samples

[TimingPoints]
1062,333.333333333333,4,2,2,40,1,0
1062,-181.818181818181,4,2,2,40,0,0
1561,-181.818181818181,4,2,1,40,0,0
1728,-181.818181818181,4,2,3,40,0,0
2228,-181.818181818181,4,2,4,40,0,0
2895,-181.818181818181,4,2,5,40,0,0
3228,-181.818181818181,4,2,6,40,0,0
3395,-181.818181818181,4,2,7,40,0,0
3728,-181.818181818181,4,2,8,40,0,0
4395,-181.818181818181,4,2,9,40,0,0
4895,-181.818181818181,4,2,10,40,0,0
5561,-181.818181818181,4,2,5,40,0,0
5895,-181.818181818181,4,2,6,40,0,0
6061,-181.818181818181,4,2,1,40,0,0
6395,-181.818181818181,4,2,11,40,0,0
7061,-181.818181818181,4,2,12,40,0,0
7561,-181.818181818181,4,2,13,40,0,0
8228,-181.818181818181,4,2,5,40,0,0
8561,-181.818181818181,4,2,6,40,0,0
8728,-181.818181818181,4,2,7,40,0,0
9061,-181.818181818181,4,2,14,40,0,0
9561,-181.818181818181,4,2,1,40,0,0
9728,-181.818181818181,4,2,15,40,0,0
10228,-181.818181818181,4,2,16,40,0,0
10395,-181.818181818181,4,2,1,40,0,0
10895,-181.818181818181,4,2,5,40,0,0
11228,-181.818181818181,4,2,6,40,0,0
11728,-133.333333333333,4,2,98,60,0,0
20728,-133.333333333333,4,2,17,60,0,0
21061,-133.333333333333,4,2,98,60,0,0
22395,-133.333333333333,4,2,98,70,0,0
26395,-133.333333333333,4,2,90,70,0,0
27061,-133.333333333333,4,2,92,70,0,0
27395,-133.333333333333,4,2,93,70,0,0
27728,-90.9090909090909,4,2,30,70,0,0
28061,-90.9090909090909,4,2,1,70,0,0
28228,-90.9090909090909,4,2,21,70,0,0
28561,-90.9090909090909,4,2,25,70,0,0
28728,-90.9090909090909,4,2,27,70,0,0
28895,-90.9090909090909,4,2,37,70,0,0
29061,-90.9090909090909,4,2,29,70,0,0
29395,-90.9090909090909,4,2,1,70,0,0
29561,-90.9090909090909,4,2,21,70,0,0
29728,-90.9090909090909,4,2,25,70,0,0
29895,-90.9090909090909,4,2,27,70,0,0
30061,-90.9090909090909,4,2,26,70,0,0
30395,-90.9090909090909,4,2,22,70,0,0
30728,-90.9090909090909,4,2,28,70,0,0
31728,-90.9090909090909,4,2,31,70,0,0
31895,-90.9090909090909,4,2,33,70,0,0
31978,-90.9090909090909,4,2,31,70,0,0
32228,-90.9090909090909,4,2,32,70,0,0
32395,-90.9090909090909,4,2,33,70,0,0
32478,-90.9090909090909,4,2,32,70,0,0
32895,-90.9090909090909,4,2,33,70,0,0
33061,-90.9090909090909,4,2,30,70,0,0
33395,-90.9090909090909,4,2,1,70,0,0
33561,-90.9090909090909,4,2,21,70,0,0
33895,-90.9090909090909,4,2,25,70,0,0
34061,-90.9090909090909,4,2,27,70,0,0
34228,-90.9090909090909,4,2,37,70,0,0
34395,-90.9090909090909,4,2,29,70,0,0
34728,-90.9090909090909,4,2,1,70,0,0
34895,-90.9090909090909,4,2,21,70,0,0
35061,-90.9090909090909,4,2,25,70,0,0
35228,-90.9090909090909,4,2,27,70,0,0
35395,-90.9090909090909,4,2,26,70,0,0
35728,-90.9090909090909,4,2,22,70,0,0
36061,-90.9090909090909,4,2,28,70,0,0
37061,-90.9090909090909,4,2,40,70,0,0
37311,-90.9090909090909,4,2,41,70,0,0
37561,-90.9090909090909,4,2,42,70,0,0
37728,-90.9090909090909,4,2,1,70,0,0
37811,-90.9090909090909,4,2,43,70,0,0
38061,-90.9090909090909,4,2,44,70,0,0
38395,-90.9090909090909,4,2,30,80,0,0
38728,-90.9090909090909,4,2,1,80,0,0
38895,-90.9090909090909,4,2,21,80,0,0
39228,-90.9090909090909,4,2,25,80,0,0
39395,-90.9090909090909,4,2,27,80,0,0
39561,-90.9090909090909,4,2,37,80,0,0
39728,-90.9090909090909,4,2,29,80,0,0
40061,-90.9090909090909,4,2,1,80,0,0
40228,-90.9090909090909,4,2,21,80,0,0
40394,-90.9090909090909,4,2,25,80,0,0
40561,-90.9090909090909,4,2,27,80,0,0
40728,-90.9090909090909,4,2,26,80,0,0
41061,-90.9090909090909,4,2,22,80,0,0
41395,-90.9090909090909,4,2,28,80,0,0
42395,-90.9090909090909,4,2,31,80,0,0
42561,-90.9090909090909,4,2,33,80,0,0
42645,-90.9090909090909,4,2,31,80,0,0
42895,-90.9090909090909,4,2,32,80,0,0
43061,-90.9090909090909,4,2,33,80,0,0
43145,-90.9090909090909,4,2,32,80,0,0
43561,-90.9090909090909,4,2,33,80,0,0
43728,-90.9090909090909,4,2,30,80,0,0
44061,-90.9090909090909,4,2,1,80,0,0
44228,-90.9090909090909,4,2,21,80,0,0
44561,-90.9090909090909,4,2,25,80,0,0
44728,-90.9090909090909,4,2,27,80,0,0
44895,-90.9090909090909,4,2,37,80,0,0
45061,-90.9090909090909,4,2,29,80,0,0
45395,-90.9090909090909,4,2,1,80,0,0
45561,-90.9090909090909,4,2,21,80,0,0
45727,-90.9090909090909,4,2,25,80,0,0
45894,-90.9090909090909,4,2,27,80,0,0
46061,-90.9090909090909,4,2,26,80,0,0
46395,-90.9090909090909,4,2,22,80,0,0
46728,-90.9090909090909,4,2,28,80,0,0
47728,-90.9090909090909,4,2,98,80,0,0
48395,-90.9090909090909,4,2,92,80,0,0
48728,-90.9090909090909,4,2,93,80,0,0
49061,-133.333333333333,4,2,98,60,0,0
58061,-133.333333333333,4,2,17,60,0,0
58394,-133.333333333333,4,2,98,60,0,0
59728,-133.333333333333,4,2,98,70,0,0
60395,-133.333333333333,4,2,80,70,0,0
61061,-133.333333333333,4,2,98,70,0,0
63061,-133.333333333333,4,2,81,70,0,0
63395,-133.333333333333,4,2,98,70,0,0
69061,-133.333333333333,4,2,90,70,0,0
69728,-133.333333333333,4,2,92,70,0,0
70061,-133.333333333333,4,2,93,70,0,0
70395,-90.9090909090909,4,2,70,80,0,0
70478,-90.9090909090909,4,2,71,80,0,0
70561,-90.9090909090909,4,2,52,80,0,0
71061,-90.9090909090909,4,2,53,80,0,0
71311,-90.9090909090909,4,2,52,80,0,0
71395,-90.9090909090909,4,2,99,80,0,0
71561,-90.9090909090909,4,2,54,80,0,0
71895,-90.9090909090909,4,2,73,80,0,0
71978,-90.9090909090909,4,2,74,80,0,0
72061,-90.9090909090909,4,2,55,80,0,0
72228,-90.9090909090909,4,2,99,80,0,0
72395,-90.9090909090909,4,2,52,80,0,0
72561,-90.9090909090909,4,2,51,80,0,0
72728,-90.9090909090909,4,2,50,80,0,0
72894,-90.9090909090909,4,2,56,80,0,0
73061,-90.9090909090909,4,2,77,80,0,0
73145,-90.9090909090909,4,2,76,80,0,0
73228,-90.9090909090909,4,2,50,80,0,0
73395,-90.9090909090909,4,2,99,80,0,0
73561,-90.9090909090909,4,2,50,80,0,0
73728,-90.9090909090909,4,2,51,80,0,0
73978,-90.9090909090909,4,2,50,80,0,0
74061,-90.9090909090909,4,2,99,80,0,0
74228,-90.9090909090909,4,2,51,80,0,0
74561,-90.9090909090909,4,2,71,80,0,0
74645,-90.9090909090909,4,2,72,80,0,0
74728,-90.9090909090909,4,2,53,80,0,0
75061,-90.9090909090909,4,2,72,80,0,0
75145,-90.9090909090909,4,2,73,80,0,0
75228,-90.9090909090909,4,2,58,80,0,0
75395,-90.9090909090909,4,2,99,80,0,0
75728,-90.9090909090909,4,2,70,80,0,0
75811,-90.9090909090909,4,2,71,80,0,0
75895,-90.9090909090909,4,2,52,80,0,0
76061,-90.9090909090909,4,2,99,80,0,0
76228,-90.9090909090909,4,2,52,80,0,0
76395,-90.9090909090909,4,2,53,80,0,0
76478,-90.9090909090909,4,2,99,80,0,0
76645,-90.9090909090909,4,2,52,80,0,0
76728,-90.9090909090909,4,2,99,80,0,0
76895,-90.9090909090909,4,2,59,80,0,0
77061,-90.9090909090909,4,2,99,80,0,0
77228,-90.9090909090909,4,2,73,80,0,0
77311,-90.9090909090909,4,2,79,80,0,0
77395,-90.9090909090909,4,2,55,80,0,0
77728,-90.9090909090909,4,2,53,80,0,0
77894,-90.9090909090909,4,2,52,80,0,0
78061,-90.9090909090909,4,2,51,80,0,0
78227,-90.9090909090909,4,2,50,80,0,0
78395,-90.9090909090909,4,2,76,80,0,0
78478,-90.9090909090909,4,2,70,80,0,0
78561,-90.9090909090909,4,2,51,80,0,0
78728,-90.9090909090909,4,2,99,80,0,0
78895,-90.9090909090909,4,2,51,80,0,0
79061,-90.9090909090909,4,2,52,80,0,0
79311,-90.9090909090909,4,2,51,80,0,0
79394,-90.9090909090909,4,2,99,80,0,0
79561,-90.9090909090909,4,2,53,80,0,0
79728,-90.9090909090909,4,2,60,80,0,0
79978,-90.9090909090909,4,2,61,80,0,0
80228,-90.9090909090909,4,2,60,80,0,0
80728,-90.9090909090909,4,2,76,80,0,0
80811,-90.9090909090909,4,2,70,80,0,0
80895,-90.9090909090909,4,2,51,80,0,0
81061,-90.9090909090909,4,2,70,80,0,0
81145,-90.9090909090909,4,2,71,80,0,0
81228,-90.9090909090909,4,2,52,80,0,0
81394,-90.9090909090909,4,2,99,80,0,0
81561,-90.9090909090909,4,2,52,80,0,0
81727,-90.9090909090909,4,2,82,80,0,0
81978,-90.9090909090909,4,2,52,80,0,0
82061,-90.9090909090909,4,2,99,80,0,0
82228,-90.9090909090909,4,2,54,80,0,0
82561,-90.9090909090909,4,2,73,80,0,0
82645,-90.9090909090909,4,2,74,80,0,0
82728,-90.9090909090909,4,2,55,80,0,0
82895,-90.9090909090909,4,2,99,80,0,0
83061,-90.9090909090909,4,2,52,80,0,0
83227,-90.9090909090909,4,2,51,80,0,0
83394,-90.9090909090909,4,2,50,80,0,0
83560,-90.9090909090909,4,2,56,80,0,0
83728,-90.9090909090909,4,2,77,80,0,0
83811,-90.9090909090909,4,2,76,80,0,0
83895,-90.9090909090909,4,2,50,80,0,0
84061,-90.9090909090909,4,2,99,80,0,0
84228,-90.9090909090909,4,2,50,80,0,0
84394,-90.9090909090909,4,2,51,80,0,0
84645,-90.9090909090909,4,2,50,80,0,0
84727,-90.9090909090909,4,2,99,80,0,0
84895,-90.9090909090909,4,2,51,80,0,0
85228,-90.9090909090909,4,2,71,80,0,0
85311,-90.9090909090909,4,2,72,80,0,0
85395,-90.9090909090909,4,2,83,80,0,0
85728,-90.9090909090909,4,2,72,80,0,0
85811,-90.9090909090909,4,2,73,80,0,0
85895,-90.9090909090909,4,2,58,80,0,0
86061,-90.9090909090909,4,2,99,80,0,0
86395,-90.9090909090909,4,2,70,80,0,0
86478,-90.9090909090909,4,2,71,80,0,0
86561,-90.9090909090909,4,2,52,80,0,0
86728,-90.9090909090909,4,2,99,80,0,0
86895,-90.9090909090909,4,2,52,80,0,0
87061,-90.9090909090909,4,2,84,80,0,0
87311,-90.9090909090909,4,2,52,80,0,0
87395,-90.9090909090909,4,2,99,80,0,0
87561,-90.9090909090909,4,2,59,80,0,0
87728,-90.9090909090909,4,2,99,80,0,0
87895,-90.9090909090909,4,2,73,80,0,0
87978,-90.9090909090909,4,2,79,80,0,0
88061,-90.9090909090909,4,2,55,80,0,0
88228,-90.9090909090909,4,2,52,80,0,0
88394,-90.9090909090909,4,2,53,80,0,0
88561,-90.9090909090909,4,2,52,80,0,0
88728,-90.9090909090909,4,2,51,80,0,0
88895,-90.9090909090909,4,2,50,80,0,0
89061,-90.9090909090909,4,2,76,80,0,0
89145,-90.9090909090909,4,2,70,80,0,0
89228,-90.9090909090909,4,2,51,80,0,0
89728,-90.9090909090909,4,2,52,80,0,0
89978,-90.9090909090909,4,2,85,80,0,0
90228,-90.9090909090909,4,2,53,80,0,0
90395,-90.9090909090909,4,2,90,80,0,0
90561,-90.9090909090909,4,2,71,80,0,0
90645,-90.9090909090909,4,2,72,80,0,0
90728,-90.9090909090909,4,2,18,80,0,0
90811,-90.9090909090909,4,2,90,80,0,0
91061,-90.9090909090909,4,2,92,80,0,0
91145,-90.9090909090909,4,2,94,80,0,0
91228,-90.9090909090909,4,2,95,80,0,0
91395,-90.9090909090909,4,2,94,80,0,0
91478,-90.9090909090909,4,2,96,80,0,0
91561,-90.9090909090909,4,2,97,80,0,0
91728,-133.333333333333,4,2,2,60,0,0
92061,-133.333333333333,4,2,98,60,0,0
92395,-133.333333333333,4,2,3,60,0,0
92561,-133.333333333333,4,2,98,60,0,0
92895,-133.333333333333,4,2,4,60,0,0
92978,-133.333333333333,4,2,98,60,0,0
93561,-133.333333333333,4,2,5,60,0,0
93728,-133.333333333333,4,2,98,60,0,0
93895,-133.333333333333,4,2,6,60,0,0
94061,-133.333333333333,4,2,7,60,0,0
94395,-133.333333333333,4,2,8,60,0,0
94645,-133.333333333333,4,2,98,60,0,0
95061,-133.333333333333,4,2,9,60,0,0
95228,-133.333333333333,4,2,98,60,0,0
95561,-133.333333333333,4,2,10,60,0,0
95728,-133.333333333333,4,2,98,60,0,0
96228,-133.333333333333,4,2,5,60,0,0
96395,-133.333333333333,4,2,87,60,0,0
96478,-133.333333333333,4,2,98,60,0,0
96561,-133.333333333333,4,2,6,60,0,0
96728,-133.333333333333,4,2,98,60,0,0
97061,-133.333333333333,4,2,11,60,0,0
97395,-133.333333333333,4,2,98,60,0,0
97728,-133.333333333333,4,2,12,60,0,0
97895,-133.333333333333,4,2,98,60,0,0
98228,-133.333333333333,4,2,13,60,0,0
98395,-133.333333333333,4,2,98,60,0,0
98895,-133.333333333333,4,2,5,60,0,0
99061,-133.333333333333,4,2,88,60,0,0
99145,-133.333333333333,4,2,98,60,0,0
99228,-133.333333333333,4,2,6,60,0,0
99394,-133.333333333333,4,2,7,60,0,0
99728,-133.333333333333,4,2,14,60,0,0
100061,-133.333333333333,4,2,98,60,0,0
100395,-133.333333333333,4,2,15,60,0,0
100561,-133.333333333333,4,2,98,60,0,0
100895,-133.333333333333,4,2,16,60,0,0
101061,-133.333333333333,4,2,98,60,0,0
101561,-133.333333333333,4,2,5,60,0,0
101728,-133.333333333333,4,2,89,60,0,0
101895,-133.333333333333,4,2,6,60,0,0
102061,-133.333333333333,4,2,98,60,0,0
102395,-181.818181818181,4,2,2,40,0,0
103061,-181.818181818181,4,2,3,40,0,0
103561,-181.818181818181,4,2,4,40,0,0
104228,-181.818181818181,4,2,5,40,0,0
104561,-181.818181818181,4,2,6,40,0,0
104728,-181.818181818181,4,2,7,40,0,0
105061,-181.818181818181,4,2,8,40,0,0
105728,-181.818181818181,4,2,9,40,0,0
106228,-181.818181818181,4,2,10,40,0,0
106895,-181.818181818181,4,2,5,40,0,0
107228,-181.818181818181,4,2,6,40,0,0
107394,-181.818181818181,4,2,99,40,0,0
107728,-181.818181818181,4,2,11,40,0,0
108395,-181.818181818181,4,2,12,40,0,0
108894,-181.818181818181,4,2,13,40,0,0
109561,-181.818181818181,4,2,5,40,0,0
109895,-181.818181818181,4,2,6,40,0,0
110061,-181.818181818181,4,2,7,40,0,0
110395,-181.818181818181,4,2,14,40,0,0
111061,-181.818181818181,4,2,15,40,0,0
111561,-181.818181818181,4,2,16,40,0,0
111728,-181.818181818181,4,2,99,40,0,0
112228,-181.818181818181,4,2,5,40,0,0
112561,-181.818181818181,4,2,6,40,0,0
114395,-181.818181818181,4,2,99,5,0,0

[Colours]
Combo1 : 192,192,192
Combo2 : 0,217,217
Combo3 : 175,221,254
Combo4 : 255,102,255
Combo5 : 255,60,157

[HitObjects]
69,167,1062,6,0,B|121:155|121:155|125:157|125:157|194:144,1,115.50000352478,6|0,1:2|0:0,0:0:0:0:
236,91,1728,2,0,B|272:93|272:93|277:95|277:95|316:97,1,77.0000023498536,2|0,0:2|0:0,0:0:0:0:
381,60,2228,1,2,0:2:0:0:
480,148,2561,5,0,0:0:0:0:
383,244,2895,1,2,0:2:0:0:
383,244,3061,2,0,L|390:297,1,38.5000011749268,0|2,0:0|0:2,0:0:0:0:
354,351,3395,1,2,0:2:0:0:
224,324,3728,6,0,P|204:300|236:226,1,115.50000352478,2|0,0:2|0:0,0:0:0:0:
279,170,4395,2,0,P|290:142|272:93,1,77.0000023498536,2|0,0:2|0:0,0:0:0:0:
224,40,4895,1,2,0:2:0:0:
95,8,5228,5,0,0:0:0:0:
5,100,5561,1,2,0:2:0:0:
5,100,5728,2,0,L|15:148,1,38.5000011749268,0|2,0:0|0:2,0:0:0:0:
73,185,6061,2,0,L|67:229,1,38.5000011749268
115,283,6395,6,0,B|145:309|145:309|224:295,1,115.50000352478,2|0,0:2|0:0,0:0:0:0:
276,241,7061,2,0,B|301:233|301:233|352:248,1,77.0000023498536,2|0,0:2|0:0,0:0:0:0:
402,306,7561,1,2,0:2:0:0:
495,214,7895,1,0,0:0:0:0:
405,117,8228,1,2,0:2:0:0:
405,117,8395,6,0,L|358:128,1,38.5000011749268,0|2,0:0|0:2,0:0:0:0:
306,171,8728,2,0,L|253:157,1,38.5000011749268,2|0,0:2|0:0,0:0:0:0:
191,171,9061,6,0,P|154:193|148:262,1,115.50000352478,2|0,0:2|0:0,0:0:0:0:
193,326,9728,2,0,B|225:349|225:349|303:336,1,115.50000352478,2|2,0:2|0:2,0:0:0:0:
370,298,10395,6,0,L|364:253,1,38.5000011749268
315,202,10728,2,0,L|327:158,1,38.5000011749268,0|2,0:0|0:2,0:0:0:0:
387,122,11061,1,0,0:0:0:0:
297,27,11395,1,0,0:0:0:0:
179,89,11728,6,0,L|117:81,1,52.5000020027161,6|0,1:1|0:0,0:0:0:0:
54,110,12061,1,0,0:0:0:0:
54,110,12228,1,0,0:0:0:0:
91,180,12395,2,0,B|106:201|106:201|91:287,1,105.000004005432,8|0,0:2|0:0,0:0:0:0:
134,347,12895,1,0,0:0:0:0:
134,347,13061,6,0,L|190:355,1,52.5000020027161,0|0,1:0|0:0,0:0:0:0:
255,320,13395,2,0,L|311:312,1,52.5000020027161
374,352,13728,1,8,0:2:0:0:
485,278,14061,1,0,0:0:0:0:
430,152,14395,6,0,B|399:118|361:126|355:142|306:155|270:117,1,157.500006008148,0|0,1:0|0:0,0:0:0:0:
227,71,15061,2,0,P|185:61|139:157,1,157.500006008148,8|0,0:2|0:0,0:0:0:0:
181,206,15728,5,0,1:0:0:0:
122,329,16061,1,0,0:0:0:0:
122,329,16228,1,0,0:0:0:0:
48,360,16395,2,0,L|30:299,1,52.5000020027161,8|0,0:2|0:0,0:0:0:0:
6,237,16728,2,0,L|20:178,1,52.5000020027161
19,108,17061,6,0,B|48:84|48:84|172:118,1,157.500006008148,0|0,1:0|0:0,0:0:0:0:
204,180,17728,2,0,P|235:195|294:103,1,157.500006008148,8|0,0:2|0:0,0:0:0:0:
348,52,18395,6,0,L|406:46,1,52.5000020027161,0|0,1:0|0:0,0:0:0:0:
466,7,18728,2,0,P|492:20|503:48,1,52.5000020027161
470,111,19061,1,8,0:2:0:0:
510,235,19395,1,0,0:0:0:0:
430,337,19728,6,0,B|357:325|357:325|352:318|352:318|263:304,1,157.500006008148,0|0,1:0|0:0,0:0:0:0:
212,349,20395,1,8,0:2:0:0:
95,288,20728,1,2,0:2:0:0:
157,169,21061,6,0,B|189:194|189:194|314:163,1,157.500006008148,0|0,1:0|0:2,0:0:0:0:
354,109,21728,2,0,P|366:75|279:81,1,157.500006008148,8|0,0:2|0:0,0:0:0:0:
200,66,22395,5,14,1:1:0:0:
88,131,22728,1,8,0:1:0:0:
155,245,23061,1,8,0:1:0:0:
268,184,23395,1,8,0:1:0:0:
160,92,23728,5,8,0:1:0:0:
77,192,24061,1,8,0:1:0:0:
179,276,24394,1,8,0:1:0:0:
264,180,24728,1,8,0:1:0:0:
256,192,25061,12,2,27395,1:0:0:0:
443,31,27728,6,0,B|458:106|458:106|456:112|456:112|470:186,1,154.000004699707,6|8,1:1|0:1,0:0:0:0:
408,261,28228,1,2,0:2:0:0:
316,232,28395,2,0,P|283:262|286:306,1,77.0000023498536,0|2,0:2|1:2,0:0:0:0:
204,356,28728,2,0,P|160:342|142:305,1,77.0000023498536,8|2,0:1|0:2,0:0:0:0:
50,265,29061,6,0,B|79:224|79:224|43:125,1,154.000004699707,2|8,1:1|0:1,0:0:0:0:
74,33,29561,1,2,0:2:0:0:
156,89,29728,2,0,L|232:64,1,77.0000023498536,0|2,0:2|1:2,0:0:0:0:
308,7,30061,2,0,P|354:2|398:66,1,115.50000352478,10|0,0:2|0:0,0:0:0:0:
427,82,30395,6,0,L|413:158,1,77.0000023498536,6|0,1:1|0:0,0:0:0:0:
349,229,30728,1,10,0:1:0:0:
397,313,30895,1,2,0:1:0:0:
314,370,31061,2,0,L|265:360,3,38.5000011749268,0|0|0|0,0:2|0:2|1:2|0:2,0:0:0:0:
237,335,31395,2,0,L|149:352,1,77.0000023498536,10|2,0:1|0:1,0:0:0:0:
70,318,31728,6,0,P|42:273|66:209,1,115.50000352478,2|2,1:2|0:2,0:0:0:0:
88,184,32061,2,0,L|171:192,1,77.0000023498536,8|2,0:1|0:2,0:0:0:0:
252,238,32395,1,0,0:2:0:0:
335,183,32561,1,0,1:0:0:0:
425,228,32728,2,0,P|466:209|470:144,1,115.50000352478,10|0,0:1|0:0,0:0:0:0:
479,98,33061,6,0,B|440:111|403:102|412:74|376:51|316:71,1,154.000004699707,2|8,1:1|0:1,0:0:0:0:
249,15,33561,1,2,0:2:0:0:
188,88,33728,2,0,P|146:84|118:113,1,77.0000023498536,0|2,0:2|1:2,0:0:0:0:
40,157,34061,2,0,L|65:232,1,77.0000023498536,8|2,0:1|0:2,0:0:0:0:
25,322,34395,6,0,B|57:353|57:353|174:322,1,154.000004699707,2|8,1:1|0:1,0:0:0:0:
255,357,34895,1,2,0:2:0:0:
314,285,35061,2,0,L|292:202,1,77.0000023498536,0|2,0:2|1:2,0:0:0:0:
208,160,35395,2,0,B|202:118|202:118|261:54,1,115.50000352478,10|0,0:2|0:0,0:0:0:0:
266,18,35728,6,0,L|350:35,1,77.0000023498536,6|0,1:1|0:0,0:0:0:0:
444,20,36061,1,10,0:1:0:0:
485,110,36228,1,2,0:1:0:0:
421,186,36395,2,0,L|430:238,3,38.5000011749268,0|0|0|0,0:2|0:2|1:2|0:2,0:0:0:0:
416,268,36728,2,0,P|384:294|343:291,1,77.0000023498536,10|2,0:1|0:1,0:0:0:0:
282,362,37061,6,0,P|237:330|170:348,1,115.50000352478,6|6,1:2|0:2,0:0:0:0:
142,363,37395,1,8,0:1:0:0:
49,337,37561,2,0,B|30:291|30:291|63:220,1,115.50000352478,6|6,0:2|0:2,0:0:0:0:
79,196,37895,1,0,1:0:0:0:
23,115,38061,2,0,B|17:72|17:72|43:33,1,77.0000023498536,14|0,0:1|0:0,0:0:0:0:
134,6,38395,6,0,B|205:18|205:18|210:26|210:26|296:44,1,154.000004699707,6|8,1:1|0:1,0:0:0:0:
379,17,38895,1,2,0:2:0:0:
425,104,39061,2,0,P|426:150|404:178,1,77.0000023498536,0|2,0:2|1:2,0:0:0:0:
327,231,39395,2,0,P|301:269|311:308,1,77.0000023498536,8|2,0:1|0:2,0:0:0:0:
377,369,39728,6,0,B|428:378|428:378|476:288,1,154.000004699707,2|8,1:1|0:1,0:0:0:0:
425,206,40228,1,2,0:2:0:0:
503,151,40395,2,0,P|495:109|461:95,1,77.0000023498536,0|2,0:2|1:2,0:0:0:0:
414,17,40728,2,0,P|381:55|317:37,1,115.50000352478,10|0,0:2|0:0,0:0:0:0:
291,18,41061,6,0,L|209:33,1,77.0000023498536,6|0,1:1|0:0,0:0:0:0:
149,102,41395,1,10,0:1:0:0:
60,62,41561,1,2,0:1:0:0:
11,149,41728,2,0,L|19:194,3,38.5000011749268,0|0|0|0,0:2|0:2|1:2|0:2,0:0:0:0:
51,220,42061,2,0,L|39:297,1,77.0000023498536,10|2,0:1|0:1,0:0:0:0:
105,364,42395,6,0,P|159:366|194:297,1,115.50000352478,2|2,1:2|0:2,0:0:0:0:
214,279,42728,2,0,P|259:266|290:288,1,77.0000023498536,8|2,0:1|0:2,0:0:0:0:
363,346,43061,1,0,0:2:0:0:
455,317,43228,1,0,1:0:0:0:
379,253,43395,2,0,L|392:169,1,77.0000023498536,10|0,0:1|0:2,0:0:0:0:
328,100,43728,6,0,P|272:85|237:164,1,154.000004699707,2|8,1:1|0:1,0:0:0:0:
275,251,44228,1,2,0:2:0:0:
212,324,44395,2,0,L|119:312,1,77.0000023498536,0|2,0:2|1:2,0:0:0:0:
52,257,44728,2,0,P|54:208|80:184,1,77.0000023498536,8|2,0:1|0:2,0:0:0:0:
28,99,45061,6,0,B|68:75|68:75|170:110,1,154.000004699707,2|8,1:1|0:1,0:0:0:0:
235,183,45561,1,2,0:2:0:0:
319,129,45728,2,0,L|302:53,1,77.0000023498536,0|2,0:2|1:2,0:0:0:0:
390,4,46061,2,0,P|434:21|445:88,1,115.50000352478,10|0,0:2|0:0,0:0:0:0:
432,121,46395,6,0,L|442:198,1,77.0000023498536,6|0,1:1|0:0,0:0:0:0:
490,282,46728,1,2,0:1:0:0:
420,348,46895,1,2,0:1:0:0:
370,264,47061,2,0,L|316:258,3,38.5000011749268,8|0|0|0,0:2|0:2|0:2|0:2,0:0:0:0:
295,240,47395,2,0,L|199:251,1,77.0000023498536,2|2,0:1|0:1,0:0:0:0:
139,313,47728,6,0,L|130:276,3,38.5000011749268,8|8|8|8,1:1|0:1|0:1|0:1,0:0:0:0:
119,237,48061,2,0,L|128:200,3,38.5000011749268,8|8|8|8,0:1|0:1|0:1|0:1,0:0:0:0:
151,165,48395,2,0,L|142:128,3,38.5000011749268,10|8|8|8,1:1|1:1|1:1|1:1,0:0:0:0:
119,91,48728,2,0,L|128:54,3,38.5000011749268,2|0|0|0,1:0|1:0|1:0|1:0,0:0:0:0:
157,20,49061,6,0,P|227:11|276:80,1,157.500006008148,6|0,1:1|0:0,0:0:0:0:
250,148,49728,1,8,0:2:0:0:
250,148,49895,2,0,L|263:211,1,52.5000020027161
318,262,50228,1,0,0:0:0:0:
318,262,50395,6,0,B|362:290|362:290|433:271,2,105.000004005432,0|0|8,1:0|0:0|0:2,0:0:0:0:
230,357,51395,1,0,0:0:0:0:
130,277,51728,6,0,P|112:236|176:138,1,157.500006008148,0|0,1:0|0:0,0:0:0:0:
188,70,52395,2,0,B|234:35|234:35|329:75,1,157.500006008148,8|0,0:2|0:0,0:0:0:0:
399,43,53061,5,0,1:0:0:0:
499,130,53395,2,0,L|488:194,1,52.5000020027161
429,230,53728,2,0,L|439:286,1,52.5000020027161,8|0,0:2|0:0,0:0:0:0:
403,349,54061,1,0,0:0:0:0:
270,313,54395,6,0,B|290:237|290:237|286:228|286:228|303:151,1,157.500006008148,0|0,1:0|0:0,0:0:0:0:
276,88,55061,2,0,P|255:69|155:130,1,157.500006008148,8|0,0:2|0:0,0:0:0:0:
95,166,55728,5,0,1:0:0:0:
130,294,56061,1,0,0:0:0:0:
262,274,56395,2,0,L|320:290,1,52.5000020027161,8|0,0:2|0:0,0:0:0:0:
362,350,56728,2,0,L|427:343,1,52.5000020027161
485,304,57061,6,0,P|508:273|465:169,1,157.500006008148,0|0,1:0|0:0,0:0:0:0:
422,109,57728,1,8,0:2:0:0:
317,191,58061,2,0,L|266:178,1,52.5000020027161,2|0,0:2|0:0,0:0:0:0:
218,119,58395,6,0,B|147:137|147:137|139:133|139:133|61:155,1,157.500006008148,0|0,1:0|0:0,0:0:0:0:
14,213,59061,2,0,P|0:237|88:278,1,157.500006008148,8|0,0:2|0:0,0:0:0:0:
157,250,59728,5,14,1:1:0:0:
274,315,60061,1,8,0:1:0:0:
345,202,60395,1,10,0:1:0:0:
228,129,60728,1,8,0:1:0:0:
182,280,61061,5,8,0:1:0:0:
314,301,61394,1,8,0:1:0:0:
343,170,61728,1,8,0:1:0:0:
208,142,62061,1,8,0:1:0:0:
217,300,62395,5,8,0:1:0:0:
348,274,62728,1,8,0:1:0:0:
330,142,63062,1,10,0:1:0:0:
194,161,63395,1,8,0:1:0:0:
256,306,63728,5,8,0:1:0:0:
371,237,64061,1,8,0:1:0:0:
309,119,64395,1,8,0:1:0:0:
187,184,64728,1,8,0:1:0:0:
148,315,65061,6,0,L|137:262,3,52.5000020027161,8|8|8|8,1:1|0:1|0:1|0:1,0:0:0:0:
57,265,65728,2,0,L|67:213,3,52.5000020027161,8|8|8|8,0:1|0:1|0:1|0:1,0:0:0:0:
34,137,66395,6,0,P|69:128|103:144,3,52.5000020027161,8|8|8|8,0:1|0:1|0:1|0:1,0:0:0:0:
152,173,67061,2,0,P|187:182|221:166,3,52.5000020027161,8|8|8|8,0:1|0:1|0:1|0:1,0:0:0:0:
256,192,67728,12,2,70061,1:1:0:0:
453,77,70395,6,0,L|448:32,2,38.5000011749268,6|2|2,1:1|0:2|0:2,0:0:0:0:
405,160,70728,2,0,P|352:163|326:138,1,77.0000023498536,8|2,0:1|0:2,0:0:0:0:
257,88,71061,2,0,P|215:76|170:91,1,77.0000023498536,6|0,1:2|0:0,0:0:0:0:
100,132,71395,2,0,L|118:216,1,77.0000023498536,8|2,0:1|0:2,0:0:0:0:
183,282,71728,5,0,1:0:0:0:
126,365,71895,2,0,L|87:359,2,38.5000011749268,2|2|10,0:2|0:2|0:1,0:0:0:0:
227,376,72228,1,0,0:0:0:0:
290,298,72395,2,0,L|374:319,1,77.0000023498536,2|2,1:2|0:2,0:0:0:0:
457,273,72728,2,0,P|474:229|454:197,1,77.0000023498536,10|2,0:1|0:2,0:0:0:0:
405,129,73061,6,0,P|443:113|450:114,2,38.5000011749268,2|2|2,1:2|0:2|0:2,0:0:0:0:
339,200,73395,1,8,0:1:0:0:
254,153,73561,1,2,0:2:0:0:
175,206,73728,2,0,B|134:204|134:204|111:172,1,77.0000023498536,6|0,1:2|0:0,0:0:0:0:
25,137,74061,2,0,L|46:60,1,77.0000023498536,8|2,0:1|0:2,0:0:0:0:
128,2,74395,6,0,L|170:13,3,38.5000011749268,0|0|2|2,1:0|0:0|0:2|0:2,0:0:0:0:
204,22,74728,1,10,0:1:0:0:
272,91,74895,2,0,L|323:84,3,38.5000011749268,0|0|2|2,1:0|0:0|0:2|0:2,0:0:0:0:
348,80,75228,1,2,1:2:0:0:
429,136,75395,1,10,0:1:0:0:
357,278,75728,6,0,P|391:303|397:304,2,38.5000011749268,6|2|2,1:2|0:2|0:2,0:0:0:0:
282,211,76061,1,8,0:1:0:0:
206,268,76228,1,2,0:2:0:0:
135,203,76395,2,0,B|99:189|99:189|63:208,1,77.0000023498536,2|0,1:2|0:0,0:0:0:0:
8,284,76728,2,0,P|7:328|39:360,1,77.0000023498536,8|2,0:1|0:2,0:0:0:0:
127,372,77061,5,0,1:0:0:0:
221,339,77228,2,0,L|208:291,2,38.5000011749268,2|2|10,0:2|0:2|0:1,0:0:0:0:
314,372,77561,1,0,0:0:0:0:
397,317,77728,2,0,L|408:238,1,77.0000023498536,2|2,1:2|0:2,0:0:0:0:
489,181,78061,2,0,L|468:95,1,77.0000023498536,10|2,0:1|0:2,0:0:0:0:
397,49,78395,6,0,P|426:22|436:18,2,38.5000011749268,2|2|2,1:2|0:2|0:2,0:0:0:0:
317,114,78728,1,8,0:1:0:0:
235,64,78895,1,2,0:2:0:0:
155,126,79061,2,0,L|165:171,3,38.5000011749268,2|0|0|2,1:2|0:0|0:0|0:2,0:0:0:0:
201,196,79395,2,0,L|182:280,1,77.0000023498536,8|2,0:1|0:2,0:0:0:0:
103,326,79728,6,0,B|134:358|134:358|221:355,2,115.50000352478,6|14|6,1:2|0:1|1:2,0:0:0:0:
9,196,80478,2,0,L|37:113,1,77.0000023498536,6|0,1:2|0:0,0:0:0:0:
81,119,80728,2,0,P|140:120|169:153,1,77.0000023498536,14|2,0:1|0:2,0:0:0:0:
228,194,81061,6,0,L|222:236,2,38.5000011749268,6|2|2,1:1|0:2|0:2,0:0:0:0:
296,121,81395,1,8,0:1:0:0:
372,184,81561,1,2,0:2:0:0:
465,148,81728,2,0,B|494:177|494:177|485:217,1,77.0000023498536,6|0,1:2|0:0,0:0:0:0:
455,303,82061,2,0,L|371:291,1,77.0000023498536,8|2,0:1|0:2,0:0:0:0:
309,363,82395,6,0,L|270:369,3,38.5000011749268,0|0|2|2,1:0|0:0|0:2|0:2,0:0:0:0:
226,380,82728,2,0,L|137:364,1,77.0000023498536,10|0,0:1|0:0,0:0:0:0:
72,310,83061,2,0,L|59:227,1,77.0000023498536,2|2,1:2|0:2,0:0:0:0:
5,153,83395,2,0,L|17:62,1,77.0000023498536,10|2,0:1|0:2,0:0:0:0:
108,38,83728,6,0,L|103:-11,2,38.5000011749268,2|2|2,1:2|0:2|0:2,0:0:0:0:
178,104,84061,1,8,0:1:0:0:
266,58,84228,1,2,0:2:0:0:
339,124,84395,2,0,P|346:171|324:206,1,77.0000023498536,2|0,1:2|0:0,0:0:0:0:
258,258,84728,2,0,L|165:233,1,77.0000023498536,8|2,0:1|0:2,0:0:0:0:
82,251,85061,6,0,L|89:296,3,38.5000011749268,0|0|2|2,1:0|0:0|0:2|0:2,0:0:0:0:
94,322,85395,1,14,0:1:0:0:
180,371,85561,2,0,L|228:360,3,38.5000011749268,0|0|2|2,1:0|0:0|0:2|0:2,0:0:0:0:
252,352,85895,1,2,1:2:0:0:
358,374,86061,1,10,0:1:0:0:
467,235,86395,2,0,L|507:228,2,38.5000011749268,6|2|2,1:2|0:2|0:2,0:0:0:0:
399,166,86728,2,0,L|322:178,1,77.0000023498536,0|2,0:2|0:2,0:0:0:0:
247,237,87061,2,0,L|168:217,1,77.0000023498536,14|0,0:1|0:0,0:0:0:0:
92,166,87395,1,0,0:1:0:0:
141,84,87561,1,2,0:2:0:0:
68,22,87728,6,0,P|28:35|9:103,1,115.50000352478,6|2,1:1|0:2,0:0:0:0:
0,142,88061,2,0,L|15:219,1,77.0000023498536,2|0,0:2|0:0,0:0:0:0:
66,304,88395,2,0,P|109:327|139:321,1,77.0000023498536,10|2,0:1|0:2,0:0:0:0:
222,273,88728,1,2,0:1:0:0:
301,329,88895,1,2,0:2:0:0:
401,302,89061,6,0,L|393:255,3,38.5000011749268,14|10|10|8,1:2|0:2|0:2|0:2,0:0:0:0:
361,230,89395,2,0,L|369:183,3,38.5000011749268,8|8|10|8,0:2|0:2|0:2|0:2,0:0:0:0:
395,157,89728,2,0,L|387:110,3,38.5000011749268,10|8|8|14,0:2|0:2|0:2|0:2,0:0:0:0:
358,84,90061,2,0,L|366:37,3,38.5000011749268,8|8|10|8,0:2|0:2|0:2|0:2,0:0:0:0:
336,9,90395,6,0,B|281:-3|281:-3|187:24,1,154.000004699707,8|10,1:1|1:1,0:0:0:0:
101,75,90895,1,8,1:1:0:0:
161,153,91061,2,0,L|152:199,3,38.5000011749268,14|10|10|8,1:1|1:1|1:1|1:1,0:0:0:0:
131,231,91395,2,0,L|140:277,3,38.5000011749268,2|2|2|0,3:3|3:3|3:3|3:3,0:0:0:0:
164,304,91728,6,0,P|203:322|226:318,1,52.5000020027161,6|0,1:2|0:0,0:0:0:0:
272,371,92061,2,0,P|306:339|370:340,1,105.000004005432,8|6,0:1|0:2,0:0:0:0:
434,373,92561,1,0,1:0:0:0:
434,373,92728,2,0,L|446:308,1,52.5000020027161,8|2,0:1|0:2,0:0:0:0:
412,250,93061,5,0,1:0:0:0:
495,149,93395,2,0,B|477:102|477:102|481:98|481:98|465:42,1,105.000004005432,8|0,0:1|0:0,0:0:0:0:
403,4,93895,1,2,1:2:0:0:
403,4,94061,2,0,L|332:15,1,52.5000020027161,10|0,0:1|0:0,0:0:0:0:
299,71,94395,6,0,B|243:63|243:63|238:58|238:58|182:49,1,105.000004005432,2|8,1:2|0:1,0:0:0:0:
75,13,95061,1,2,0:2:0:0:
75,13,95228,1,0,1:0:0:0:
12,62,95395,2,0,L|23:126,1,52.5000020027161,8|2,0:1|0:2,0:0:0:0:
78,169,95728,6,0,B|65:220|65:220|67:224|67:224|56:273,1,105.000004005432,0|8,1:0|0:1,0:0:0:0:
90,341,96228,1,2,1:2:0:0:
209,282,96561,1,2,1:2:0:0:
209,282,96728,2,0,P|235:296|274:287,1,52.5000020027161,8|0,0:1|0:0,0:0:0:0:
316,344,97061,6,0,P|349:316|417:320,1,105.000004005432,2|8,1:2|0:1,0:0:0:0:
500,220,97728,1,2,0:2:0:0:
500,220,97895,1,0,1:0:0:0:
449,158,98061,2,0,L|382:167,1,52.5000020027161,8|2,0:1|0:2,0:0:0:0:
339,217,98395,5,0,1:0:0:0:
228,148,98728,2,0,P|186:158|162:222,1,105.000004005432,8|2,0:1|0:2,0:0:0:0:
107,266,99228,1,2,1:2:0:0:
107,266,99395,1,10,0:1:0:0:
10,169,99728,6,0,L|20:111,1,52.5000020027161,2|0,1:2|0:0,0:0:0:0:
63,51,100061,2,0,P|96:29|159:40,1,105.000004005432,8|2,0:1|0:2,0:0:0:0:
229,13,100561,1,0,1:0:0:0:
229,13,100728,2,0,L|294:24,1,52.5000020027161,8|2,0:1|0:2,0:0:0:0:
337,78,101061,6,0,L|443:55,1,105.000004005432,0|8,1:0|0:1,0:0:0:0:
510,85,101561,1,2,1:2:0:0:
426,187,101895,1,2,1:2:0:0:
426,187,102061,2,0,L|443:242,1,52.5000020027161,8|0,0:1|0:0,0:0:0:0:
405,311,102395,6,0,P|376:321|312:266,1,115.50000352478,6|0,1:2|0:0,0:0:0:0:
277,207,103061,2,0,P|258:197|203:215,1,77.0000023498536,2|0,0:2|0:0,0:0:0:0:
154,268,103561,1,2,0:2:0:0:
35,150,104061,6,0,L|45:58,2,77.0000023498536,0|0|2,0:0|0:0|0:2,0:0:0:0:
102,262,105061,2,0,P|146:278|204:238,1,115.50000352478,2|0,0:2|0:0,0:0:0:0:
250,185,105728,2,0,P|276:174|326:200,1,77.0000023498536,2|0,0:2|0:0,0:0:0:0:
370,250,106228,1,2,0:2:0:0:
497,199,106561,6,0,L|479:117,2,77.0000023498536,0|2|2,0:0|0:2|0:2,0:0:0:0:
455,263,107395,1,0,0:0:0:0:
368,364,107728,6,0,B|335:338|335:338|250:353,1,115.50000352478,2|0,0:2|0:0,0:0:0:0:
197,306,108395,2,0,L|117:293,1,77.0000023498536,2|0,0:2|0:0,0:0:0:0:
51,326,108895,1,2,0:2:0:0:
8,168,109395,6,0,L|87:146,1,77.0000023498536
155,40,110061,1,2,0:2:0:0:
264,114,110395,6,0,P|270:157|217:204,1,115.50000352478,2|0,0:2|0:0,0:0:0:0:
154,243,111061,2,0,P|132:264|138:346,1,115.50000352478,2|2,0:2|0:2,0:0:0:0:
206,380,111728,5,0,0:0:0:0:
321,320,112061,1,0,0:0:0:0:
267,200,112395,1,0,0:0:0:0:
143,242,112728,1,0,0:0:0:0:
256,192,113061,12,0,114395,0:0:0:0:
