osu file format v14

[General]
AudioFilename: audio.mp3
AudioLeadIn: 0
PreviewTime: 70311
Countdown: 0
SampleSet: Soft
StackLeniency: 0.4
Mode: 0
LetterboxInBreaks: 0
WidescreenStoryboard: 0

[Editor]
Bookmarks: 22395,27728,49061,70395,91728
DistanceSpacing: 1.1
BeatDivisor: 4
GridSize: 4
TimelineZoom: 2.6

[Metadata]
Title:Flashes
TitleUnicode:Flashes
Artist:Dollscythe
ArtistUnicode:Dollscythe
Creator:PaRaDogi
Version:EXTRA
Source:beatmania IIDX 22 PENDUAL
Tags:okorin Okoratu pocket- ajt habiholic halgoh -ascended- ascended electronic rythm game daoski video game instrumental electronic hommarju remix &
BeatmapID:2949990
BeatmapSetID:1433412

[Difficulty]
HPDrainRate:5
CircleSize:4.3
OverallDifficulty:8.5
ApproachRate:9.5
SliderMultiplier:1.9
SliderTickRate:1

[Events]
//Background and Video events
0,0,"white-hair-anime-anime-girls-yellow-eyes-short-hair-weapon-17792-wallhere.com.jpg",0,0
//Break Periods
//Storyboard Layer 0 (Background)
//Storyboard Layer 1 (Fail)
//Storyboard Layer 2 (Pass)
//Storyboard Layer 3 (Foreground)
//Storyboard Layer 4 (Overlay)
//Storyboard Sound Samples

[TimingPoints]
1062,333.333333333333,4,2,2,40,1,0
1062,-133.333333333333,4,2,2,40,0,0
1561,-133.333333333333,4,2,1,40,0,0
1728,-133.333333333333,4,2,3,40,0,0
2228,-133.333333333333,4,2,4,40,0,0
2895,-133.333333333333,4,2,5,40,0,0
3228,-133.333333333333,4,2,6,40,0,0
3395,-133.333333333333,4,2,7,40,0,0
3728,-133.333333333333,4,2,8,40,0,0
4395,-133.333333333333,4,2,9,40,0,0
4895,-133.333333333333,4,2,10,40,0,0
5561,-133.333333333333,4,2,5,40,0,0
5895,-133.333333333333,4,2,6,40,0,0
6061,-133.333333333333,4,2,1,40,0,0
6395,-133.333333333333,4,2,11,40,0,0
7061,-133.333333333333,4,2,12,40,0,0
7561,-133.333333333333,4,2,13,40,0,0
8228,-133.333333333333,4,2,5,40,0,0
8561,-133.333333333333,4,2,6,40,0,0
8728,-133.333333333333,4,2,7,40,0,0
9061,-133.333333333333,4,2,14,40,0,0
9561,-133.333333333333,4,2,1,40,0,0
9728,-133.333333333333,4,2,15,40,0,0
10228,-133.333333333333,4,2,16,40,0,0
10395,-133.333333333333,4,2,1,40,0,0
10895,-133.333333333333,4,2,5,40,0,0
11228,-133.333333333333,4,2,6,40,0,0
11728,-100,4,2,98,60,0,0
14061,-200,4,2,98,60,0,0
14395,-100,4,2,98,60,0,0
16728,-200,4,2,98,60,0,0
17061,-100,4,2,98,60,0,0
20728,-100,4,2,17,60,0,0
21061,-100,4,2,98,60,0,0
22395,-100,4,2,98,70,0,0
26395,-100,4,2,90,70,0,0
27061,-100,4,2,92,70,0,0
27395,-100,4,2,93,70,0,0
27728,-83.3333333333333,4,2,30,70,0,1
28061,-83.3333333333333,4,2,1,70,0,1
28228,-83.3333333333333,4,2,21,70,0,1
28561,-83.3333333333333,4,2,25,70,0,1
28728,-83.3333333333333,4,2,27,70,0,1
28895,-83.3333333333333,4,2,37,70,0,1
29061,-83.3333333333333,4,2,29,70,0,1
29395,-83.3333333333333,4,2,1,70,0,1
29561,-83.3333333333333,4,2,21,70,0,1
29728,-83.3333333333333,4,2,25,70,0,1
29895,-83.3333333333333,4,2,27,70,0,1
30061,-83.3333333333333,4,2,26,70,0,1
30395,-83.3333333333333,4,2,22,70,0,1
30728,-83.3333333333333,4,2,28,70,0,1
31728,-83.3333333333333,4,2,31,70,0,1
31895,-83.3333333333333,4,2,33,70,0,1
31978,-83.3333333333333,4,2,31,70,0,1
32228,-83.3333333333333,4,2,32,70,0,1
32395,-83.3333333333333,4,2,33,70,0,1
32478,-83.3333333333333,4,2,32,70,0,1
32895,-83.3333333333333,4,2,33,70,0,1
33061,-83.3333333333333,4,2,30,70,0,1
33395,-83.3333333333333,4,2,1,70,0,1
33561,-83.3333333333333,4,2,21,70,0,1
33895,-83.3333333333333,4,2,25,70,0,1
34061,-83.3333333333333,4,2,27,70,0,1
34228,-83.3333333333333,4,2,37,70,0,1
34395,-83.3333333333333,4,2,29,70,0,1
34728,-83.3333333333333,4,2,1,70,0,1
34895,-83.3333333333333,4,2,21,70,0,1
35061,-83.3333333333333,4,2,25,70,0,1
35228,-83.3333333333333,4,2,27,70,0,1
35395,-83.3333333333333,4,2,26,70,0,1
35728,-83.3333333333333,4,2,22,70,0,1
36061,-83.3333333333333,4,2,28,70,0,1
37061,-83.3333333333333,4,2,40,70,0,1
37311,-83.3333333333333,4,2,41,70,0,1
37561,-83.3333333333333,4,2,42,70,0,1
37728,-83.3333333333333,4,2,1,70,0,1
37811,-83.3333333333333,4,2,43,70,0,1
38061,-83.3333333333333,4,2,44,70,0,1
38395,-83.3333333333333,4,2,30,80,0,1
38728,-83.3333333333333,4,2,1,80,0,1
38895,-83.3333333333333,4,2,21,80,0,1
39228,-83.3333333333333,4,2,25,80,0,1
39395,-83.3333333333333,4,2,27,80,0,1
39561,-83.3333333333333,4,2,37,80,0,1
39728,-83.3333333333333,4,2,29,80,0,1
40061,-83.3333333333333,4,2,1,80,0,1
40228,-83.3333333333333,4,2,21,80,0,1
40394,-83.3333333333333,4,2,25,80,0,1
40561,-83.3333333333333,4,2,27,80,0,1
40728,-83.3333333333333,4,2,26,80,0,1
41061,-83.3333333333333,4,2,22,80,0,1
41395,-83.3333333333333,4,2,28,80,0,1
42395,-83.3333333333333,4,2,31,80,0,1
42561,-83.3333333333333,4,2,33,80,0,1
42645,-83.3333333333333,4,2,31,80,0,1
42895,-83.3333333333333,4,2,32,80,0,1
43061,-83.3333333333333,4,2,33,80,0,1
43145,-83.3333333333333,4,2,32,80,0,1
43561,-83.3333333333333,4,2,33,80,0,1
43728,-83.3333333333333,4,2,30,80,0,1
44061,-83.3333333333333,4,2,1,80,0,1
44228,-83.3333333333333,4,2,21,80,0,1
44561,-83.3333333333333,4,2,25,80,0,1
44728,-83.3333333333333,4,2,27,80,0,1
44895,-83.3333333333333,4,2,37,80,0,1
45061,-83.3333333333333,4,2,29,80,0,1
45395,-83.3333333333333,4,2,1,80,0,1
45561,-83.3333333333333,4,2,21,80,0,1
45727,-83.3333333333333,4,2,25,80,0,1
45894,-83.3333333333333,4,2,27,80,0,1
46061,-83.3333333333333,4,2,26,80,0,1
46395,-83.3333333333333,4,2,22,80,0,1
46728,-83.3333333333333,4,2,28,80,0,1
47728,-83.3333333333333,4,2,98,80,0,1
48395,-83.3333333333333,4,2,92,80,0,1
48728,-83.3333333333333,4,2,93,80,0,1
49061,-100,4,2,98,60,0,0
51395,-200,4,2,98,60,0,0
51728,-100,4,2,98,60,0,0
54061,-200,4,2,98,60,0,0
54395,-100,4,2,98,60,0,0
58061,-100,4,2,17,60,0,0
58394,-100,4,2,98,60,0,0
59728,-100,4,2,98,70,0,0
60395,-100,4,2,80,70,0,0
61061,-100,4,2,98,70,0,0
63061,-100,4,2,81,70,0,0
63395,-100,4,2,98,70,0,0
69061,-100,4,2,90,70,0,0
69728,-100,4,2,92,70,0,0
70061,-100,4,2,93,70,0,0
70395,-71.4285714285714,4,2,70,80,0,1
70478,-71.4285714285714,4,2,71,80,0,1
70561,-71.4285714285714,4,2,52,80,0,1
71061,-71.4285714285714,4,2,53,80,0,1
71311,-71.4285714285714,4,2,52,80,0,1
71395,-71.4285714285714,4,2,99,80,0,1
71561,-71.4285714285714,4,2,54,80,0,1
71895,-71.4285714285714,4,2,73,80,0,1
71978,-71.4285714285714,4,2,74,80,0,1
72061,-71.4285714285714,4,2,55,80,0,1
72228,-71.4285714285714,4,2,99,80,0,1
72395,-71.4285714285714,4,2,52,80,0,1
72561,-71.4285714285714,4,2,51,80,0,1
72728,-71.4285714285714,4,2,50,80,0,1
72894,-71.4285714285714,4,2,56,80,0,1
73061,-71.4285714285714,4,2,77,80,0,1
73145,-71.4285714285714,4,2,76,80,0,1
73228,-71.4285714285714,4,2,50,80,0,1
73395,-71.4285714285714,4,2,99,80,0,1
73561,-71.4285714285714,4,2,50,80,0,1
73728,-71.4285714285714,4,2,51,80,0,1
73978,-71.4285714285714,4,2,50,80,0,1
74061,-71.4285714285714,4,2,99,80,0,1
74228,-71.4285714285714,4,2,51,80,0,1
74561,-71.4285714285714,4,2,71,80,0,1
74645,-71.4285714285714,4,2,72,80,0,1
74728,-71.4285714285714,4,2,53,80,0,1
75061,-71.4285714285714,4,2,72,80,0,1
75145,-71.4285714285714,4,2,73,80,0,1
75228,-71.4285714285714,4,2,58,80,0,1
75395,-71.4285714285714,4,2,99,80,0,1
75728,-71.4285714285714,4,2,70,80,0,1
75811,-71.4285714285714,4,2,71,80,0,1
75895,-71.4285714285714,4,2,52,80,0,1
76061,-71.4285714285714,4,2,99,80,0,1
76228,-71.4285714285714,4,2,52,80,0,1
76395,-71.4285714285714,4,2,53,80,0,1
76478,-71.4285714285714,4,2,99,80,0,1
76645,-71.4285714285714,4,2,52,80,0,1
76728,-71.4285714285714,4,2,99,80,0,1
76895,-71.4285714285714,4,2,59,80,0,1
77061,-71.4285714285714,4,2,99,80,0,1
77228,-71.4285714285714,4,2,73,80,0,1
77311,-71.4285714285714,4,2,79,80,0,1
77395,-71.4285714285714,4,2,55,80,0,1
77728,-71.4285714285714,4,2,53,80,0,1
77894,-71.4285714285714,4,2,52,80,0,1
78061,-71.4285714285714,4,2,51,80,0,1
78227,-71.4285714285714,4,2,50,80,0,1
78395,-71.4285714285714,4,2,76,80,0,1
78478,-71.4285714285714,4,2,70,80,0,1
78561,-71.4285714285714,4,2,51,80,0,1
78728,-71.4285714285714,4,2,99,80,0,1
78895,-71.4285714285714,4,2,51,80,0,1
79061,-71.4285714285714,4,2,52,80,0,1
79311,-71.4285714285714,4,2,51,80,0,1
79394,-71.4285714285714,4,2,99,80,0,1
79561,-71.4285714285714,4,2,53,80,0,1
79728,-333.333333333333,4,2,60,80,0,1
79978,-333.333333333333,4,2,61,80,0,1
80228,-333.333333333333,4,2,60,80,0,1
80728,-71.4285714285714,4,2,76,80,0,1
80811,-71.4285714285714,4,2,70,80,0,1
80895,-71.4285714285714,4,2,51,80,0,1
81061,-71.4285714285714,4,2,70,80,0,1
81145,-71.4285714285714,4,2,71,80,0,1
81228,-71.4285714285714,4,2,52,80,0,1
81394,-71.4285714285714,4,2,99,80,0,1
81561,-71.4285714285714,4,2,52,80,0,1
81727,-71.4285714285714,4,2,82,80,0,1
81978,-71.4285714285714,4,2,52,80,0,1
82061,-71.4285714285714,4,2,99,80,0,1
82228,-71.4285714285714,4,2,54,80,0,1
82561,-71.4285714285714,4,2,73,80,0,1
82645,-71.4285714285714,4,2,74,80,0,1
82728,-71.4285714285714,4,2,55,80,0,1
82895,-71.4285714285714,4,2,99,80,0,1
83061,-71.4285714285714,4,2,52,80,0,1
83227,-71.4285714285714,4,2,51,80,0,1
83394,-71.4285714285714,4,2,50,80,0,1
83560,-71.4285714285714,4,2,56,80,0,1
83728,-71.4285714285714,4,2,77,80,0,1
83811,-71.4285714285714,4,2,76,80,0,1
83895,-71.4285714285714,4,2,50,80,0,1
84061,-71.4285714285714,4,2,99,80,0,1
84228,-71.4285714285714,4,2,50,80,0,1
84394,-71.4285714285714,4,2,51,80,0,1
84645,-71.4285714285714,4,2,50,80,0,1
84727,-71.4285714285714,4,2,99,80,0,1
84895,-71.4285714285714,4,2,51,80,0,1
85228,-71.4285714285714,4,2,71,80,0,1
85311,-71.4285714285714,4,2,72,80,0,1
85395,-71.4285714285714,4,2,83,80,0,1
85728,-71.4285714285714,4,2,72,80,0,1
85811,-71.4285714285714,4,2,73,80,0,1
85895,-71.4285714285714,4,2,58,80,0,1
86061,-71.4285714285714,4,2,99,80,0,1
86395,-71.4285714285714,4,2,70,80,0,1
86478,-71.4285714285714,4,2,71,80,0,1
86561,-71.4285714285714,4,2,52,80,0,1
86728,-71.4285714285714,4,2,99,80,0,1
86895,-71.4285714285714,4,2,52,80,0,1
87061,-71.4285714285714,4,2,84,80,0,1
87311,-71.4285714285714,4,2,52,80,0,1
87395,-71.4285714285714,4,2,99,80,0,1
87561,-71.4285714285714,4,2,59,80,0,1
87728,-71.4285714285714,4,2,99,80,0,1
87895,-71.4285714285714,4,2,73,80,0,1
87978,-71.4285714285714,4,2,79,80,0,1
88061,-71.4285714285714,4,2,55,80,0,1
88228,-71.4285714285714,4,2,52,80,0,1
88394,-71.4285714285714,4,2,53,80,0,1
88561,-71.4285714285714,4,2,52,80,0,1
88728,-71.4285714285714,4,2,51,80,0,1
88895,-71.4285714285714,4,2,50,80,0,1
89061,-71.4285714285714,4,2,76,80,0,1
89145,-71.4285714285714,4,2,70,80,0,1
89228,-71.4285714285714,4,2,51,80,0,1
89728,-71.4285714285714,4,2,52,80,0,1
89978,-71.4285714285714,4,2,85,80,0,1
90228,-71.4285714285714,4,2,53,80,0,1
90395,-71.4285714285714,4,2,90,80,0,1
90561,-71.4285714285714,4,2,71,80,0,1
90645,-71.4285714285714,4,2,72,80,0,1
90728,-71.4285714285714,4,2,18,80,0,1
90811,-71.4285714285714,4,2,90,80,0,1
91061,-71.4285714285714,4,2,92,80,0,1
91145,-71.4285714285714,4,2,94,80,0,1
91228,-71.4285714285714,4,2,95,80,0,1
91395,-71.4285714285714,4,2,94,80,0,1
91478,-71.4285714285714,4,2,96,80,0,1
91561,-71.4285714285714,4,2,97,80,0,1
91728,-100,4,2,2,60,0,0
92061,-100,4,2,98,60,0,0
92395,-100,4,2,3,60,0,0
92561,-100,4,2,98,60,0,0
92895,-100,4,2,4,60,0,0
92978,-100,4,2,98,60,0,0
93561,-100,4,2,5,60,0,0
93728,-100,4,2,98,60,0,0
93895,-100,4,2,6,60,0,0
94061,-100,4,2,7,60,0,0
94395,-100,4,2,8,60,0,0
94645,-100,4,2,98,60,0,0
95061,-100,4,2,9,60,0,0
95228,-100,4,2,98,60,0,0
95561,-100,4,2,10,60,0,0
95728,-100,4,2,98,60,0,0
96228,-100,4,2,5,60,0,0
96395,-100,4,2,87,60,0,0
96478,-100,4,2,98,60,0,0
96561,-100,4,2,6,60,0,0
96728,-100,4,2,98,60,0,0
97061,-100,4,2,11,60,0,0
97395,-100,4,2,98,60,0,0
97728,-100,4,2,12,60,0,0
97895,-100,4,2,98,60,0,0
98228,-100,4,2,13,60,0,0
98395,-100,4,2,98,60,0,0
98895,-100,4,2,5,60,0,0
99061,-100,4,2,88,60,0,0
99145,-100,4,2,98,60,0,0
99228,-100,4,2,6,60,0,0
99394,-100,4,2,7,60,0,0
99728,-100,4,2,14,60,0,0
100061,-100,4,2,98,60,0,0
100395,-100,4,2,15,60,0,0
100561,-100,4,2,98,60,0,0
100895,-100,4,2,16,60,0,0
101061,-100,4,2,98,60,0,0
101561,-100,4,2,5,60,0,0
101728,-100,4,2,89,60,0,0
101895,-100,4,2,6,60,0,0
102061,-100,4,2,98,60,0,0
102395,-100,4,2,2,40,0,0
103061,-100,4,2,3,40,0,0
103561,-100,4,2,4,40,0,0
104228,-100,4,2,5,40,0,0
104561,-100,4,2,6,40,0,0
104728,-100,4,2,7,40,0,0
104895,-100,4,2,7,5,0,0
105061,-200,4,2,8,40,0,0
105728,-200,4,2,9,40,0,0
106228,-200,4,2,10,40,0,0
106895,-200,4,2,5,40,0,0
107228,-200,4,2,6,40,0,0
107394,-200,4,2,99,40,0,0
107728,-200,4,2,11,40,0,0
108395,-200,4,2,12,40,0,0
108894,-200,4,2,13,40,0,0
109561,-200,4,2,5,40,0,0
109895,-200,4,2,6,40,0,0
110061,-200,4,2,7,40,0,0
110395,-200,4,2,14,40,0,0
111061,-200,4,2,15,40,0,0
111561,-200,4,2,16,40,0,0
111728,-200,4,2,99,40,0,0
112228,-200,4,2,5,40,0,0
112561,-200,4,2,6,40,0,0
113061,-200,4,2,6,40,0,0
114395,-200,4,2,99,5,0,0

[Colours]
Combo1 : 192,192,192
Combo2 : 0,217,217
Combo3 : 175,221,254
Combo4 : 255,102,255
Combo5 : 255,60,157

[HitObjects]
43,53,1062,6,0,P|99:38|134:55,1,71.2500027179719,6|0,1:2|0:0,0:0:0:0:
242,171,1395,1,0,0:0:0:0:
234,193,1478,1,0,0:0:0:0:
211,198,1561,1,0,0:0:0:0:
190,184,1645,1,0,0:0:0:0:
191,160,1728,2,0,L|197:248,1,71.2500027179719,2|0,0:2|0:0,0:0:0:0:
365,360,2061,2,0,L|358:270,1,71.2500027179719,0|2,0:0|0:2,0:0:0:0:
430,120,2395,5,0,0:0:0:0:
347,17,2561,1,0,0:0:0:0:
323,12,2645,1,0,0:0:0:0:
300,19,2728,1,0,0:0:0:0:
287,39,2811,1,0,0:0:0:0:
289,62,2895,2,0,L|295:110,1,35.625001358986,2|0,0:2|0:0,0:0:0:0:
201,254,3061,2,0,L|190:152,1,71.2500027179719,0|2,0:0|0:2,0:0:0:0:
45,73,3395,2,0,L|58:163,1,71.2500027179719,2|0,0:2|0:0,0:0:0:0:
95,333,3728,5,2,0:2:0:0:
344,333,3895,2,0,B|371:322|357:260|357:260|354:279|327:296,1,106.875004076958
286,234,4228,1,0,0:0:0:0:
365,142,4395,2,0,B|316:117|270:160|270:160|288:153|316:168,1,142.500005435944,2|0,0:2|0:0,0:0:0:0:
221,345,4895,1,2,0:2:0:0:
199,354,4978,1,0,0:0:0:0:
175,351,5061,1,0,0:0:0:0:
155,337,5145,1,0,0:0:0:0:
149,314,5228,2,0,L|157:256,3,35.625001358986
89,195,5561,2,0,L|81:149,1,35.625001358986,2|0,0:2|0:0,0:0:0:0:
135,33,5728,5,0,0:0:0:0:
155,21,5811,1,0,0:0:0:0:
178,20,5895,1,2,0:2:0:0:
201,23,5978,1,0,0:0:0:0:
221,35,6061,1,0,0:0:0:0:
238,51,6145,1,0,0:0:0:0:
260,58,6228,1,0,0:0:0:0:
283,60,6311,1,0,0:0:0:0:
306,53,6395,5,2,0:2:0:0:
469,102,6561,2,0,B|451:125|446:153|465:158|481:175|456:233,1,106.875004076958
426,265,6895,1,0,0:0:0:0:
350,378,7061,2,0,P|304:326|372:305,1,142.500005435944,2|0,0:2|0:0,0:0:0:0:
257,148,7561,5,2,0:2:0:0:
235,136,7645,1,0,0:0:0:0:
211,135,7728,1,0,0:0:0:0:
190,146,7811,1,0,0:0:0:0:
179,167,7895,2,0,L|190:214,3,35.625001358986
119,282,8228,2,0,L|110:328,1,35.625001358986,2|0,0:2|0:0,0:0:0:0:
23,195,8395,1,0,0:0:0:0:
40,179,8478,1,0,0:0:0:0:
50,157,8561,1,2,0:2:0:0:
52,133,8645,1,0,0:0:0:0:
38,113,8728,1,2,0:2:0:0:
30,90,8811,1,0,0:0:0:0:
29,66,8895,1,0,0:0:0:0:
40,45,8978,1,0,0:0:0:0:
61,34,9061,5,2,0:2:0:0:
258,4,9228,1,0,0:0:0:0:
265,26,9311,1,0,0:0:0:0:
272,48,9395,2,0,L|285:92,1,35.625001358986
178,172,9561,2,0,L|189:128,1,35.625001358986
303,240,9728,5,2,0:2:0:0:
321,225,9811,1,0,0:0:0:0:
344,222,9895,1,0,0:0:0:0:
367,226,9978,1,0,0:0:0:0:
382,243,10061,1,0,0:0:0:0:
390,265,10145,1,0,0:0:0:0:
386,288,10228,2,0,L|391:337,1,35.625001358986,2|0,0:2|0:0,0:0:0:0:
507,220,10395,6,0,L|512:172,1,35.625001358986
403,44,10561,1,0,0:0:0:0:
380,35,10645,1,0,0:0:0:0:
356,33,10728,1,0,0:0:0:0:
333,40,10811,1,0,0:0:0:0:
314,58,10895,2,0,L|305:119,1,35.625001358986,2|0,0:2|0:0,0:0:0:0:
183,222,11061,5,0,0:0:0:0:
198,240,11145,1,0,0:0:0:0:
200,263,11228,1,2,0:2:0:0:
190,284,11311,1,0,0:0:0:0:
169,296,11395,1,0,0:0:0:0:
145,298,11478,1,0,0:0:0:0:
122,289,11561,1,0,0:0:0:0:
105,271,11645,1,0,0:0:0:0:
100,247,11728,6,0,B|150:233|186:255|183:283|220:321|285:295,1,190,6|0,1:1|0:0,0:0:0:0:
441,207,12228,1,0,0:0:0:0:
384,129,12395,2,0,L|316:120,1,47.5,8|0,0:2|0:0,0:0:0:0:
193,34,12561,2,0,B|257:24|257:24|264:26|264:26|355:13,1,142.5
410,31,12895,1,0,0:0:0:0:
202,192,13061,6,0,P|166:150|181:105,1,95,0|0,1:0|0:0,0:0:0:0:
350,220,13395,2,0,P|354:265|321:297,1,95
137,373,13728,2,0,P|87:364|56:284,1,142.5,8|0,0:2|0:0,0:0:0:0:
17,217,14061,6,0,P|32:198|33:161,1,47.5
107,17,14395,6,0,B|155:-2|203:17|195:51|239:75|301:42,1,190,0|0,1:0|0:0,0:0:0:0:
466,131,14895,1,0,0:0:0:0:
401,200,15061,2,0,L|412:260,1,47.5,8|0,0:2|0:0,0:0:0:0:
306,336,15228,2,0,B|268:363|268:363|281:211,1,190
241,48,15728,6,0,P|189:22|177:93,1,142.5,0|0,1:0|0:0,0:0:0:0:
240,128,16061,1,0,0:0:0:0:
65,41,16228,1,0,0:0:0:0:
65,41,16395,2,0,B|43:84|43:84|66:137,1,95,8|0,0:2|0:0,0:0:0:0:
157,289,16728,6,0,B|169:270|169:270|168:240,1,47.5
170,85,17061,5,0,1:0:0:0:
98,306,17228,2,0,B|105:269|105:269|225:259|225:259|237:215,1,190
323,9,17728,5,8,0:2:0:0:
445,115,17895,1,0,0:0:0:0:
442,100,17978,1,0,0:0:0:0:
309,170,18145,1,0,0:0:0:0:
312,155,18228,1,0,0:0:0:0:
454,238,18395,6,0,P|501:267|417:297,1,190,0|0,1:0|0:0,0:0:0:0:
212,357,18895,1,0,0:0:0:0:
212,357,19061,2,0,P|270:372|311:358,1,95,8|0,0:2|0:0,0:0:0:0:
297,187,19395,2,0,P|250:177|206:192,1,95
23,272,19728,6,0,B|59:307|59:307|79:164,1,190,0|0,1:0|0:0,0:0:0:0:
125,41,20228,1,0,0:0:0:0:
136,39,20311,1,0,0:0:0:0:
147,38,20395,2,0,P|186:23|258:53,1,95,8|0,0:2|0:0,0:0:0:0:
406,146,20728,1,2,0:2:0:0:
430,51,20895,1,0,0:0:0:0:
236,170,21061,6,0,P|194:222|281:229,1,190,0|0,1:0|0:0,0:0:0:0:
236,34,21561,1,0,0:2:0:0:
226,35,21645,1,0,0:0:0:0:
218,35,21728,6,0,B|166:41|140:91|180:103|154:157|69:164,1,190,8|0,0:2|0:0,0:0:0:0:
9,313,22228,1,0,0:0:0:0:
9,313,22395,6,0,P|54:346|99:332,1,95,14|0,1:1|0:0,0:0:0:0:
279,233,22728,2,0,P|233:228|198:258,1,95,8|0,0:1|0:0,0:0:0:0:
412,366,23061,6,0,L|432:262,1,95,8|0,0:1|0:0,0:0:0:0:
261,139,23395,2,0,L|281:243,1,95,8|0,0:1|0:0,0:0:0:0:
438,80,23728,6,0,P|388:52|339:68,1,95,8|0,0:1|0:0,0:0:0:0:
194,253,24061,2,0,P|240:257|278:231,1,95,8|0,0:1|0:0,0:0:0:0:
144,14,24395,6,0,L|130:118,1,95,8|0,0:1|0:0,0:0:0:0:
15,274,24728,2,0,L|1:170,1,95,8|0,0:1|0:0,0:0:0:0:
33,33,25061,5,8,1:1:0:0:
87,22,25145,1,8,0:1:0:0:
133,53,25228,1,8,0:1:0:0:
131,108,25311,1,8,0:1:0:0:
93,150,25395,1,8,0:1:0:0:
87,204,25478,1,8,0:1:0:0:
122,246,25561,1,8,0:1:0:0:
177,245,25645,1,8,0:1:0:0:
213,207,25728,2,0,L|201:155,3,47.5,8|8|8|8,0:1|0:1|0:1|0:1,0:0:0:0:
314,293,26061,2,0,L|326:241,3,47.5,8|8|8|8,0:1|0:1|0:1|0:1,0:0:0:0:
432,173,26395,5,10,1:1:0:0:
438,169,26478,1,8,1:1:0:0:
446,157,26561,1,8,1:1:0:0:
452,127,26645,1,8,1:1:0:0:
436,88,26728,1,8,1:1:0:0:
379,66,26811,1,8,1:1:0:0:
315,89,26895,1,8,1:1:0:0:
286,162,26978,1,8,1:1:0:0:
228,197,27061,1,10,1:1:0:0:
171,191,27145,1,8,1:1:0:0:
143,160,27228,1,8,1:1:0:0:
134,129,27311,1,8,1:1:0:0:
136,108,27395,1,2,1:0:0:0:
144,96,27478,1,0,1:0:0:0:
152,92,27561,1,0,1:0:0:0:
159,91,27645,1,0,1:0:0:0:
168,92,27728,6,0,B|212:125|210:179|177:171|155:208|212:282,1,170.999994781494,6|0,1:1|0:0,0:0:0:0:
257,317,28061,1,8,0:1:0:0:
489,158,28228,2,0,P|430:117|416:123,1,56.9999982604981,2|0,0:2|0:0,0:0:0:0:
383,299,28395,2,0,P|448:268|449:253,1,56.9999982604981,0|0,0:2|0:0,0:0:0:0:
312,144,28561,2,0,P|305:215|318:224,1,56.9999982604981,2|0,1:2|0:0,0:0:0:0:
509,240,28728,5,8,0:1:0:0:
374,78,28895,1,2,0:2:0:0:
305,270,29061,6,0,B|179:308|179:308|233:317,1,170.999994781494,2|0,1:1|0:0,0:0:0:0:
316,355,29395,1,8,0:1:0:0:
108,188,29561,6,0,P|74:240|83:264,1,56.9999982604981,2|0,0:2|0:0,0:0:0:0:
0,57,29728,2,0,P|34:109|25:133,1,56.9999982604981,0|0,0:2|0:0,0:0:0:0:
34,306,29895,1,2,1:2:0:0:
149,77,30061,2,0,P|226:59|205:128,1,170.999994781494,10|0,0:2|0:0,0:0:0:0:
251,215,30395,6,0,B|291:227|336:202|308:169|341:138|431:162,1,170.999994781494,6|0,1:1|0:0,0:0:0:0:
489,186,30728,2,0,B|508:214|508:214|502:254,1,56.9999982604981,10|0,0:1|0:0,0:0:0:0:
445,351,30895,2,0,B|441:328|441:328|460:300,1,56.9999982604981,2|0,0:1|0:0,0:0:0:0:
468,93,31061,1,0,0:2:0:0:
465,82,31145,1,0,0:2:0:0:
461,71,31228,2,0,L|441:8,1,56.9999982604981,0|0,1:2|0:2,0:0:0:0:
383,235,31395,1,10,0:1:0:0:
290,61,31561,1,2,0:1:0:0:
178,261,31728,6,0,P|215:312|252:295,1,113.999996520996,2|0,1:2|0:2,0:0:0:0:
205,183,31978,1,2,0:2:0:0:
197,177,32061,2,0,P|165:173|127:194,1,56.9999982604981,8|0,0:1|0:0,0:0:0:0:
28,302,32228,2,0,L|-2:120,1,170.999994781494,2|2,0:2|0:2,0:0:0:0:
38,42,32561,1,0,1:0:0:0:
259,116,32728,2,0,P|316:73|237:54,1,170.999994781494,10|0,0:1|0:0,0:0:0:0:
170,97,33061,6,0,B|192:173|192:173|187:180|187:180|215:268,1,170.999994781494,2|0,1:1|0:0,0:0:0:0:
246,349,33395,1,8,0:1:0:0:
478,232,33561,2,0,B|499:213|499:213|498:169,1,56.9999982604981,2|0,0:2|0:0,0:0:0:0:
298,197,33728,2,0,B|303:224|303:224|342:245,1,56.9999982604981,0|0,0:2|0:0,0:0:0:0:
412,64,33895,2,0,B|385:55|385:55|347:78,1,56.9999982604981,2|0,1:2|0:0,0:0:0:0:
409,292,34061,5,8,0:1:0:0:
497,103,34228,1,2,0:2:0:0:
296,113,34395,6,0,B|229:102|229:102|215:95|215:95|198:99|198:99|122:86,1,170.999994781494,2|0,1:1|0:0,0:0:0:0:
34,116,34728,1,8,0:1:0:0:
190,237,34895,2,0,B|206:214|206:214|209:174,1,56.9999982604981,2|0,0:2|0:0,0:0:0:0:
288,352,35061,2,0,B|272:329|272:329|269:289,1,56.9999982604981,0|0,0:2|0:0,0:0:0:0:
227,80,35228,1,2,1:2:0:0:
416,26,35395,2,0,B|418:-9|453:-21|470:-2|475:13|483:60|434:117,1,170.999994781494,10|0,0:2|0:0,0:0:0:0:
388,201,35728,6,0,B|341:190|301:238|336:252|330:294|216:304,1,170.999994781494,6|0,1:1|0:0,0:0:0:0:
186,358,36061,2,0,P|130:339|127:327,1,56.9999982604981,10|0,0:1|0:0,0:0:0:0:
27,273,36228,2,0,P|83:292|86:304,1,56.9999982604981,2|0,0:1|0:0,0:0:0:0:
292,370,36395,1,0,0:2:0:0:
308,368,36478,1,0,0:2:0:0:
320,367,36561,2,0,L|394:357,1,56.9999982604981,0|0,1:2|0:2,0:0:0:0:
511,182,36728,1,10,0:1:0:0:
285,202,36895,1,2,0:1:0:0:
380,12,37061,6,0,P|435:49|368:74,1,113.999996520996,6|0,1:2|0:0,0:0:0:0:
281,120,37311,1,6,0:2:0:0:
274,110,37395,2,0,P|281:53|295:48,1,56.9999982604981,8|0,0:1|0:0,0:0:0:0:
381,210,37561,2,0,B|371:264|371:264|373:271|373:271|362:329,1,113.999996520996,6|0,0:2|0:0,0:0:0:0:
238,369,37811,1,6,0:2:0:0:
232,359,37895,2,0,L|240:301,1,56.9999982604981,0|0,1:0|0:0,0:0:0:0:
179,128,38061,2,0,P|104:128|148:197,1,170.999994781494,14|0,0:1|0:0,0:0:0:0:
225,208,38395,6,0,B|270:208|297:175|273:140|288:96|371:100,1,170.999994781494,6|0,1:1|0:0,0:0:0:0:
439,95,38728,1,8,0:1:0:0:
401,360,38895,2,0,P|379:384|333:366,1,56.9999982604981,2|0,0:2|0:0,0:0:0:0:
357,173,39061,2,0,P|388:180|396:228,1,56.9999982604981,0|0,0:2|0:0,0:0:0:0:
215,309,39228,2,0,P|205:277|243:247,1,56.9999982604981,2|0,1:2|0:0,0:0:0:0:
435,275,39395,5,8,0:1:0:0:
262,381,39561,1,2,0:2:0:0:
259,177,39728,6,0,B|280:55|280:55|278:82|299:102,1,170.999994781494,2|0,1:1|0:0,0:0:0:0:
359,57,40061,1,8,0:1:0:0:
152,122,40228,2,0,P|172:180|186:191,1,56.9999982604981,2|0,0:2|0:0,0:0:0:0:
77,0,40395,2,0,P|57:58|43:69,1,56.9999982604981,0|0,0:2|0:0,0:0:0:0:
91,277,40561,1,2,1:2:0:0:
234,384,40728,2,0,B|260:366|291:363|291:363|252:314|163:340,1,170.999994781494,10|0,0:2|0:0,0:0:0:0:
98,375,41061,6,0,P|38:336|99:278,1,170.999994781494,6|0,1:1|0:0,0:0:0:0:
155,202,41395,2,0,B|185:198|185:198|220:214,1,56.9999982604981,10|0,0:1|0:0,0:0:0:0:
330,271,41561,2,0,B|300:275|300:275|265:259,1,56.9999982604981,2|0,0:1|0:0,0:0:0:0:
77,142,41728,1,0,0:2:0:0:
75,131,41811,1,0,0:2:0:0:
73,120,41895,2,0,L|60:56,1,56.9999982604981,0|0,1:2|0:2,0:0:0:0:
285,193,42061,1,10,0:1:0:0:
133,326,42228,1,2,0:1:0:0:
176,102,42395,6,0,P|237:62|303:96,1,113.999996520996,2|0,1:2|0:2,0:0:0:0:
392,131,42645,1,2,0:2:0:0:
393,118,42728,2,0,L|399:53,1,56.9999982604981,8|0,0:1|0:0,0:0:0:0:
247,146,42895,2,0,L|268:261,1,113.999996520996,2|0,0:2|0:2,0:0:0:0:
363,352,43145,1,2,0:2:0:0:
381,357,43228,2,0,P|437:326|443:306,1,56.9999982604981,0|0,1:0|0:0,0:0:0:0:
501,188,43395,2,0,B|528:149|506:131|512:104|512:104|499:127|461:124|465:189,1,170.999994781494,10|0,0:1|0:0,0:0:0:0:
366,235,43728,6,0,B|315:238|292:197|319:172|300:125|213:131,1,170.999994781494,2|0,1:1|0:0,0:0:0:0:
130,153,44061,1,8,0:1:0:0:
93,349,44228,2,0,P|92:360|105:343,1,56.9999982604981,2|0,0:2|0:0,0:0:0:0:
227,228,44395,2,0,P|237:223|215:220,1,56.9999982604981,0|0,0:2|0:0,0:0:0:0:
33,182,44561,2,0,P|23:175|32:195,1,56.9999982604981,2|0,1:2|0:0,0:0:0:0:
208,316,44728,5,8,0:1:0:0:
4,300,44895,1,2,0:2:0:0:
121,175,45061,6,0,B|155:125|124:57|124:57|121:86|94:106,1,170.999994781494,2|0,1:1|0:0,0:0:0:0:
47,42,45395,1,8,0:1:0:0:
201,248,45561,2,0,P|268:261|292:238,1,56.9999982604981,2|0,0:2|0:0,0:0:0:0:
67,373,45728,2,0,P|134:360|158:383,1,56.9999982604981,0|0,0:2|0:0,0:0:0:0:
342,279,45895,1,2,1:2:0:0:
216,16,46061,2,0,B|179:42|170:93|196:135|243:157|274:67|198:94,1,170.999994781494,10|0,0:2|0:0,0:0:0:0:
332,38,46395,6,0,B|388:42|404:79|384:94|406:144|490:139,1,170.999994781494,6|0,1:1|0:0,0:0:0:0:
506,224,46728,2,0,B|506:259|506:259|488:298,1,56.9999982604981,2|0,0:1|0:0,0:0:0:0:
412,384,46895,2,0,B|412:349|412:349|430:310,1,56.9999982604981,2|0,0:1|0:0,0:0:0:0:
318,162,47061,1,8,0:2:0:0:
296,142,47145,1,0,0:2:0:0:
269,133,47228,1,0,0:2:0:0:
240,133,47311,1,0,0:2:0:0:
212,141,47395,2,0,B|208:172|208:172|223:200,1,56.9999982604981,2|0,0:1|0:0,0:0:0:0:
285,315,47561,2,0,B|289:284|289:284|274:256,1,56.9999982604981,2|0,0:1|0:0,0:0:0:0:
111,93,47728,5,8,1:1:0:0:
54,118,47811,1,8,0:1:0:0:
32,175,47895,1,8,0:1:0:0:
42,237,47978,1,8,0:1:0:0:
90,277,48061,1,8,0:1:0:0:
154,278,48145,1,8,0:1:0:0:
192,240,48228,1,8,0:1:0:0:
203,202,48311,1,8,0:1:0:0:
196,178,48395,1,10,1:1:0:0:
194,158,48478,1,8,1:1:0:0:
207,133,48561,1,8,1:1:0:0:
242,112,48645,1,8,1:1:0:0:
292,115,48728,1,2,1:0:0:0:
327,149,48811,1,0,1:0:0:0:
326,198,48895,1,0,1:0:0:0:
297,234,48978,1,0,1:0:0:0:
236,259,49061,6,0,B|269:217|258:166|231:171|197:134|257:41,1,190,6|0,1:1|0:0,0:0:0:0:
450,9,49561,1,0,0:0:0:0:
508,87,49728,2,0,L|496:148,1,47.5,8|0,0:2|0:0,0:0:0:0:
408,320,49895,2,0,P|349:294|415:250,1,142.5
457,259,50228,1,0,0:0:0:0:
295,369,50395,6,0,L|178:351,1,95,0|0,1:0|0:0,0:0:0:0:
42,231,50728,2,0,L|159:213,1,95
240,55,51061,2,0,B|255:123|255:123|255:131|255:131|272:208,1,142.5,8|0,0:2|0:0,0:0:0:0:
325,247,51395,6,0,P|359:248|382:233,1,47.5
507,84,51728,6,0,B|452:109|403:84|427:42|377:17|309:50,1,190,0|0,1:0|0:0,0:0:0:0:
145,83,52228,1,0,0:0:0:0:
219,149,52395,2,0,L|214:198,1,47.5,8|0,0:2|0:0,0:0:0:0:
249,365,52561,2,0,B|177:357|177:357|169:353|169:353|101:345,1,142.5
30,330,52895,1,0,0:0:0:0:
66,159,53061,6,0,P|124:177|116:224,1,95,0|0,1:0|0:0,0:0:0:0:
249,365,53395,2,0,P|277:320|273:293,1,47.5
339,258,53561,2,0,P|311:213|315:186,1,47.5
237,140,53728,2,0,P|237:82|314:85,1,142.5,8|0,0:2|0:0,0:0:0:0:
388,106,54061,6,0,L|395:55,1,47.5
480,184,54395,5,0,1:0:0:0:
480,184,54561,2,0,B|520:253|499:312|499:312|486:285|456:266,1,190
288,202,55061,1,8,0:2:0:0:
210,311,55228,1,0,0:0:0:0:
214,325,55311,1,0,0:0:0:0:
101,232,55478,1,0,0:0:0:0:
97,246,55561,1,0,0:0:0:0:
114,88,55728,6,0,P|134:41|214:55,1,142.5,0|0,1:0|0:0,0:0:0:0:
183,126,56061,1,0,0:0:0:0:
17,170,56228,1,0,0:0:0:0:
13,180,56311,1,0,0:0:0:0:
10,189,56395,2,0,P|23:246|63:253,1,95,8|0,0:2|0:0,0:0:0:0:
281,228,56728,2,0,P|225:197|190:220,1,95
392,367,57061,6,0,P|475:364|440:276,1,190,0|0,1:0|0:0,0:0:0:0:
365,146,57561,1,0,0:0:0:0:
368,135,57645,1,0,0:0:0:0:
371,124,57728,2,0,L|401:33,1,95,8|0,0:2|0:0,0:0:0:0:
245,72,58061,2,0,L|215:163,1,95,2|0,0:2|0:0,0:0:0:0:
105,282,58395,6,0,B|161:272|198:305|170:341|206:377|296:359,1,190,0|0,1:0|0:0,0:0:0:0:
441,282,58895,1,0,0:0:0:0:
443,270,58978,1,0,0:0:0:0:
445,257,59061,2,0,P|427:206|354:224,1,142.5,8|0,0:2|0:0,0:0:0:0:
286,259,59395,1,0,0:0:0:0:
348,79,59561,1,0,0:0:0:0:
348,79,59728,6,0,P|290:54|245:86,1,95,14|0,1:1|0:0,0:0:0:0:
129,148,60061,2,0,P|187:173|232:141,1,95,8|0,0:1|0:0,0:0:0:0:
19,61,60395,6,0,L|4:173,1,95,10|0,0:1|0:0,0:0:0:0:
116,242,60728,2,0,L|128:147,1,95,8|0,0:1|0:0,0:0:0:0:
59,305,61061,6,0,P|111:328|159:313,1,95,8|0,0:1|0:0,0:0:0:0:
312,257,61395,2,0,P|265:250|224:272,1,95,8|0,0:1|0:0,0:0:0:0:
426,376,61728,6,0,B|450:334|450:334|441:284,1,95,8|0,0:1|0:0,0:0:0:0:
327,169,62061,2,0,B|303:211|303:211|312:261,1,95,8|0,0:1|0:0,0:0:0:0:
390,52,62395,6,0,L|287:38,1,95,8|0,0:1|0:0,0:0:0:0:
118,52,62728,2,0,L|221:38,1,95,8|0,0:1|0:0,0:0:0:0:
426,140,63061,6,0,L|323:126,1,95,10|0,0:1|0:0,0:0:0:0:
92,139,63394,2,0,L|195:125,1,95,8|0,0:1|0:0,0:0:0:0:
461,234,63728,6,0,L|358:220,1,95,8|0,0:1|0:0,0:0:0:0:
68,228,64061,2,0,L|171:214,1,95,8|0,0:1|0:0,0:0:0:0:
496,333,64395,6,0,L|393:319,1,95,8|0,0:1|0:0,0:0:0:0:
45,318,64728,2,0,L|148:304,1,95,8|0,0:1|0:0,0:0:0:0:
498,152,65061,6,0,L|510:100,1,47.5,8|0,1:1|0:0,0:0:0:0:
502,232,65228,2,0,L|514:284,1,47.5,8|0,0:1|0:0,0:0:0:0:
428,127,65395,6,0,L|440:75,1,47.5,8|0,0:1|0:0,0:0:0:0:
433,263,65562,2,0,L|445:315,1,47.5,8|0,0:1|0:0,0:0:0:0:
357,98,65728,6,0,L|369:46,1,47.5,8|0,0:1|0:0,0:0:0:0:
362,292,65895,2,0,L|374:344,1,47.5,8|0,0:1|0:0,0:0:0:0:
284,71,66061,6,0,L|296:19,1,47.5,8|0,0:1|0:0,0:0:0:0:
289,318,66228,2,0,L|301:370,1,47.5,8|0,0:1|0:0,0:0:0:0:
212,101,66394,6,0,L|200:49,1,47.5,8|0,0:1|0:0,0:0:0:0:
207,295,66561,2,0,L|195:347,1,47.5,8|0,0:1|0:0,0:0:0:0:
142,132,66728,6,0,L|130:80,1,47.5,8|0,0:1|0:0,0:0:0:0:
138,268,66895,2,0,L|126:320,1,47.5,8|0,0:1|0:0,0:0:0:0:
68,153,67061,6,0,L|56:101,1,47.5,8|0,0:1|0:0,0:0:0:0:
64,233,67228,2,0,L|52:285,1,47.5,8|0,0:1|0:0,0:0:0:0:
1,191,67395,1,8,0:1:0:0:
1,191,67561,1,8,0:1:0:0:
7,62,67728,5,8,1:1:0:0:
55,35,67811,1,8,0:1:0:0:
108,43,67895,1,8,0:1:0:0:
135,84,67978,1,8,0:1:0:0:
129,135,68061,1,8,0:1:0:0:
95,175,68145,1,8,0:1:0:0:
92,230,68228,1,8,0:1:0:0:
112,277,68311,1,8,0:1:0:0:
159,298,68395,1,8,0:1:0:0:
210,287,68478,1,8,0:1:0:0:
246,244,68561,1,8,0:1:0:0:
239,188,68645,1,8,0:1:0:0:
208,144,68728,1,8,0:1:0:0:
216,91,68811,1,8,0:1:0:0:
265,67,68895,1,8,0:1:0:0:
318,74,68978,1,8,0:1:0:0:
337,105,69061,5,10,1:1:0:0:
338,134,69145,1,8,1:1:0:0:
325,155,69228,1,8,1:1:0:0:
312,172,69311,1,8,1:1:0:0:
302,184,69395,6,0,L|316:239,3,47.5,8|8|8|8,1:1|1:1|1:1|1:1,0:0:0:0:
357,369,69728,2,0,L|371:314,3,47.5,10|8|8|8,1:1|1:1|1:1|1:1,0:0:0:0:
229,270,70061,2,0,L|243:325,3,47.5,2|0|0|0,1:1|1:0|1:0|1:0,0:0:0:0:
106,269,70395,5,6,1:1:0:0:
112,220,70478,1,2,0:2:0:0:
116,173,70561,2,0,L|123:96,1,66.4999979705811,2|0,0:2|0:0,0:0:0:0:
295,0,70728,2,0,B|349:4|377:49|341:80|380:125|458:120,1,199.499993911743,8|0,0:1|0:0,0:0:0:0:
511,187,71061,2,0,P|489:261|464:270,1,66.4999979705811,6|0,1:2|0:0,0:0:0:0:
308,372,71228,1,0,0:0:0:0:
305,354,71311,1,2,0:2:0:0:
301,337,71395,2,0,L|289:268,1,66.4999979705811,8|0,0:1|0:0,0:0:0:0:
237,63,71561,2,0,L|225:132,1,66.4999979705811,2|0,0:2|0:0,0:0:0:0:
190,353,71728,5,0,1:0:0:0:
30,193,71895,1,2,0:2:0:0:
45,187,71978,1,2,0:2:0:0:
57,183,72061,2,0,B|102:247|72:313|72:313|65:274|22:256,1,199.499993911743,10|0,0:1|0:0,0:0:0:0:
86,115,72395,6,0,P|150:95|166:109,1,66.4999979705811,2|0,1:2|0:0,0:0:0:0:
257,3,72561,2,0,P|193:23|177:9,1,66.4999979705811,2|0,0:2|0:0,0:0:0:0:
170,196,72728,6,0,P|226:242|229:278,1,66.4999979705811,10|0,0:1|0:0,0:0:0:0:
353,314,72895,2,0,P|331:338|300:351,1,66.4999979705811,2|0,0:2|0:0,0:0:0:0:
291,111,73061,5,2,1:2:0:0:
336,100,73145,1,2,0:2:0:0:
382,88,73228,2,0,L|460:70,1,66.4999979705811,2|0,0:2|0:0,0:0:0:0:
353,314,73395,2,0,B|263:294|263:294|255:288|255:288|245:289|245:289|158:271,1,199.499993911743,8|0,0:1|0:0,0:0:0:0:
83,212,73728,2,0,P|77:146|93:129,1,66.4999979705811,6|0,1:2|0:0,0:0:0:0:
208,2,73895,1,0,0:0:0:0:
212,12,73978,1,2,0:2:0:0:
215,24,74061,2,0,P|221:90|205:107,1,66.4999979705811,8|0,0:1|0:0,0:0:0:0:
159,271,74228,1,2,0:2:0:0:
360,300,74395,5,0,1:0:0:0:
389,284,74478,1,0,0:0:0:0:
407,256,74561,1,2,0:2:0:0:
412,222,74645,1,2,0:2:0:0:
406,189,74728,2,0,L|329:180,1,66.4999979705811,10|0,0:1|0:0,0:0:0:0:
110,27,74895,2,0,L|187:18,1,66.4999979705811,0|0,1:0|0:0,0:0:0:0:
372,20,75061,1,2,0:2:0:0:
375,31,75145,1,2,0:2:0:0:
377,41,75228,2,0,B|396:71|396:71|390:112,1,66.4999979705811,2|0,1:2|0:0,0:0:0:0:
201,244,75395,2,0,P|249:201|157:202,1,199.499993911743,10|0,0:1|0:0,0:0:0:0:
88,283,75728,5,6,1:2:0:0:
94,320,75811,1,2,0:2:0:0:
99,354,75895,2,0,L|174:367,1,66.4999979705811,2|0,0:2|0:0,0:0:0:0:
472,295,76061,2,0,B|415:306|379:275|400:230|340:208|276:232,1,199.499993911743,8|0,0:1|0:0,0:0:0:0:
201,244,76395,2,0,P|219:172|252:159,1,66.4999979705811,2|0,1:2|0:0,0:0:0:0:
331,15,76561,1,0,0:0:0:0:
336,26,76645,1,2,0:2:0:0:
340,37,76728,2,0,P|353:67|348:99,1,66.4999979705811,8|0,0:1|0:0,0:0:0:0:
266,317,76895,1,2,0:2:0:0:
154,115,77061,5,0,1:0:0:0:
398,195,77228,1,2,0:2:0:0:
390,207,77311,1,2,0:2:0:0:
384,220,77395,2,0,B|332:277|360:340|360:340|366:318|388:287|437:284|407:246,1,199.499993911743,10|0,0:1|0:0,0:0:0:0:
478,172,77728,6,0,P|429:119|400:122,1,66.4999979705811,2|0,1:2|0:0,0:0:0:0:
320,46,77895,2,0,P|369:99|398:96,1,66.4999979705811,2|0,0:2|0:0,0:0:0:0:
459,261,78061,6,0,P|399:292|394:311,1,66.4999979705811,10|0,0:1|0:0,0:0:0:0:
207,341,78228,2,0,P|231:362|264:366,1,66.4999979705811,2|0,0:2|0:0,0:0:0:0:
276,159,78395,5,2,1:2:0:0:
230,167,78478,1,2,0:2:0:0:
183,175,78561,2,0,L|112:186,1,66.4999979705811,2|0,0:2|0:0,0:0:0:0:
23,325,78728,2,0,B|76:365|76:365|206:341,1,199.499993911743,8|0,0:1|0:0,0:0:0:0:
299,378,79061,2,0,P|347:327|334:305,1,66.4999979705811,2|0,1:2|0:0,0:0:0:0:
446,138,79228,1,0,0:0:0:0:
435,132,79311,1,2,0:2:0:0:
426,126,79395,2,0,P|337:153|336:202,1,132.999995941162,8|2,0:1|0:2,0:0:0:0:
159,269,79728,6,0,L|121:262,1,28.4999991302491,6|0,1:2|0:0,0:0:0:0:
273,322,79978,2,0,L|301:327,1,28.4999991302491,14|0,0:1|0:0,0:0:0:0:
121,333,80228,6,0,L|83:340,1,28.4999991302491,6|0,1:2|0:0,0:0:0:0:
310,253,80478,2,0,L|338:247,1,28.4999991302491,6|0,1:2|0:0,0:0:0:0:
426,214,80728,5,14,0:1:0:0:
437,266,80811,1,2,0:2:0:0:
451,318,80895,1,2,0:2:0:0:
208,273,81061,5,6,1:1:0:0:
217,229,81145,1,2,0:2:0:0:
228,184,81228,2,0,L|246:105,1,66.4999979705811,2|0,0:2|0:0,0:0:0:0:
439,27,81395,2,0,B|503:4|503:4|474:134,1,199.499993911743,8|0,0:1|0:0,0:0:0:0:
486,227,81728,2,0,B|454:234|454:234|416:207,1,66.4999979705811,6|0,1:2|0:0,0:0:0:0:
276,38,81895,1,0,0:0:0:0:
265,33,81978,1,2,0:2:0:0:
255,26,82061,2,0,B|225:38|192:24|192:24|166:46|139:76|139:76|96:60|53:73,1,199.499993911743,8|0,0:1|0:0,0:0:0:0:
0,124,82395,5,0,1:0:0:0:
138,307,82561,1,2,0:2:0:0:
141,295,82645,1,2,0:2:0:0:
145,284,82728,2,0,P|219:267|183:351,1,199.499993911743,10|0,0:1|0:0,0:0:0:0:
244,192,83061,6,0,P|311:159|334:172,1,66.4999979705811,2|0,1:2|0:0,0:0:0:0:
435,135,83228,2,0,P|368:168|345:155,1,66.4999979705811,2|0,0:2|0:0,0:0:0:0:
133,93,83395,6,0,P|202:132|208:154,1,66.4999979705811,10|0,0:1|0:0,0:0:0:0:
302,254,83561,2,0,P|275:273|242:277,1,66.4999979705811,2|0,0:2|0:0,0:0:0:0:
38,361,83728,5,2,1:2:0:0:
32,313,83811,1,2,0:2:0:0:
27,266,83895,2,0,L|20:186,1,66.4999979705811,2|0,0:2|0:0,0:0:0:0:
118,13,84061,2,0,B|175:-1|221:40|195:69|224:115|317:93,1,199.499993911743,8|0,0:1|0:0,0:0:0:0:
371,58,84395,1,2,1:2:0:0:
502,202,84561,1,0,0:0:0:0:
499,216,84645,1,2,0:2:0:0:
497,230,84728,2,0,L|485:301,1,66.4999979705811,8|0,0:1|0:0,0:0:0:0:
360,166,84895,2,0,L|371:231,1,66.4999979705811,2|0,0:2|0:0,0:0:0:0:
221,361,85061,5,0,1:0:0:0:
187,363,85145,1,0,0:0:0:0:
162,341,85228,1,2,0:2:0:0:
157,308,85311,1,2,0:2:0:0:
177,281,85395,2,0,L|263:297,1,66.4999979705811,14|0,0:1|0:0,0:0:0:0:
24,194,85561,2,0,L|110:178,1,66.4999979705811,0|0,1:0|0:0,0:0:0:0:
208,24,85728,1,2,0:2:0:0:
215,35,85811,1,2,0:2:0:0:
223,46,85895,2,0,L|208:120,1,66.4999979705811,2|0,1:2|0:0,0:0:0:0:
169,373,86061,2,0,P|221:315|166:238,1,132.999995941162,10|0,0:1|0:0,0:0:0:0:
54,116,86395,6,0,B|111:139|152:105|131:66|167:25|254:53,1,199.499993911743,6|0,1:2|0:0,0:0:0:0:
348,2,86728,6,0,L|425:20,1,66.4999979705811,0|0,0:2|0:0,0:0:0:0:
222,45,86895,2,0,L|145:63,1,66.4999979705811,2|0,0:2|0:0,0:0:0:0:
396,102,87061,6,0,L|473:120,1,66.4999979705811,14|0,0:1|0:0,0:0:0:0:
177,156,87228,2,0,L|100:174,1,66.4999979705811,0|2,0:0|0:2,0:0:0:0:
444,203,87395,6,0,L|521:221,1,66.4999979705811,0|0,0:1|0:0,0:0:0:0:
131,260,87562,2,0,L|54:278,1,66.4999979705811,2|0,0:2|0:0,0:0:0:0:
274,375,87728,6,0,B|287:355|268:311|268:311|285:285|302:262|302:262|277:233|307:160,1,199.499993911743,6|2,1:1|0:2,0:0:0:0:
250,101,88061,6,0,P|175:74|150:88,1,66.4999979705811,2|0,0:2|0:0,0:0:0:0:
52,71,88228,2,0,P|127:98|152:84,1,66.4999979705811
356,178,88395,6,0,P|283:234|287:247,1,66.4999979705811,10|0,0:1|0:0,0:0:0:0:
122,254,88561,2,0,P|150:270|182:266,1,66.4999979705811,2|0,0:2|0:0,0:0:0:0:
495,201,88728,6,0,P|449:214|423:266,1,66.4999979705811,2|0,0:1|0:0,0:0:0:0:
274,382,88895,2,0,P|320:369|346:317,1,66.4999979705811,2|0,0:2|0:0,0:0:0:0:
459,129,89061,5,14,1:2:0:0:
432,81,89145,1,10,0:2:0:0:
377,68,89228,1,10,0:2:0:0:
323,87,89312,1,8,0:2:0:0:
296,138,89395,1,8,0:2:0:0:
299,195,89478,1,8,0:2:0:0:
281,246,89561,1,10,0:2:0:0:
232,270,89645,1,8,0:2:0:0:
177,267,89728,1,10,0:2:0:0:
142,226,89811,1,8,0:2:0:0:
137,172,89895,1,8,0:2:0:0:
167,128,89978,1,14,0:2:0:0:
172,76,90061,1,8,0:2:0:0:
134,35,90145,1,8,0:2:0:0:
81,25,90228,1,10,0:2:0:0:
34,51,90311,1,8,0:2:0:0:
16,100,90395,6,0,L|28:173,3,66.4999979705811,8|8|10|10,1:1|1:1|1:1|1:1,0:0:0:0:
95,358,90728,1,10,1:1:0:0:
106,355,90811,1,8,1:1:0:0:
157,301,90895,1,8,1:1:0:0:
168,304,90978,1,8,1:1:0:0:
225,362,91061,5,14,1:1:0:0:
277,358,91145,1,10,1:1:0:0:
314,317,91228,1,10,1:1:0:0:
319,262,91311,1,8,1:1:0:0:
294,213,91395,1,2,3:3:0:0:
251,176,91478,1,2,3:3:0:0:
244,119,91561,1,2,3:3:0:0:
277,74,91645,1,0,3:3:0:0:
331,68,91728,6,0,P|378:100|370:144,1,95,6|0,1:2|0:0,0:0:0:0:
294,213,91978,1,0,0:0:0:0:
287,222,92061,2,0,B|247:227|221:204|221:204|189:210|149:221|149:221|125:200|82:197,1,190,8|6,0:1|0:2,0:0:0:0:
12,342,92561,2,0,P|63:372|78:366,1,47.5,0|0,1:0|0:0,0:0:0:0:
118,346,92728,2,0,P|169:320|205:335,1,95,8|2,0:1|0:2,0:0:0:0:
412,365,93061,6,0,L|369:179,2,190,0|8|0,1:0|0:1|0:0,0:0:0:0:
466,205,93895,2,0,L|479:153,1,47.5,2|0,1:2|0:0,0:0:0:0:
463,83,94061,2,0,P|405:48|372:67,1,95,10|0,0:1|0:0,0:0:0:0:
180,122,94395,6,0,P|161:79|233:80,1,142.5,2|0,1:2|0:0,0:0:0:0:
261,147,94728,2,0,L|244:251,1,95,8|0,0:1|0:0,0:0:0:0:
59,366,95061,1,2,0:2:0:0:
143,311,95228,2,0,L|143:260,1,47.5,0|0,1:0|0:0,0:0:0:0:
99,200,95395,2,0,P|97:148|29:148,1,95,8|2,0:1|0:2,0:0:0:0:
172,9,95728,6,0,B|218:-3|248:11|240:37|270:51|320:33,1,142.5,0|0,1:0|0:0,0:0:0:0:
377,4,96061,1,8,0:1:0:0:
508,104,96228,2,0,L|485:200,1,95,2|2,1:2|0:2,0:0:0:0:
399,344,96561,2,0,P|345:329|330:337,1,47.5,2|0,1:2|0:0,0:0:0:0:
303,270,96728,2,0,P|255:302|219:297,1,95,8|0,0:1|0:0,0:0:0:0:
72,366,97061,6,0,B|47:287|47:287|49:280|49:280|17:175,2,190,2|8|2,1:2|0:1|0:2,0:0:0:0:
116,213,97895,2,0,L|128:156,1,47.5,0|0,1:0|0:0,0:0:0:0:
83,102,98061,2,0,P|132:87|181:110,1,95,8|2,0:1|0:2,0:0:0:0:
326,260,98395,6,0,P|364:216|317:152,1,142.5,0|0,1:0|0:0,0:0:0:0:
270,97,98728,2,0,B|259:51|259:51|287:0,1,95,8|2,0:1|0:2,0:0:0:0:
483,120,99061,1,2,0:2:0:0:
413,182,99228,2,0,L|419:240,1,47.5,2|0,1:2|0:0,0:0:0:0:
390,303,99395,2,0,P|347:338|299:331,1,95,10|0,0:1|0:0,0:0:0:0:
150,371,99728,6,0,P|179:317|113:273,1,142.5,2|0,1:2|0:0,0:0:0:0:
54,242,100061,2,0,P|2:214|5:175,1,95,8|0,0:1|0:0,0:0:0:0:
121,29,100395,1,2,0:2:0:0:
206,80,100561,2,0,P|212:108|193:150,1,47.5,0|0,1:0|0:0,0:0:0:0:
224,199,100728,2,0,P|273:235|307:226,1,95,8|2,0:1|0:2,0:0:0:0:
510,145,101061,6,0,P|457:116|450:186,1,142.5,0|0,1:0|0:0,0:0:0:0:
501,226,101395,2,0,L|485:289,1,47.5,8|0,0:1|0:0,0:0:0:0:
323,369,101561,2,0,L|302:224,1,142.5,2|0,1:2|0:0,0:0:0:0:
293,153,101895,1,2,1:2:0:0:
181,32,102061,2,0,P|128:30|110:106,1,142.5,8|0,0:1|0:0,0:0:0:0:
189,113,102395,5,6,1:2:0:0:
256,192,102478,12,0,104895,0:0:0:0:
17,83,105061,6,0,P|46:62|130:118,1,142.5,2|0,0:2|0:0,0:0:0:0:
244,228,105728,2,0,P|277:233|295:153,1,118.75,2|0,0:2|0:0,0:0:0:0:
301,148,106228,1,2,0:2:0:0:
149,239,106395,6,0,L|157:280,3,23.75
69,185,106728,2,0,L|61:226,3,23.75,0|0|2|0,0:0|0:0|0:2|0:0,0:0:0:0:
140,115,107061,2,0,L|148:156,3,23.75,0|0|2|0,0:0|0:0|0:2|0:0,0:0:0:0:
68,55,107395,2,0,P|34:49|14:60,1,47.5
183,8,107728,6,0,P|215:56|302:51,1,142.5,2|0,0:2|0:0,0:0:0:0:
455,26,108395,2,0,P|484:48|463:124,1,118.75,2|0,0:2|0:0,0:0:0:0:
447,137,108895,1,2,0:2:0:0:
332,222,109061,6,0,L|361:226,3,23.75
248,283,109395,2,0,L|277:279,3,23.75,0|0|2|0,0:0|0:0|0:2|0:0,0:0:0:0:
183,213,109728,2,0,L|212:217,3,23.75,0|0|2|0,0:0|0:0|0:2|0:0,0:0:0:0:
114,253,110061,2,0,L|126:317,1,47.5,2|0,0:2|0:0,0:0:0:0:
31,140,110395,6,0,B|60:113|102:113|103:133|141:143|172:100,1,142.5,2|0,0:2|0:0,0:0:0:0:
253,12,111061,2,0,P|303:6|323:66,1,118.75,2|0,0:2|0:0,0:0:0:0:
315,78,111561,1,2,0:2:0:0:
228,177,111728,5,0,0:0:0:0:
283,260,112061,1,0,0:0:0:0:
255,330,112395,1,0,0:0:0:0:
215,351,112728,1,0,0:0:0:0:
197,349,113061,1,0,0:0:0:0:
256,192,113145,12,0,114395,0:0:0:0:
