osu file format v14

[General]
AudioFilename: audio.mp3
AudioLeadIn: 0
PreviewTime: 144106
Countdown: 0
SampleSet: None
StackLeniency: 0.2
Mode: 0
LetterboxInBreaks: 0
WidescreenStoryboard: 1

[Editor]
DistanceSpacing: 0.64
BeatDivisor: 4
GridSize: 32
TimelineZoom: 3.399999

[Metadata]
Title:Flashes (Extended)
TitleUnicode:Flashes (Extended)
Artist:Dollscythe
ArtistUnicode:Dollscythe
Creator:kyle
Version:waa wooo
Source:beatmania IIDX 22 PENDUAL
Tags:
BeatmapID:2028098
BeatmapSetID:969369

[Difficulty]
HPDrainRate:6
CircleSize:4.6
OverallDifficulty:9.6
ApproachRate:10
SliderMultiplier:1.92
SliderTickRate:1

[Events]
//Background and Video events
0,0,"b8ec5c51539c4b7337dbc18eee0b56c5.jpg",0,0
//Break Periods
//Storyboard Layer 0 (Background)
//Storyboard Layer 1 (Fail)
//Storyboard Layer 2 (Pass)
//Storyboard Layer 3 (Foreground)
//Storyboard Sound Samples

[TimingPoints]
1440,333.333333333333,4,2,2,45,1,0
1440,-200,4,2,2,45,0,0
3106,-303.030303030303,4,2,2,45,0,0
4106,-200,4,2,2,45,0,0
4606,-100,4,2,2,45,0,0
5106,-200,4,2,2,45,0,0
8439,-133.333333333333,4,2,2,45,0,0
11106,-100,4,2,2,45,0,0
12106,-133.333333333333,4,2,2,45,0,0
12939,-66.6666666666667,4,2,2,45,0,0
13106,-133.333333333333,4,2,2,45,0,0
13606,-66.6666666666667,4,2,2,45,0,0
13773,-133.333333333333,4,2,2,45,0,0
15773,-66.6666666666667,4,2,2,45,0,0
16439,-100,4,2,2,45,0,0
22773,-50,4,2,2,45,0,0
23439,-100,4,2,2,45,0,0
24773,-50,4,2,2,45,0,0
26356,-66.6666666666667,4,2,2,45,0,0
29439,-33.3333333333333,4,2,2,45,0,0
31439,-100,4,2,2,45,0,0
32023,-33.3333333333333,4,2,2,45,0,0
35189,-59.1715976331361,4,2,2,45,0,0
37439,-29.4117647058824,4,2,2,45,0,0
38189,-59.1715976331361,4,2,2,45,0,0
41939,-100,4,2,2,45,0,0
49439,-200,4,2,2,45,0,0
49939,-66.6666666666667,4,2,2,45,0,0
50773,-200,4,2,2,45,0,0
51273,-66.6666666666667,4,2,2,45,0,0
51773,-200,4,2,2,45,0,0
52106,-66.6666666666667,4,2,2,45,0,0
54773,-100,4,2,2,45,0,0
55189,-66.6666666666667,4,2,2,45,0,0
56106,-100,4,2,2,45,0,0
56523,-66.6666666666667,4,2,2,45,0,0
60106,-100,4,2,2,45,0,0
60606,-66.6666666666667,4,2,2,45,0,0
61439,-100,4,2,2,45,0,0

[Colours]
Combo1 : 167,167,167
Combo2 : 29,226,167
Combo3 : 40,148,255
Combo4 : 158,58,56
Combo5 : 255,128,255
Combo6 : 255,0,0
Combo7 : 173,217,250
Combo8 : 255,95,26

[HitObjects]
50,344,1440,6,0,L|154:344,1,96
221,298,1939,1,0,0:0:0:0:
221,181,2439,1,0,0:0:0:0:
279,181,2773,1,0,0:0:0:0:
337,85,3106,6,0,L|337:144,1,47.5199998549805
279,132,3439,2,0,L|279:85,1,47.5199998549805
221,85,3773,2,0,L|221:144,1,47.5199998549805
221,181,4106,6,0,L|221:285,1,96
267,352,4606,2,0,L|330:352,4,48
209,256,5106,2,0,L|209:169,1,72
82,145,5439,2,0,L|154:145,1,72
193,18,5773,6,0,L|193:90,1,72
248,201,6106,2,0,L|248:129,1,72
303,18,6439,2,0,L|303:90,1,72
303,162,6773,5,0,0:0:0:0:
427,234,6939,1,0,0:0:0:0:
428,91,7106,1,0,0:0:0:0:
317,218,7273,5,0,0:0:0:0:
258,218,7356,1,0,0:0:0:0:
219,332,7439,5,0,0:0:0:0:
219,273,7522,1,0,0:0:0:0:
121,218,7606,2,0,L|100:256,1,24
176,120,7773,6,0,L|203:68,1,48
286,74,8023,2,0,L|259:126,1,48
373,70,8273,6,0,L|394:107,1,24
350,237,8439,2,0,L|446:173,1,108.000004119873
372,69,8773,2,0,L|283:129,1,108.000004119873
212,18,9106,2,0,L|302:-41,1,108.000004119873
51,69,9439,6,0,L|1:108,1,36.0000013732911
76,150,9606,2,0,L|105:194,1,36.0000013732911
132,44,9773,1,0,0:0:0:0:
37,125,9939,5,0,0:0:0:0:
96,125,10022,1,0,0:0:0:0:
135,239,10106,5,0,0:0:0:0:
135,180,10189,1,0,0:0:0:0:
233,125,10273,1,0,0:0:0:0:
299,17,10439,6,0,L|351:52,1,36.0000013732911
322,184,10606,2,0,L|271:152,1,36.0000013732911
135,180,10773,2,0,L|187:215,1,36.0000013732911
255,257,10939,6,0,L|204:225,1,36.0000013732911
10,101,11106,6,0,B|71:120|71:120|78:124|78:124|83:121|83:121|82:127|82:127|93:135|93:135|136:180,1,144
42,43,11439,2,0,B|77:55|77:55|109:54|132:72|145:95|145:95|186:137,1,144
223,111,11773,2,0,B|288:73|367:77,1,144
423,191,12106,6,0,P|394:202|336:202,2,72.0000027465821
361,77,12606,5,0,0:0:0:0:
392,134,12689,1,0,0:0:0:0:
485,305,12773,5,0,0:0:0:0:
454,248,12856,1,0,0:0:0:0:
309,253,12939,2,0,P|273:254|239:266,1,72.0000027465821
177,152,13106,6,0,P|212:153|228:160,1,36.0000013732911
115,266,13273,1,0,0:0:0:0:
53,152,13356,2,0,P|17:153|-20:171,1,72.0000027465821
115,38,13606,6,0,P|150:39|188:57,1,72.0000027465821
397,38,13773,6,0,B|358:37|348:40|345:40|345:40|341:38|341:38|341:42|341:42|339:42|323:51|291:82,1,108.000004119873
335,152,14106,2,0,B|295:167|306:212|269:182|236:196,1,108.000004119873
199,112,14439,2,0,P|151:117|138:171,1,108.000004119873
471,236,14773,5,0,0:1:0:0:
433,137,14939,1,0,0:1:0:0:
367,220,15106,1,0,0:1:0:0:
301,303,15273,5,0,0:1:0:0:
268,344,15356,1,0,0:1:0:0:
249,295,15439,1,0,0:1:0:0:
178,238,15523,5,0,0:1:0:0:
211,197,15606,1,0,0:1:0:0:
230,246,15689,1,0,0:1:0:0:
298,308,15773,6,0,P|344:336|359:295,1,72.0000027465821
367,220,15939,1,0,0:1:0:0:
435,131,16023,6,0,P|401:103|392:155,2,72.0000027465821
282,30,16273,6,0,P|246:65|225:17,1,72.0000027465821
355,45,16439,6,0,B|385:26|385:26|417:27|417:27|460:57,1,96
336,94,16689,1,0,0:1:0:0:
435,131,16773,2,0,B|388:113|388:113|302:117,1,96
416,180,17023,1,0,0:1:0:0:
323,195,17106,2,0,L|419:206,1,96
304,244,17356,5,0,0:1:0:0:
211,259,17439,2,0,L|115:248,2,96
416,180,17856,5,0,0:1:0:0:
397,229,17939,1,0,0:1:0:0:
285,293,18023,5,0,0:1:0:0:
304,244,18106,1,0,0:1:0:0:
240,132,18189,5,0,0:1:0:0:
289,151,18273,2,0,L|309:84,1,48
507,208,18439,6,0,L|409:178,1,96
397,229,18689,1,0,0:1:0:0:
212,215,18773,2,0,L|303:243,1,96
285,293,19023,1,0,0:1:0:0:
197,308,19106,2,0,L|105:336,1,96
86,287,19356,5,0,0:1:0:0:
67,238,19439,1,0,0:1:0:0:
131,126,19522,1,0,0:1:0:0:
82,145,19606,2,0,L|62:78,1,48
229,88,19773,1,0,0:1:0:0:
278,69,19857,2,0,L|302:135,1,48
259,20,20023,1,0,0:1:0:0:
354,265,20106,6,0,L|317:173,1,96
424,135,20356,2,0,L|358:159,2,48
208,217,20606,5,0,0:1:0:0:
257,198,20689,1,0,0:1:0:0:
275,65,20773,5,0,0:1:0:0:
294,114,20856,1,0,0:1:0:0:
424,135,20939,5,0,0:1:0:0:
375,154,21022,1,0,0:1:0:0:
361,278,21106,5,0,0:1:0:0:
341,236,21189,1,0,0:1:0:0:
260,196,21273,5,0,0:1:0:0:
279,245,21356,1,0,0:1:0:0:
198,205,21439,5,0,0:1:0:0:
179,156,21522,1,0,0:1:0:0:
130,175,21606,1,0,0:1:0:0:
149,224,21689,1,0,0:1:0:0:
217,254,21773,5,0,0:1:0:0:
236,303,21856,5,0,0:1:0:0:
276,335,21939,1,0,0:1:0:0:
326,342,22023,1,0,0:1:0:0:
419,304,22106,5,0,0:1:0:0:
326,342,22189,1,0,0:1:0:0:
288,249,22273,1,0,0:1:0:0:
381,211,22356,1,0,0:1:0:0:
419,304,22439,5,0,0:1:0:0:
381,211,22523,1,0,0:1:0:0:
343,118,22606,5,0,0:1:0:0:
288,249,22689,1,0,0:1:0:0:
202,135,22773,2,0,B|116:20|116:20|48:192,1,288
114,244,23106,5,0,0:1:0:0:
121,194,23190,1,0,0:1:0:0:
153,154,23273,1,0,0:1:0:0:
202,135,23356,1,0,0:1:0:0:
107,294,23439,6,0,L|95:374,1,48
43,213,23606,5,0,0:1:0:0:
36,263,23690,1,0,0:1:0:0:
57,310,23773,2,0,L|50:358,1,48
180,224,23939,5,0,0:1:0:0:
150,267,24023,1,0,0:1:0:0:
137,366,24106,6,0,L|144:318,1,48
227,201,24273,5,0,0:1:0:0:
279,204,24356,1,0,0:1:0:0:
337,103,24439,5,0,0:1:0:0:
334,155,24522,1,0,0:1:0:0:
325,311,24606,5,0,0:1:0:0:
435,212,24773,6,0,B|514:152|514:152|395:105,1,192
249,64,25023,2,0,L|352:109,4,96
101,250,25439,6,0,B|160:329|160:329|207:210,1,192
249,64,25689,2,0,L|204:167,3,96
336,285,26106,6,0,B|256:344|256:344|375:391,1,192
423,64,26356,2,0,L|460:154,1,72.0000027465821
410,223,26523,2,0,L|382:156,1,72.0000027465821
288,116,26689,1,0,0:0:0:0:
251,210,26773,6,0,L|223:143,1,72.0000027465821
264,52,26939,1,0,0:0:0:0:
252,119,27023,1,0,0:0:0:0:
196,238,27106,5,0,0:0:0:0:
208,171,27189,1,0,0:0:0:0:
60,87,27273,5,0,0:0:0:0:
83,152,27356,1,0,0:0:0:0:
135,97,27439,2,0,L|210:68,1,72.0000027465821
252,119,27606,5,0,0:0:0:0:
264,52,27690,1,0,0:0:0:0:
386,143,27773,2,0,L|369:231,3,72.0000027465821
344,353,28106,6,0,B|366:316|366:316|355:264,1,72.0000027465821
269,248,28273,5,0,0:0:0:0:
292,313,28356,1,0,0:0:0:0:
263,242,28439,5,0,0:0:0:0:
286,307,28522,1,0,0:0:0:0:
206,199,28606,5,0,0:0:0:0:
141,222,28689,1,0,0:0:0:0:
200,193,28773,2,0,P|58:172|9:139,1,144.000005493164
60,87,29023,5,0,0:0:0:0:
83,152,29106,1,0,0:0:0:0:
128,100,29189,1,0,0:0:0:0:
150,165,29273,1,0,0:0:0:0:
196,113,29356,1,0,0:0:0:0:
400,152,29439,6,0,B|314:267|314:267|246:95,1,288
218,178,29689,5,0,0:0:0:0:
196,113,29772,1,0,0:0:0:0:
150,164,29856,1,0,0:0:0:0:
37,201,29939,5,0,0:0:0:0:
59,267,30023,1,0,0:0:0:0:
104,215,30106,2,0,B|190:100|190:100|258:272,1,288
280,301,30356,5,0,0:0:0:0:
257,236,30439,1,0,0:0:0:0:
274,295,30522,5,0,0:0:0:0:
251,230,30605,1,0,0:0:0:0:
339,318,30689,5,0,0:0:0:0:
404,341,30772,5,0,0:0:0:0:
257,367,30856,2,0,P|326:346|398:347,1,144.000005493164
378,193,31023,5,0,0:0:0:0:
401,128,31106,1,0,0:0:0:0:
424,63,31189,1,0,0:0:0:0:
336,106,31273,5,0,0:0:0:0:
359,41,31356,1,0,0:0:0:0:
330,112,31439,2,0,L|266:161,2,48
384,187,31689,5,0,0:0:0:0:
407,122,31772,1,0,0:0:0:0:
489,85,31939,5,0,0:0:0:0:
342,58,32023,2,0,P|413:57|482:78,1,144.000005493164
495,91,32189,5,0,0:0:0:0:
390,181,32356,5,0,0:0:0:0:
413,116,32439,1,0,0:0:0:0:
378,193,32606,5,0,0:0:0:0:
404,341,32689,1,0,0:0:0:0:
257,367,32773,2,0,P|326:346|398:347,2,144.000005493164
134,281,33023,1,0,0:0:0:0:
11,195,33106,1,0,0:0:0:0:
269,218,33273,5,0,0:0:0:0:
146,132,33357,1,0,0:0:0:0:
281,69,33439,2,0,P|352:68|421:89,1,144.000005493164
413,116,33606,5,0,0:0:0:0:
378,193,33689,1,0,0:0:0:0:
499,219,33773,5,0,0:0:0:0:
420,249,33856,1,0,0:0:0:0:
410,318,33939,5,0,0:0:0:0:
487,352,34022,1,0,0:0:0:0:
259,287,34106,2,0,P|188:288|119:267,1,144.000005493164
127,240,34273,5,0,0:0:0:0:
162,163,34356,1,0,0:0:0:0:
41,137,34440,5,0,0:0:0:0:
120,107,34523,1,0,0:0:0:0:
130,38,34606,5,0,0:0:0:0:
53,4,34689,1,0,0:0:0:0:
287,131,34773,5,0,0:0:0:0:
322,54,34856,1,0,0:0:0:0:
408,157,34940,5,0,0:0:0:0:
329,187,35023,1,0,0:0:0:0:
319,256,35106,5,0,0:0:0:0:
240,286,35189,2,0,L|100:233,1,81.1200015162964
56,324,35356,1,0,0:0:0:0:
151,384,35439,2,0,L|291:331,1,81.1200015162964
418,285,35606,5,0,0:0:0:0:
339,255,35689,1,0,0:0:0:0:
338,235,35773,5,0,0:0:0:0:
303,157,35856,1,0,0:0:0:0:
316,142,35939,5,0,0:0:0:0:
346,62,36022,5,0,0:0:0:0:
273,237,36106,5,0,0:0:0:0:
260,252,36190,1,0,0:0:0:0:
182,287,36273,1,0,0:0:0:0:
162,288,36357,1,0,0:0:0:0:
82,257,36439,1,0,0:0:0:0:
67,244,36523,5,0,0:0:0:0:
110,112,36606,1,0,0:0:0:0:
129,110,36690,1,0,0:0:0:0:
209,140,36773,5,0,0:0:0:0:
32,165,36856,1,0,0:0:0:0:
151,0,36939,2,0,B|178:10|178:10|182:19|191:14|191:14|291:53,2,81.1200015162964
209,140,37189,6,0,B|190:146|190:146|180:166|160:157|160:157|133:168,2,81.1200015162964
151,280,37439,6,0,P|176:339|178:284,2,162.240003032593
129,110,37689,1,0,0:0:0:0:
110,112,37773,1,0,0:0:0:0:
82,257,37856,1,0,0:0:0:0:
67,244,37940,1,0,0:0:0:0:
224,153,38023,1,0,0:0:0:0:
209,140,38107,1,0,0:0:0:0:
227,231,38189,6,0,P|262:295|260:337,2,81.1200015162964
166,293,38439,1,0,0:0:0:0:
297,170,38523,2,0,P|369:171|405:194,2,81.1200015162964
140,132,38773,5,0,0:0:0:0:
155,119,38856,1,0,0:0:0:0:
125,119,38939,5,0,0:0:0:0:
140,106,39023,1,0,0:0:0:0:
65,119,39106,5,0,0:0:0:0:
155,119,39189,1,0,0:0:0:0:
68,142,39272,5,0,0:0:0:0:
155,119,39356,1,0,0:0:0:0:
76,163,39439,5,0,0:0:0:0:
163,187,39523,1,0,0:0:0:0:
76,163,39607,5,0,0:0:0:0:
163,187,39690,1,0,0:0:0:0:
72,185,39773,5,0,0:0:0:0:
68,207,39856,1,0,0:0:0:0:
76,163,39939,5,0,0:0:0:0:
65,119,40023,1,0,0:0:0:0:
158,207,40106,5,0,0:0:0:0:
155,119,40189,1,0,0:0:0:0:
249,292,40273,1,0,0:0:0:0:
246,204,40356,1,0,0:0:0:0:
331,113,40439,5,0,0:0:0:0:
243,116,40522,1,0,0:0:0:0:
155,119,40606,1,0,0:0:0:0:
65,119,40689,1,0,0:0:0:0:
422,198,40773,5,0,0:0:0:0:
334,201,40856,1,0,0:0:0:0:
159,292,40940,5,0,0:0:0:0:
249,292,41023,1,0,0:0:0:0:
339,292,41106,1,0,0:0:0:0:
429,292,41189,1,0,0:0:0:0:
201,280,41273,5,0,0:0:0:0:
246,204,41356,1,0,0:0:0:0:
367,174,41439,5,0,0:0:0:0:
291,129,41522,1,0,0:0:0:0:
216,83,41606,5,0,0:0:0:0:
140,34,41689,1,0,0:0:0:0:
136,124,41773,5,0,0:0:0:0:
136,124,41856,5,0,0:0:0:0:
60,75,41939,2,0,L|5:31,1,48
212,173,42106,5,0,0:0:0:0:
216,83,42189,2,0,L|161:39,1,48
294,42,42356,5,0,0:0:0:0:
291,129,42439,2,0,L|328:158,1,48
441,136,42606,5,0,0:0:0:0:
445,49,42689,1,0,0:0:0:0:
437,223,42773,2,0,L|399:252,1,48
176,211,43023,5,0,0:0:0:0:
263,215,43106,2,0,L|301:186,1,48
365,126,43273,5,0,0:0:0:0:
429,67,43356,1,0,0:0:0:0:
437,223,43439,2,0,L|399:252,1,48
291,126,43689,5,0,0:0:0:0:
227,67,43773,2,0,L|189:38,1,48
176,211,43939,5,0,0:0:0:0:
112,152,44022,1,0,0:0:0:0:
104,308,44106,2,0,L|142:337,1,48
244,237,44273,5,0,0:0:0:0:
213,177,44356,1,0,0:0:0:0:
182,237,44439,1,0,0:0:0:0:
244,237,44606,5,0,0:0:0:0:
311,240,44689,1,0,0:0:0:0:
275,183,44772,1,0,0:0:0:0:
244,237,44939,5,0,0:0:0:0:
207,293,45022,1,0,0:0:0:0:
275,290,45105,1,0,0:0:0:0:
244,237,45273,5,0,0:0:0:0:
213,177,45356,1,0,0:0:0:0:
182,237,45439,1,0,0:0:0:0:
244,237,45606,5,0,0:0:0:0:
311,240,45689,1,0,0:0:0:0:
275,183,45772,1,0,0:0:0:0:
244,237,45939,5,0,0:0:0:0:
207,293,46022,1,0,0:0:0:0:
275,290,46105,1,0,0:0:0:0:
244,237,46273,5,0,0:0:0:0:
213,177,46356,1,0,0:0:0:0:
182,237,46439,1,0,0:0:0:0:
244,237,46606,5,0,0:0:0:0:
311,240,46689,1,0,0:0:0:0:
275,183,46772,1,0,0:0:0:0:
244,237,46856,5,0,0:0:0:0:
204,291,46940,1,0,0:0:0:0:
128,295,47023,1,0,0:0:0:0:
101,232,47107,1,0,0:0:0:0:
134,167,47190,1,0,0:0:0:0:
204,175,47273,1,0,0:0:0:0:
275,183,47356,5,0,0:0:0:0:
206,174,47440,1,0,0:0:0:0:
164,111,47523,1,0,0:0:0:0:
204,56,47607,1,0,0:0:0:0:
277,50,47690,1,0,0:0:0:0:
306,114,47773,1,0,0:0:0:0:
316,183,47856,5,0,0:0:0:0:
306,114,47940,1,0,0:0:0:0:
356,57,48023,5,0,0:0:0:0:
420,81,48107,1,0,0:0:0:0:
444,150,48190,1,0,0:0:0:0:
390,195,48273,1,0,0:0:0:0:
336,240,48356,5,0,0:0:0:0:
272,216,48440,1,0,0:0:0:0:
306,354,48523,5,0,0:0:0:0:
360,309,48606,1,0,0:0:0:0:
390,195,48689,5,0,0:0:0:0:
444,150,48772,1,0,0:0:0:0:
336,240,48856,5,0,0:0:0:0:
272,216,48940,1,0,0:0:0:0:
185,309,49023,5,0,0:0:0:0:
209,245,49107,1,0,0:0:0:0:
116,158,49190,5,0,0:0:0:0:
180,182,49274,1,0,0:0:0:0:
267,89,49356,5,0,3:0:0:0:
243,153,49439,6,0,P|257:134|268:84,1,72
116,158,49773,5,0,0:0:0:0:
243,153,49939,2,0,P|257:134|267:87,1,72
310,260,50106,2,0,P|333:257|379:272,1,72
369,147,50273,2,0,P|359:125|323:93,1,72
426,34,50439,2,0,P|402:31|356:46,1,72
183,266,50606,2,0,P|197:285|206:331,1,72
79,5,50773,6,0,P|102:2|148:17,1,72
84,132,51106,5,0,0:0:0:0:
197,192,51273,2,0,P|216:206|263:216,1,72
90,259,51440,2,0,P|92:282|77:328,1,72
203,318,51607,2,0,P|224:308|256:272,1,72
316,375,51773,6,0,P|318:351|303:305,1,72
83,132,52106,6,0,B|192:169|192:169|220:268,1,216.000008239746
344,123,52439,2,0,L|215:78,1,72.0000027465821
192,170,52606,2,0,L|259:193,1,72.0000027465821
276,99,52773,5,0,0:0:0:0:
259,193,52856,1,0,0:0:0:0:
343,122,52939,1,0,0:0:0:0:
192,170,53023,1,0,0:0:0:0:
117,310,53106,6,0,L|82:181,1,72.0000027465821
192,170,53273,2,0,L|210:239,1,72.0000027465821
117,30,53439,6,0,P|74:27|99:99,1,144.000005493164
134,124,53689,5,0,0:0:0:0:
117,218,53773,2,0,L|99:287,1,72.0000027465821
134,124,53939,6,0,P|176:132|133:195,1,144.000005493164
117,218,54189,2,0,P|74:215|99:287,1,144.000005493164
134,312,54439,2,0,P|176:320|132:383,1,144.000005493164
243,153,54773,6,0,P|201:54|158:34,1,144.000005493164
116,158,55106,5,0,0:0:0:0:
310,260,55272,2,0,P|333:257|379:272,1,72
369,147,55439,2,0,P|359:125|323:93,1,72
426,34,55605,2,0,P|402:31|356:46,1,72
183,266,55772,2,0,P|197:285|206:331,1,72
79,5,55939,6,0,P|102:2|148:17,1,72
82,261,56106,6,0,P|181:219|201:176,1,144.000005493164
84,132,56439,5,0,0:0:0:0:
197,192,56606,2,0,P|216:206|263:216,1,72
90,259,56773,2,0,P|92:282|77:328,1,72
203,318,56940,2,0,P|224:308|256:272,1,72
316,375,57106,6,0,P|318:351|303:305,1,72
83,132,57439,6,0,B|192:169|192:169|220:268,1,216.000008239746
344,123,57772,2,0,L|215:78,1,72.0000027465821
192,170,57939,2,0,L|259:193,1,72.0000027465821
276,99,58106,5,0,0:0:0:0:
259,193,58189,1,0,0:0:0:0:
343,122,58272,1,0,0:0:0:0:
192,170,58356,1,0,0:0:0:0:
117,310,58439,6,0,L|82:181,1,72.0000027465821
192,170,58606,2,0,L|210:239,1,72.0000027465821
117,30,58772,6,0,P|74:27|99:99,1,144.000005493164
134,124,59022,5,0,0:0:0:0:
117,218,59106,2,0,L|99:287,1,72.0000027465821
134,124,59272,6,0,P|176:132|133:195,1,144.000005493164
117,218,59523,2,0,P|74:215|99:287,1,144.000005493164
134,312,59773,2,0,P|176:320|132:383,1,144.000005493164
266,299,60106,6,0,B|264:263|264:263|264:263|378:311,1,144
350,300,60439,1,0,0:0:0:0:
350,172,60606,2,0,L|222:126,1,72.0000027465821
282,19,60773,2,0,L|216:-8,1,72.0000027465821
214,183,60939,2,0,L|282:208,1,72.0000027465821
281,359,61106,2,0,L|349:384,1,72.0000027465821
350,24,61273,2,0,L|282:0,1,72.0000027465821
458,310,61439,2,0,B|460:346|460:346|460:346|345:297,1,144
250,111,61773,5,0,0:0:0:0:
