osu file format v14

[General]
AudioFilename: Sample Text.mp3
AudioLeadIn: 0
PreviewTime: 145364
Countdown: 0
SampleSet: Normal
StackLeniency: 0.3
Mode: 0
LetterboxInBreaks: 0
WidescreenStoryboard: 0

[Editor]
DistanceSpacing: 1
BeatDivisor: 8
GridSize: 16
TimelineZoom: 2.3

[Metadata]
Title:Flashes (Extended)
TitleUnicode:Flashes (Extended)
Artist:Dollscythe
ArtistUnicode:Dollscythe
Creator:handsome
Version:Spark
Source:beatmania IIDX 22 PENDUAL
Tags:dnb drum n bass and nerova riuz gx hommarju dubstep electro atsuro side rohit6 n/a nrg
BeatmapID:787957
BeatmapSetID:358350

[Difficulty]
HPDrainRate:7
CircleSize:4
OverallDifficulty:9
ApproachRate:9.4
SliderMultiplier:1.6
SliderTickRate:1

[Events]
//Background and Video events
0,0,"Sample-Text.jpg",0,0
//Break Periods
//Storyboard Layer 0 (Background)
//Storyboard Layer 1 (Fail)
//Storyboard Layer 2 (Pass)
//Storyboard Layer 3 (Foreground)
//Storyboard Sound Samples

[TimingPoints]
1365,333.3333333333,4,2,1,30,1,0
1365,-133.3333333333,4,2,1,30,0,0
4031,-133.3333333333,4,2,1,35,0,0
6698,-133.3333333333,4,2,1,40,0,0
9364,-133.3333333333,4,2,1,45,0,0
12031,-133.3333333333,4,2,1,50,0,0
17364,-133.3333333333,4,2,1,55,0,0
20031,-133.3333333333,4,2,1,60,0,0
20531,-133.3333333333,4,2,1,30,0,0
21364,-133.3333333333,4,2,1,50,0,0
22031,-100,4,2,0,55,0,0
22698,-100,4,2,2,60,0,0
46698,-100,4,2,2,40,0,0
48031,-62.5,4,2,2,60,0,0
48698,-62.5,4,2,0,65,0,0
49364,-71.42857142857,4,1,2,65,0,0
53364,-71.42857142857,4,2,2,65,0,0
54698,-71.42857142857,4,1,2,65,0,0
58864,-71.42857142857,4,1,0,65,0,0
59031,-71.42857142857,4,1,2,65,0,0
59364,-71.42857142857,4,1,0,65,0,0
59531,-71.42857142857,4,1,2,65,0,0
64031,-71.42857142857,4,2,2,65,0,0
65364,-71.42857142857,4,1,2,65,0,0
69364,-71.42857142857,4,1,2,40,0,0
70031,-71.42857142857,4,2,0,60,0,0
70698,-71.42857142857,4,1,2,65,0,0
74698,-71.42857142857,4,2,2,65,0,0
76031,-71.42857142857,4,1,2,65,0,0
80198,-71.42857142857,4,1,0,65,0,0
80364,-71.42857142857,4,1,2,65,0,0
80698,-71.42857142857,4,1,0,65,0,0
80864,-71.42857142857,4,1,2,65,0,0
85364,-71.42857142857,4,2,2,65,0,0
86698,-71.42857142857,4,1,2,65,0,0
89698,-71.42857142857,4,2,2,65,0,0
90698,-71.42857142857,4,2,2,40,0,0
91364,-71.42857142857,4,2,0,65,0,0
92031,-125,4,2,2,45,0,0
113364,-125,4,2,2,40,0,0
129364,-100,4,2,2,45,0,0
132031,-83.3333333333333,4,2,2,45,0,0
134698,-100,4,2,2,50,0,0
137364,-83.3333333333333,4,2,2,55,0,0
138698,-83.3333333333333,4,2,2,60,0,0
140031,-100,4,2,2,65,0,0
141364,-71.4285714285714,4,2,2,70,0,0
142698,-83.33333333333,4,2,2,55,0,0
144031,-62.499999999998,4,2,0,65,0,0
145364,-55.55555555556,4,1,2,70,0,1
161364,-83.33333333333,4,2,2,50,0,0
164031,-55.55555555556,4,2,2,55,0,0
165364,-62.5000000000055,4,2,2,70,0,0
166031,-55.55555555556,4,1,2,70,0,0
166698,-55.55555555556,4,1,2,70,0,1
182698,-83.33333333333,4,2,2,50,0,0
185364,-55.55555555556,4,1,2,55,0,0
186698,-62.5000000000055,4,2,2,70,0,0
187364,-55.55555555556,4,1,2,70,0,0
188031,-62.5,4,2,2,70,0,0
209364,-100,4,2,2,60,0,0
230698,-200,4,2,2,60,0,0
230781,-200,4,2,2,50,0,0
241364,-200,4,2,2,45,0,0
252031,-250,4,2,3,25,0,0
262698,-350,4,2,3,15,0,0
268031,-350,4,2,3,10,0,0

[Colours]
Combo1 : 100,173,255
Combo2 : 185,185,185
Combo3 : 163,221,250

[HitObjects]
30,62,1365,6,0,P|87:35|159:53,1,120.0000045776,6|8,0:0|0:0,0:0:0:0:
216,103,1864,2,0,P|193:48|143:15,1,120.0000045776,2|0,0:0|0:0,0:0:0:0:
144,15,2364,1,10,0:0:0:0:
139,140,2698,5,2,0:0:0:0:
68,91,3031,2,0,P|50:132|56:167,1,60.00000228882,8|2,0:0|0:0,0:0:0:0:
146,54,3364,2,0,P|101:59|73:81,1,60.00000228882,0|0,0:0|0:0,0:0:0:0:
216,103,3698,2,0,P|188:67|155:54,1,60.00000228882,10|0,0:0|0:0,0:0:0:0:
289,32,4031,6,0,P|316:89|298:161,1,120.0000045776,6|8,0:0|0:0,0:0:0:0:
248,218,4531,2,0,P|303:195|336:145,1,120.0000045776,2|0,0:0|0:0,0:0:0:0:
335,146,5031,1,10,0:0:0:0:
211,141,5364,5,2,0:0:0:0:
260,70,5698,2,0,P|218:52|183:58,1,60.00000228882,8|2,0:0|0:0,0:0:0:0:
297,148,6031,2,0,P|291:103|269:76,1,60.00000228882,0|0,0:0|0:0,0:0:0:0:
248,218,6364,2,0,P|283:190|296:157,1,60.00000228882,10|0,0:0|0:0,0:0:0:0:
319,291,6698,6,0,P|262:318|190:300,1,120.0000045776,6|8,0:0|0:0,0:0:0:0:
133,250,7198,2,0,P|156:305|206:338,1,120.0000045776,2|0,0:0|0:0,0:0:0:0:
204,337,7698,1,10,0:0:0:0:
210,213,8031,5,2,0:0:0:0:
281,262,8364,2,0,P|298:220|292:185,1,60.00000228882,8|2,0:0|0:0,0:0:0:0:
203,299,8698,2,0,P|248:293|275:271,1,60.00000228882,0|0,0:0|0:0,0:0:0:0:
133,250,9031,2,0,P|160:285|193:298,1,60.00000228882,10|0,0:0|0:0,0:0:0:0:
60,321,9364,6,0,P|33:264|51:192,1,120.0000045776,6|8,0:0|0:0,0:0:0:0:
101,135,9864,2,0,P|46:158|13:208,1,120.0000045776,2|0,0:0|0:0,0:0:0:0:
13,206,10364,1,10,0:0:0:0:
138,212,10698,5,2,0:0:0:0:
89,283,11031,2,0,P|130:300|165:294,1,60.00000228882,8|2,0:0|0:0,0:0:0:0:
52,205,11364,2,0,P|58:250|80:277,1,60.00000228882,0|0,0:0|0:0,0:0:0:0:
101,135,11698,2,0,P|65:162|52:195,1,60.00000228882,10|0,0:0|0:0,0:0:0:0:
138,212,12031,6,0,P|193:222|261:197,1,120.0000045776,6|8,0:0|0:0,0:0:0:0:
355,130,12531,1,2,0:0:0:0:
339,126,12614,1,0,0:0:0:0:
324,125,12698,1,0,0:0:0:0:
310,127,12781,1,0,0:0:0:0:
296,134,12864,1,0,0:0:0:0:
310,257,13031,2,0,P|326:232|329:189,1,60.00000228882,10|0,0:0|0:0,0:0:0:0:
320,83,13364,1,2,0:0:0:0:
296,73,13698,6,0,L|238:56,1,60.00000228882,8|2,0:0|0:0,0:0:0:0:
340,67,14031,2,0,L|383:25,1,60.00000228882,0|0,0:0|0:0,0:0:0:0:
323,108,14364,2,0,L|342:184,1,60.00000228882,10|0,0:0|0:0,0:0:0:0:
452,290,14698,6,0,P|462:235|437:167,1,120.0000045776,6|8,0:0|0:0,0:0:0:0:
370,73,15198,1,2,0:0:0:0:
366,89,15281,1,0,0:0:0:0:
365,104,15364,1,0,0:0:0:0:
367,118,15448,1,0,0:0:0:0:
374,132,15531,1,0,0:0:0:0:
497,118,15698,2,0,P|472:102|429:99,1,60.00000228882,10|0,0:0|0:0,0:0:0:0:
323,108,16031,1,2,0:0:0:0:
313,132,16364,6,0,L|296:189,1,60.00000228882,8|2,0:0|0:0,0:0:0:0:
307,88,16698,2,0,L|265:44,1,60.00000228882,0|0,0:0|0:0,0:0:0:0:
348,105,17031,2,0,L|424:85,1,60.00000228882,10|0,0:0|0:0,0:0:0:0:
488,176,17364,6,0,P|498:129|487:94,2,60.00000228882,6|0|8,0:0|0:0|0:0,0:0:0:0:
512,273,17864,1,2,0:0:0:0:
489,271,17948,1,0,0:0:0:0:
467,269,18031,1,0,0:0:0:0:
444,267,18114,1,0,0:0:0:0:
422,266,18198,1,0,0:0:0:0:
335,308,18364,1,10,0:0:0:0:
249,352,18531,1,0,0:0:0:0:
249,352,18614,1,0,0:0:0:0:
249,352,18698,1,2,0:0:0:0:
234,232,19031,6,0,L|146:228,1,60.00000228882,8|2,0:0|0:0,0:0:0:0:
35,187,19364,2,0,L|123:183,1,60.00000228882,0|0,0:0|0:0,0:0:0:0:
240,147,19698,2,0,L|152:143,1,60.00000228882,10|0,0:0|0:0,0:0:0:0:
17,104,20031,5,6,0:0:0:0:
121,76,20198,1,0,0:0:0:0:
45,0,20364,1,8,0:0:0:0:
68,88,20531,5,2,1:2:0:0:
75,100,20614,1,0,1:0:0:0:
85,112,20698,1,0,1:0:0:0:
97,121,20781,1,0,1:0:0:0:
109,129,20864,1,0,1:0:0:0:
123,135,20948,1,0,1:0:0:0:
138,138,21031,1,10,1:2:0:0:
153,139,21114,1,0,1:0:0:0:
168,137,21198,1,0,1:0:0:0:
182,134,21281,1,0,1:0:0:0:
196,128,21364,5,0,0:0:0:0:
170,123,21448,1,0,0:0:0:0:
144,126,21531,1,0,0:0:0:0:
121,138,21614,1,0,0:0:0:0:
102,156,21698,1,8,0:0:0:0:
90,180,21781,1,0,0:0:0:0:
87,206,21864,1,0,0:0:0:0:
92,231,21948,1,0,0:0:0:0:
106,255,22031,6,8,L|112:301,1,40,8|8,0:3|0:3,0:0:0:0:
42,341,22198,1,8,0:3:0:0:
85,374,22281,1,8,0:3:0:0:
140,374,22364,1,4,0:3:0:0:
184,340,22448,1,4,0:3:0:0:
213,292,22531,1,4,0:3:0:0:
264,269,22614,1,4,0:3:0:0:
318,285,22698,6,0,B|306:232|306:232|337:121,1,160,6|0,3:2|0:0,0:0:0:0:
397,235,23198,1,2,0:0:0:0:
397,235,23281,1,0,0:0:0:0:
397,235,23364,1,8,0:0:0:0:
270,363,23531,2,0,L|171:358,1,80,0|2,0:0|0:0,0:0:0:0:
106,255,23864,1,0,0:0:0:0:
106,255,23948,1,0,0:0:0:0:
106,255,24031,6,0,L|174:258,1,40,2|0,3:2|0:0,0:0:0:0:
229,263,24198,2,0,L|297:266,1,40,0|0,0:0|0:0,0:0:0:0:
296,177,24364,6,0,L|228:174,1,40,0|0,0:0|0:0,0:0:0:0:
173,169,24531,2,0,L|105:166,1,40,2|0,0:0|0:0,0:0:0:0:
30,208,24698,6,0,P|15:248|34:312,1,80,8|0,0:0|0:0,0:0:0:0:
60,124,25031,2,0,P|32:91|-32:75,1,80,2|0,0:0|0:0,0:0:0:0:
117,191,25364,2,0,P|159:183|205:135,2,80,2|0|0,3:2|0:0|0:0,0:0:0:0:
30,162,25864,5,2,0:0:0:0:
203,34,26031,1,8,0:0:0:0:
227,247,26198,1,0,0:1:0:0:
215,247,26281,1,0,0:0:0:0:
209,236,26364,1,2,0:0:0:0:
215,226,26448,1,0,0:0:0:0:
227,226,26531,1,0,0:0:0:0:
233,236,26614,1,0,0:0:0:0:
221,236,26698,6,0,B|258:228|258:228|345:248,1,120,2|0,3:2|0:0,0:0:0:0:
338,246,27031,1,0,0:0:0:0:
264,319,27198,1,2,0:0:0:0:
442,265,27364,1,8,0:0:0:0:
368,338,27531,1,0,0:0:0:0:
324,211,27698,2,0,P|313:169|335:104,1,80,2|0,0:0|0:0,0:0:0:0:
396,65,28031,2,0,P|413:101|408:130,1,40,2|0,3:2|0:0,0:0:0:0:
283,236,28198,6,0,P|269:175|286:104,1,120,0|0,0:0|0:0,0:0:0:0:
279,119,28531,1,2,0:0:0:0:
466,161,28698,2,0,P|427:179|386:174,1,80,8|0,0:0|0:0,0:0:0:0:
229,56,29031,2,0,P|268:38|309:43,1,80,2|0,0:0|0:0,0:0:0:0:
412,100,29364,5,2,3:2:0:0:
279,119,29531,1,2,0:1:0:0:
279,119,29614,1,0,0:0:0:0:
229,243,29781,1,2,0:1:0:0:
229,243,29864,1,2,0:0:0:0:
375,122,30031,6,0,B|307:132|307:132|279:161,1,80,8|0,0:0|0:0,0:0:0:0:
279,119,30281,1,0,0:0:0:0:
279,119,30364,2,0,L|191:133,1,80,2|0,0:1|0:0,0:0:0:0:
186,318,30698,6,0,P|228:331|281:313,1,80,2|0,3:1|0:0,0:0:0:0:
324,267,30948,1,0,0:0:0:0:
324,267,31031,2,0,B|339:283|339:283|342:323,1,40,2|0,0:1|0:0,0:0:0:0:
229,243,31198,5,2,0:0:0:0:
229,243,31281,1,0,0:0:0:0:
229,243,31364,2,0,P|187:230|134:248,1,80,10|0,0:1|0:0,0:0:0:0:
91,294,31614,1,2,0:1:0:0:
91,294,31698,2,0,B|76:278|76:278|73:238,1,40,2|0,0:0|0:0,0:0:0:0:
0,207,31864,5,2,0:1:0:0:
29,193,31948,1,0,0:0:0:0:
47,167,32031,2,0,B|32:137|32:137|33:56,1,80,2|0,3:1|0:0,0:0:0:0:
88,34,32281,1,0,0:0:0:0:
88,34,32364,2,0,P|67:18|26:18,1,40,2|0,0:1|0:0,0:0:0:0:
126,120,32531,5,2,0:0:0:0:
126,120,32614,1,0,0:0:0:0:
126,120,32698,2,0,B|138:130|138:130|223:117,1,80,10|0,0:1|0:0,0:0:0:0:
271,86,32948,1,2,0:1:0:0:
271,86,33031,2,0,L|262:32,1,40,2|0,0:0|0:0,0:0:0:0:
296,161,33198,5,2,0:1:0:0:
331,143,33281,1,0,0:0:0:0:
348,107,33364,2,0,B|349:142|371:163|371:163|323:182|319:253,1,160,6|0,3:2|0:0,0:0:0:0:
431,103,33864,1,2,0:0:0:0:
431,103,33948,1,0,0:0:0:0:
431,103,34031,1,8,0:0:0:0:
409,241,34198,2,0,P|461:251|501:232,1,80,0|2,0:0|0:0,0:0:0:0:
296,161,34531,1,0,0:0:0:0:
296,161,34614,1,0,0:0:0:0:
296,161,34698,6,0,L|290:218,1,40,2|0,3:2|0:0,0:0:0:0:
340,335,34864,2,0,L|344:295,1,40,0|0,0:0|0:0,0:0:0:0:
231,270,35031,6,0,L|288:276,1,40,0|0,0:0|0:0,0:0:0:0:
405,226,35198,2,0,L|365:221,1,40,2|0,0:0|0:0,0:0:0:0:
164,215,35364,6,0,P|146:253|168:322,1,80,8|0,0:0|0:0,0:0:0:0:
173,128,35698,2,0,P|131:131|82:184,1,80,2|0,0:0|0:0,0:0:0:0:
252,91,36031,2,0,P|228:56|157:40,2,80,2|0|0,3:2|0:0|0:0,0:0:0:0:
231,270,36531,5,2,0:0:0:0:
148,131,36698,1,8,0:0:0:0:
88,288,36864,1,0,0:0:0:0:
71,282,36948,1,0,0:0:0:0:
84,303,37031,1,2,0:0:0:0:
67,297,37114,1,0,0:0:0:0:
80,318,37198,1,0,0:0:0:0:
63,312,37281,1,0,0:0:0:0:
68,329,37364,6,0,B|103:348|103:348|196:337,1,120,2|0,3:2|0:0,0:0:0:0:
182,338,37698,1,0,0:0:0:0:
247,167,37864,1,2,0:0:0:0:
363,308,38031,1,8,0:0:0:0:
208,318,38198,1,0,0:0:0:0:
347,203,38364,2,0,P|392:191|435:210,1,80,2|0,0:0|0:0,0:0:0:0:
382,320,38698,2,0,L|385:261,1,40,2|0,3:2|0:0,0:0:0:0:
328,168,38864,6,0,B|385:150|385:150|460:175,1,120,0|0,0:0|0:0,0:0:0:0:
442,169,39198,1,2,0:0:0:0:
251,114,39364,2,0,L|243:193,1,80,8|0,0:0|0:0,0:0:0:0:
454,282,39698,2,0,L|446:202,1,80,2|0,0:0|0:0,0:0:0:0:
431,56,40031,5,2,3:2:0:0:
252,149,40198,1,2,0:1:0:0:
252,149,40281,1,0,0:0:0:0:
442,169,40448,1,2,0:1:0:0:
442,169,40531,1,2,0:0:0:0:
286,43,40698,6,0,B|277:57|277:57|295:141,1,80,8|0,0:0|0:0,0:0:0:0:
347,177,40948,1,0,0:0:0:0:
347,177,41031,2,0,L|363:255,1,80,2|0,0:1|0:0,0:0:0:0:
488,99,41364,6,0,P|441:87|393:106,1,80,2|0,3:1|0:0,0:0:0:0:
330,64,41614,1,0,0:0:0:0:
330,64,41698,2,0,P|348:35|369:26,1,40,2|0,0:1|0:0,0:0:0:0:
347,177,41864,5,2,0:2:0:0:
347,177,41948,1,0,0:0:0:0:
347,177,42031,2,0,P|300:165|252:184,1,80,10|0,0:1|0:0,0:0:0:0:
189,142,42281,1,2,0:1:0:0:
189,142,42364,2,0,P|207:113|228:104,1,40,2|0,0:0|0:0,0:0:0:0:
400,109,42531,5,2,0:1:0:0:
418,134,42614,1,0,0:0:0:0:
429,164,42698,2,0,B|426:205|426:205|400:250,1,80,2|0,3:1|0:0,0:0:0:0:
473,292,42948,1,0,0:0:0:0:
473,292,43031,2,0,L|500:252,1,40,2|0,0:1|0:0,0:0:0:0:
395,317,43198,5,2,0:0:0:0:
395,317,43281,1,0,0:0:0:0:
395,317,43364,2,0,B|384:327|384:327|303:319,1,80,10|0,0:1|0:0,0:0:0:0:
262,249,43614,1,2,0:1:0:0:
262,249,43698,2,0,L|267:199,1,40,2|0,0:0|0:0,0:0:0:0:
231,335,43864,5,2,0:1:0:0:
191,330,43948,1,0,0:0:0:0:
151,325,44031,2,0,B|112:338|112:338|42:331,1,80,12|0,3:2|0:0,0:0:0:0:
240,104,44364,2,0,L|230:183,1,80,8|0,0:0|0:0,0:0:0:0:
10,246,44698,6,0,B|-3:207|-3:207|0:168,1,80,8|0,0:0|0:0,0:0:0:0:
231,335,45031,2,0,L|143:324,1,80,8|0,0:0|0:0,0:0:0:0:
89,105,45364,6,0,B|128:92|128:92|198:99,1,80,8|0,0:0|0:0,0:0:0:0:
0,326,45698,2,0,L|9:246,1,80,8|0,0:0|0:0,0:0:0:0:
230,184,46031,6,0,B|243:223|243:223|239:261,1,80,8|0,0:0|0:0,0:0:0:0:
9,95,46364,2,0,L|97:106,1,80,8|0,0:0|0:0,0:0:0:0:
118,216,46698,5,0,1:0:0:0:
125,234,46781,1,0,1:0:0:0:
135,251,46864,1,0,1:0:0:0:
148,266,46948,1,0,1:0:0:0:
164,279,47031,1,0,1:0:0:0:
181,289,47114,1,0,1:0:0:0:
200,296,47198,1,0,1:0:0:0:
219,299,47281,1,0,1:0:0:0:
239,299,47364,1,0,1:0:0:0:
259,296,47448,1,0,1:0:0:0:
278,289,47531,1,0,1:0:0:0:
295,279,47614,1,0,1:0:0:0:
311,266,47698,1,0,1:0:0:0:
324,251,47781,1,0,1:0:0:0:
334,234,47864,1,0,1:0:0:0:
341,216,47948,1,0,1:0:0:0:
345,196,48031,6,0,L|337:161,16,32,0|0|0|0|0|0|0|0|0|0|0|0|0|0|0|0|8,3:0|0:0|0:0|0:0|0:0|0:0|0:0|0:0|0:0|0:0|0:0|0:0|0:0|0:0|0:0|0:0|0:3,0:0:0:0:
432,161,48781,1,8,0:3:0:0:
471,112,48864,1,8,0:3:0:0:
464,50,48947,1,8,0:3:0:0:
415,12,49030,1,4,0:3:0:0:
353,20,49114,1,4,0:3:0:0:
316,70,49197,1,4,0:3:0:0:
258,99,49281,1,4,0:3:0:0:
201,67,49364,6,0,B|232:88|232:88|68:84,1,167.9999948731,4|0,3:2|2:0,0:0:0:0:
102,85,49698,1,8,0:0:0:0:
48,238,49864,6,0,P|60:263|81:280,1,55.99999829102,6|0,0:0|2:0,0:0:0:0:
192,262,50031,2,0,P|207:239|211:212,1,55.99999829102,6|0,0:0|2:0,0:0:0:0:
140,124,50198,2,0,P|113:122|87:132,1,55.99999829102,2|0,3:1|2:0,0:0:0:0:
148,336,50364,5,10,0:0:0:0:
127,208,50531,1,6,0:0:0:0:
301,293,50698,2,0,B|238:296|238:296|192:263|192:263|249:262,1,167.9999948731,0|0,3:0|2:0,0:0:0:0:
273,262,51031,1,8,0:0:0:0:
384,383,51198,6,0,L|396:299,1,55.99999829102,6|0,0:0|2:0,0:0:0:0:
480,289,51364,2,0,L|487:233,1,55.99999829102,6|0,0:0|2:0,0:0:0:0:
329,195,51531,6,0,L|336:139,1,55.99999829102,2|0,3:1|2:0,0:0:0:0:
403,250,51698,2,0,L|418:136,1,111.999996582,10|4,0:0|0:1,0:0:0:0:
466,44,52031,2,2,B|380:79|381:2|286:49,1,167.9999948731,0|0,3:0|2:0,0:0:0:0:
273,54,52364,6,0,P|249:60|196:49,1,55.99999829102,10|0,0:3|2:0,0:0:0:0:
123,60,52531,2,0,P|105:77|88:129,1,55.99999829102,2|0,0:3|2:0,0:0:0:0:
144,201,52698,5,2,0:3:0:0:
170,206,52781,1,2,0:3:0:0:
240,179,52864,5,2,3:0:0:0:
247,152,52948,1,2,0:3:0:0:
177,128,53031,6,0,P|201:134|254:123,1,55.99999829102,10|0,0:3|2:0,0:0:0:0:
327,134,53198,2,0,P|345:151|362:203,1,55.99999829102,2|0,0:3|2:0,0:0:0:0:
494,269,53364,6,0,P|471:219|480:159,1,111.999996582,2|2,3:1|0:2,0:0:0:0:
494,134,53614,1,0,0:0:0:0:
494,134,53698,1,8,0:0:0:0:
393,176,53864,6,0,P|370:126|379:66,1,111.999996582,2|2,0:1|0:2,0:0:0:0:
391,40,54114,1,0,0:0:0:0:
391,40,54198,2,0,B|359:34|359:34|312:48,1,55.99999829102,0|0,3:0|2:0,0:0:0:0:
194,100,54364,2,0,P|263:117|270:211,1,167.9999948731,10|0,0:1|2:0,0:0:0:0:
337,256,54698,6,0,B|273:237|273:237|239:257|239:257|152:235,1,167.9999948731,0|0,3:0|2:0,0:0:0:0:
147,230,55031,1,8,0:0:0:0:
60,28,55198,6,0,P|77:59|63:101,1,55.99999829102,6|0,0:0|2:0,0:0:0:0:
164,157,55364,2,0,P|127:155|98:122,1,55.99999829102,6|0,0:0|2:0,0:0:0:0:
0,182,55531,2,0,P|18:151|62:142,1,55.99999829102,2|0,3:1|2:0,0:0:0:0:
158,83,55698,5,10,0:0:0:0:
232,186,55864,1,6,0:0:0:0:
391,40,56031,2,0,B|409:70|409:70|395:211,1,167.9999948731,0|0,3:0|2:0,0:0:0:0:
393,236,56364,1,8,0:0:0:0:
512,274,56531,6,0,L|453:280,1,55.99999829102,6|0,0:0|2:0,0:0:0:0:
376,124,56698,2,0,L|317:118,1,55.99999829102,6|0,0:0|2:0,0:0:0:0:
286,300,56864,6,0,L|227:306,1,55.99999829102,2|0,3:1|2:0,0:0:0:0:
205,105,57031,2,0,L|82:92,1,111.999996582,10|4,0:0|0:0,0:0:0:0:
34,242,57364,2,2,B|0:298|29:348|29:348|1:332|0:300,1,167.9999948731,0|0,3:0|2:0,0:0:0:0:
4,168,57698,6,0,P|39:161|80:179,1,55.99999829102,10|0,0:3|2:0,0:0:0:0:
175,240,57864,2,0,P|140:247|99:229,1,55.99999829102,2|0,0:3|2:0,0:0:0:0:
155,78,58031,5,2,0:3:0:0:
185,87,58114,1,2,0:3:0:0:
249,39,58198,5,2,0:3:0:0:
279,30,58281,1,2,0:3:0:0:
333,91,58364,6,0,P|368:84|409:102,1,55.99999829102,8|0,0:3|2:0,0:0:0:0:
504,163,58531,2,0,P|469:170|428:152,1,55.99999829102,2|0,0:3|2:0,0:0:0:0:
341,277,58698,6,0,L|358:162,1,111.999996582,2|2,3:1|0:3,0:0:0:0:
420,100,58948,1,0,0:0:0:0:
420,100,59031,2,0,B|448:95|448:95|471:124,1,55.99999829102,8|0,0:0|2:0,0:0:0:0:
434,254,59198,6,0,L|319:237,1,111.999996582,2|2,0:0|0:3,0:0:0:0:
257,175,59448,1,0,0:0:0:0:
257,175,59531,2,0,B|252:147|252:147|281:124,1,55.99999829102,0|0,3:0|2:0,0:0:0:0:
493,324,59698,6,0,B|454:343|454:343|371:330,1,111.999996582,10|0,3:1|0:0,0:0:0:0:
352,325,59948,1,0,0:0:0:0:
278,366,60031,6,0,B|237:358|237:358|155:376|155:376|109:365,1,167.9999948731,4|0,3:2|2:0,0:0:0:0:
85,358,60364,1,8,0:0:0:0:
257,175,60531,6,0,P|236:213|215:226,1,55.99999829102,6|0,0:0|2:0,0:0:0:0:
150,257,60698,2,0,P|106:257|84:246,1,55.99999829102,6|0,0:0|2:0,0:0:0:0:
25,205,60864,2,0,P|2:167|1:143,1,55.99999829102,2|0,3:1|2:0,0:0:0:0:
240,86,61031,5,10,0:0:0:0:
133,168,61198,1,6,0:0:0:0:
8,116,61364,2,0,B|38:103|38:103|73:108|73:108|117:72|169:93,1,167.9999948731,0|0,3:0|2:0,0:0:0:0:
198,105,61698,1,8,0:0:0:0:
221,243,61864,6,0,L|212:175,1,55.99999829102,6|0,0:0|2:0,0:0:0:0:
409,95,62031,2,0,L|401:150,1,55.99999829102,6|0,0:0|2:0,0:0:0:0:
240,86,62198,6,0,P|291:78|318:90,1,55.99999829102,2|0,3:1|2:0,0:0:0:0:
465,216,62364,2,0,P|420:242|345:222,1,111.999996582,10|4,0:0|0:0,0:0:0:0:
289,365,62698,2,2,B|254:331|254:331|131:360,1,167.9999948731,0|0,3:0|2:0,0:0:0:0:
103,369,63031,6,0,L|116:308,1,55.99999829102,10|0,0:3|2:0,0:0:0:0:
60,212,63198,2,0,L|48:266,1,55.99999829102,2|0,0:3|2:0,0:0:0:0:
315,136,63364,5,2,0:3:0:0:
296,132,63448,1,2,0:3:0:0:
232,176,63531,5,2,3:0:0:0:
213,172,63615,1,2,0:3:0:0:
159,223,63698,6,0,L|172:162,1,55.99999829102,10|0,0:3|2:0,0:0:0:0:
116,66,63864,2,0,L|104:120,1,55.99999829102,2|0,0:3|2:0,0:0:0:0:
411,117,64031,6,6,B|394:103|394:103|296:104,1,111.999996582,2|2,3:1|0:2,0:0:0:0:
270,103,64281,1,0,0:0:0:0:
270,103,64364,1,8,0:0:0:0:
193,44,64531,6,0,B|176:30|176:30|78:31,1,111.999996582,2|2,0:1|0:2,0:0:0:0:
52,32,64781,1,0,0:0:0:0:
52,32,64864,2,0,L|59:88,1,55.9999982910157,0|0,3:0|2:0,0:0:0:0:
0,220,65031,2,0,P|72:198|121:260,1,167.9999948731,10|0,0:1|2:0,0:0:0:0:
51,309,65364,6,0,B|106:277|106:277|212:303,1,167.9999948731,0|0,3:0|2:0,0:0:0:0:
239,311,65698,1,8,0:0:0:0:
119,360,65864,6,0,L|181:375,1,55.99999829102,6|0,0:0|2:0,0:0:0:0:
325,292,66031,2,0,L|263:307,1,55.99999829102,6|0,0:0|2:0,0:0:0:0:
170,216,66198,2,0,L|232:231,1,55.99999829102,2|0,3:1|2:0,0:0:0:0:
299,381,66364,5,10,0:0:0:0:
355,210,66531,1,6,0:0:0:0:
486,339,66698,2,0,B|497:378|497:378|525:345|525:345|508:239,1,167.9999948731,0|0,3:0|0:2,0:0:0:0:
505,228,67031,1,8,0:0:0:0:
383,123,67198,6,0,P|326:146|309:173,1,55.99999829102,6|0,0:0|2:0,0:0:0:0:
245,143,67364,2,0,P|268:199|295:216,1,55.99999829102,6|0,0:0|2:0,0:0:0:0:
375,260,67531,6,0,L|386:197,1,55.99999829102,2|0,3:1|2:0,0:0:0:0:
319,36,67698,2,0,B|340:68|340:68|330:156,1,111.999996582,10|4,0:0|0:0,0:0:0:0:
289,367,68031,2,0,B|268:343|266:304|289:272|289:272|246:282|219:256,1,167.9999948731,0|0,3:0|2:0,0:0:0:0:
200,240,68364,6,0,P|186:216|182:183,1,55.99999829102,10|0,0:3|2:0,0:0:0:0:
136,65,68531,2,0,P|122:89|118:122,1,55.99999829102,2|0,0:3|2:0,0:0:0:0:
34,208,68698,1,2,0:3:0:0:
47,205,68781,1,2,0:3:0:0:
61,203,68864,1,2,3:0:0:0:
75,201,68947,1,2,0:3:0:0:
90,200,69031,6,0,P|76:224|72:257,1,55.99999829102,10|0,0:3|2:0,0:0:0:0:
26,375,69198,2,0,P|12:351|8:318,1,55.99999829102,2|0,0:3|2:0,0:0:0:0:
51,121,69364,5,0,3:0:0:0:
73,112,69448,1,0,0:0:0:0:
97,109,69531,1,0,0:0:0:0:
120,114,69614,1,0,0:0:0:0:
141,125,69698,1,0,0:0:0:0:
159,141,69781,1,0,0:0:0:0:
171,162,69864,1,0,0:0:0:0:
176,185,69948,1,0,0:0:0:0:
172,209,70031,6,8,P|171:245|183:275,1,55.99999829102,8|8,0:3|0:3,0:0:0:0:
346,280,70198,1,8,0:3:0:0:
385,242,70281,1,8,0:3:0:0:
387,187,70364,1,4,0:3:0:0:
350,147,70448,1,4,0:3:0:0:
296,144,70531,1,4,0:3:0:0:
255,181,70614,1,4,0:3:0:0:
251,235,70698,6,0,B|318:224|318:224|429:236,1,167.9999948731,4|0,3:2|2:0,0:0:0:0:
451,239,71031,1,8,0:0:0:0:
321,328,71198,6,0,P|328:301|346:280,1,55.99999829102,6|0,0:0|2:0,0:0:0:0:
320,212,71364,2,0,P|347:205|374:211,1,55.99999829102,6|0,0:0|2:0,0:0:0:0:
419,154,71531,2,0,P|437:174|446:200,1,55.99999829102,2|0,3:1|2:0,0:0:0:0:
484,360,71698,5,10,0:0:0:0:
252,272,71864,1,6,0:0:0:0:
411,100,72031,2,0,P|464:145|467:250,1,167.9999948731,0|0,3:0|2:0,0:0:0:0:
462,270,72364,1,8,0:0:0:0:
215,273,72531,6,0,L|152:277,1,55.99999829102,6|0,0:0|2:0,0:0:0:0:
84,247,72698,2,0,P|76:290|85:317,1,55.99999829102,6|0,0:0|2:0,0:0:0:0:
206,357,72864,6,0,L|143:361,1,55.99999829102,2|0,3:1|2:0,0:0:0:0:
20,195,73031,2,0,P|67:165|131:175,1,111.999996582,10|4,0:0|0:0,0:0:0:0:
334,306,73364,2,0,B|315:320|291:306|291:306|307:260|292:220|254:199,1,167.9999948731,2|0,3:1|2:0,0:0:0:0:
233,177,73698,6,0,L|221:116,1,55.99999829102,10|0,0:3|2:0,0:0:0:0:
351,8,73864,2,0,L|339:69,1,55.99999829102,2|0,0:3|2:0,0:0:0:0:
349,166,74031,5,2,0:3:0:0:
372,170,74114,1,2,0:3:0:0:
426,227,74198,5,2,3:0:0:0:
451,233,74281,1,2,0:3:0:0:
507,182,74364,6,0,L|496:236,1,55.99999829102,10|0,0:3|2:0,0:0:0:0:
334,306,74531,2,0,L|323:251,1,55.99999829102,2|0,0:3|2:0,0:0:0:0:
292,63,74698,6,0,P|334:75|356:144,1,111.999996582,2|2,3:1|0:2,0:0:0:0:
349,166,74948,1,0,0:0:0:0:
349,166,75031,1,8,0:0:0:0:
446,3,75198,6,0,P|488:15|510:84,1,111.999996582,2|2,0:1|0:2,0:0:0:0:
503,106,75448,1,0,0:0:0:0:
503,106,75531,2,0,L|434:103,1,55.99999829102,0|0,3:0|2:0,0:0:0:0:
231,20,75698,2,0,P|248:107|190:202,1,167.9999948731,10|0,0:1|2:0,0:0:0:0:
168,94,76031,6,0,B|171:118|145:137|145:137|99:141|64:99|85:43,1,167.9999948731,0|0,3:0|2:0,0:0:0:0:
89,28,76364,1,8,0:0:0:0:
84,212,76531,6,0,B|116:222|116:222|157:216,1,55.99999829102,6|0,0:0|2:0,0:0:0:0:
208,261,76698,2,0,P|221:232|219:199,1,55.99999829102,6|0,0:0|2:0,0:0:0:0:
14,169,76864,2,0,P|1:198|3:231,1,55.99999829102,2|0,3:1|2:0,0:0:0:0:
217,177,77031,5,10,0:0:0:0:
9,251,77198,1,6,0:0:0:0:
165,331,77364,2,0,B|239:376|253:292|338:341,1,167.9999948731,0|0,3:0|2:0,0:0:0:0:
355,350,77698,1,8,0:0:0:0:
228,210,77864,6,0,P|214:233|208:261,1,55.99999829102,6|0,0:0|2:0,0:0:0:0:
437,345,78031,2,0,P|430:317|416:294,1,55.99999829102,6|0,0:0|2:0,0:0:0:0:
318,175,78198,6,0,L|310:238,1,55.99999829102,2|0,3:1|2:0,0:0:0:0:
355,350,78364,2,0,B|382:326|382:326|392:235,1,111.999996582,10|4,0:0|0:0,0:0:0:0:
486,155,78698,2,0,B|487:101|441:73|441:73|448:46|448:46|470:52|470:52|457:72,1,167.9999948731,2|0,3:1|2:0,0:0:0:0:
400,150,79031,6,0,P|365:159|312:147,1,55.99999829102,10|0,0:3|2:0,0:0:0:0:
259,115,79198,2,0,P|231:115|204:123,1,55.99999829102,2|0,0:3|2:0,0:0:0:0:
63,183,79364,5,2,0:3:0:0:
73,203,79448,1,2,0:3:0:0:
29,269,79531,5,2,3:0:0:0:
19,289,79614,1,2,0:3:0:0:
46,361,79698,6,0,P|81:370|134:358,1,55.99999829102,10|0,0:3|2:0,0:0:0:0:
187,326,79864,2,0,P|215:326|242:334,1,55.99999829102,2|0,0:3|2:0,0:0:0:0:
413,348,80031,6,0,L|405:231,1,111.999996582,2|2,3:1|0:3,0:0:0:0:
400,150,80281,1,0,0:0:0:0:
400,150,80364,2,0,L|344:153,1,55.99999829102,8|0,0:0|2:0,0:0:0:0:
174,128,80531,6,0,L|182:245,1,111.999996582,2|2,0:0|0:3,0:0:0:0:
187,326,80781,1,0,0:0:0:0:
187,326,80864,2,0,L|242:322,1,55.99999829102,0|0,3:0|2:0,0:0:0:0:
462,205,81031,6,0,B|488:152|488:152|459:88,1,111.999996582,10|0,0:0|0:0,0:0:0:0:
451,80,81281,1,0,0:0:0:0:
485,10,81364,6,0,B|440:-8|404:17|404:17|359:8|359:8|314:21,1,167.9999948731,4|0,3:2|2:0,0:0:0:0:
293,34,81698,1,8,0:0:0:0:
269,242,81864,6,0,L|271:186,1,55.99999829102,6|0,0:0|2:0,0:0:0:0:
191,141,82031,2,0,L|178:86,1,55.99999829102,6|0,0:0|2:0,0:0:0:0:
90,63,82198,2,0,L|63:13,1,55.99999829102,2|0,3:1|2:0,0:0:0:0:
182,231,82364,5,10,0:0:0:0:
75,348,82531,1,6,0:0:0:0:
208,308,82698,2,0,B|155:309|155:309|99:270|99:270|40:272,1,167.9999948731,0|0,3:0|2:0,0:0:0:0:
18,272,83031,1,8,0:0:0:0:
140,188,83198,6,0,P|135:134|116:111,1,55.99999829102,6|0,0:0|2:0,0:0:0:0:
38,26,83364,2,0,L|32:81,1,55.99999829102,6|0,0:0|2:0,0:0:0:0:
0,164,83531,6,0,L|55:170,1,55.99999829102,2|0,3:1|2:0,0:0:0:0:
175,266,83698,2,0,P|216:230|220:161,1,111.999996582,10|4,0:0|0:0,0:0:0:0:
148,40,84031,2,0,B|183:16|183:16|243:64|298:31,1,167.9999948731,2|0,3:1|2:0,0:0:0:0:
372,3,84364,6,0,P|378:32|364:73,1,55.99999829102,10|0,0:3|2:0,0:0:0:0:
415,234,84531,2,0,P|409:206|414:179,1,55.99999829102,2|0,0:3|0:0,0:0:0:0:
450,117,84698,5,2,0:3:0:0:
428,107,84781,1,2,0:3:0:0:
359,130,84864,5,2,3:0:0:0:
337,120,84948,1,2,0:3:0:0:
259,131,85031,6,0,P|265:160|251:201,1,55.99999829102,10|0,0:3|2:0,0:0:0:0:
302,362,85198,2,0,P|296:334|301:307,1,55.99999829102,2|0,0:3|2:0,0:0:0:0:
507,247,85364,6,0,B|515:238|515:238|415:234,1,111.999996582,2|2,3:1|0:2,0:0:0:0:
386,251,85614,1,0,0:0:0:0:
386,251,85698,1,8,0:0:0:0:
477,359,85864,6,0,B|485:350|485:350|385:346,1,111.999996582,2|2,0:1|0:2,0:0:0:0:
357,364,86114,1,0,0:0:0:0:
357,364,86198,2,0,L|274:361,1,55.99999829102,0|0,3:0|2:0,0:0:0:0:
209,297,86364,2,0,P|149:325|21:288,1,167.9999948731,10|0,0:1|2:0,0:0:0:0:
20,332,86698,6,0,B|-2:306|-2:306|34:165,1,167.9999948731,0|0,3:0|2:0,0:0:0:0:
41,148,87031,1,8,0:0:0:0:
153,235,87198,6,0,P|117:248|85:230,1,55.99999829102,6|0,0:0|2:0,0:0:0:0:
193,111,87364,2,0,P|218:101|244:110,1,55.99999829102,6|0,0:0|2:0,0:0:0:0:
315,246,87531,2,0,P|287:250|263:237,1,55.99999829102,2|0,3:1|2:0,0:0:0:0:
383,74,87698,5,10,0:0:0:0:
468,251,87864,1,6,0:0:0:0:
512,41,88031,2,0,B|478:36|478:36|444:56|444:56|332:38,1,167.9999948731,0|0,3:0|2:0,0:0:0:0:
318,36,88364,1,8,0:0:0:0:
124,88,88531,6,0,L|136:155,1,55.99999829102,6|0,0:0|2:0,0:0:0:0:
219,285,88698,2,0,L|231:218,1,55.99999829102,6|0,0:0|2:0,0:0:0:0:
312,117,88864,6,0,P|278:137|235:137,1,55.99999829102,2|0,3:1|2:0,0:0:0:0:
64,33,89031,2,0,P|98:13|177:28,1,111.999996582,10|4,0:0|0:0,0:0:0:0:
189,163,89364,2,0,B|232:150|208:122|169:114|190:197|91:185|53:131,1,167.9999948731,0|0,3:0|2:0,0:0:0:0:
53,137,89698,6,0,L|47:78,1,55.99999829102,2|0,0:3|2:0,0:0:0:0:
26,226,89864,2,0,L|21:171,1,55.99999829102,2|0,0:3|2:0,0:0:0:0:
179,289,90031,1,2,0:3:0:0:
191,282,90114,1,2,0:3:0:0:
204,276,90197,1,2,3:0:0:0:
216,270,90280,1,2,0:3:0:0:
230,265,90364,6,0,L|285:260,1,55.99999829102,2|0,0:3|2:0,0:0:0:0:
318,291,90530,2,0,L|373:285,1,55.99999829102,2|0,0:3|2:0,0:0:0:0:
503,353,90698,5,0,3:0:0:0:
509,331,90781,1,0,1:0:0:0:
510,307,90864,1,0,1:0:0:0:
506,284,90948,1,0,1:0:0:0:
497,263,91031,1,0,1:0:0:0:
483,244,91114,1,0,1:0:0:0:
464,229,91198,1,0,1:0:0:0:
443,219,91281,1,0,1:0:0:0:
420,214,91364,6,8,L|361:218,1,55.99999829102,8|8,0:3|0:3,0:0:0:0:
318,291,91531,1,8,0:3:0:0:
282,249,91614,1,8,0:3:0:0:
280,194,91698,1,4,0:3:0:0:
313,150,91781,1,4,0:3:0:0:
365,127,91864,1,4,0:3:0:0:
396,80,91948,1,4,0:3:0:0:
390,24,92031,6,0,L|256:19,1,128,6|0,3:2|0:0,0:0:0:0:
186,53,92531,1,2,0:0:0:0:
231,190,92698,2,0,P|238:152|236:127,2,64,8|0|2,0:0|0:0|0:0,0:0:0:0:
165,236,93198,1,0,0:0:0:0:
165,236,93364,6,0,P|128:248|107:263,1,64,2|0,3:2|0:0,0:0:0:0:
238,270,93698,2,0,P|267:295|290:305,1,64,0|2,0:0|0:0,0:0:0:0:
366,250,94031,2,0,P|431:237|494:266,1,128,8|2,0:0|0:0,0:0:0:0:
488,235,94698,6,0,P|429:212|368:226,1,128,2|0,3:2|0:0,0:0:0:0:
321,288,95198,1,2,0:0:0:0:
204,203,95364,1,8,0:0:0:0:
163,268,95531,2,0,L|171:341,2,64,0|2|0,0:0|0:0|0:0,0:0:0:0:
70,210,96031,6,0,P|81:173|74:146,1,64,2|0,3:2|0:0,0:0:0:0:
35,8,96364,2,0,P|24:45|31:72,1,64,0|2,0:0|0:0,0:0:0:0:
149,104,96698,1,8,0:0:0:0:
104,42,96864,1,0,0:0:0:0:
224,77,97031,2,0,P|261:88|288:81,1,64,2|0,0:0|0:0,0:0:0:0:
360,36,97364,1,2,3:2:0:0:
361,192,97531,6,0,B|372:168|372:168|361:61,1,128,0|2,0:0|0:0,0:0:0:0:
227,174,98031,1,8,0:0:0:0:
441,220,98364,1,2,0:0:0:0:
192,251,98698,6,0,P|197:209|138:146,1,128,2|0,3:2|0:0,0:0:0:0:
55,233,99198,2,0,P|93:221|130:225,1,64,2|8,0:0|0:0,0:0:0:0:
148,326,99531,1,0,0:0:0:0:
148,326,99698,2,0,P|186:338|223:334,1,64,2|0,0:0|0:0,0:0:0:0:
304,374,100031,6,0,L|315:303,1,64,2|0,3:2|0:0,0:0:0:0:
385,384,100364,2,0,L|396:313,1,64,0|2,0:0|0:0,0:0:0:0:
366,212,100698,6,0,P|328:211|296:233,1,64,8|0,0:0|0:0,0:0:0:0:
452,268,101031,2,0,P|490:269|522:247,1,64,2|0,0:0|0:0,0:0:0:0:
475,128,101364,6,0,L|463:198,1,64,2|0,3:2|0:0,0:0:0:0:
394,118,101697,2,0,L|382:188,1,64,0|2,0:0|0:0,0:0:0:0:
282,238,102031,6,0,P|306:251|353:247,1,64,8|0,0:0|0:0,0:0:0:0:
292,138,102364,2,0,P|268:125|221:129,1,64,2|0,0:0|0:0,0:0:0:0:
172,71,102698,6,0,B|189:112|189:112|180:197,1,128,6|0,3:2|0:0,0:0:0:0:
171,274,103198,1,2,0:0:0:0:
104,129,103364,2,0,L|32:123,2,64,8|0|2,0:0|0:0|0:0,0:0:0:0:
172,71,103864,1,0,0:0:0:0:
172,71,104031,6,0,L|244:65,1,64,2|0,3:2|0:0,0:0:0:0:
382,30,104364,2,0,L|318:24,1,64,0|2,0:0|0:0,0:0:0:0:
470,1,104698,2,0,P|492:35|468:119,1,128,8|2,0:0|0:0,0:0:0:0:
446,93,105364,6,0,P|468:127|444:211,1,128,2|0,3:2|0:0,0:0:0:0:
411,277,105864,1,2,0:0:0:0:
391,151,106031,1,8,0:0:0:0:
318,175,106198,2,0,L|304:108,2,64,0|2|0,0:0|0:0|0:0,0:0:0:0:
301,275,106698,6,0,P|343:266|374:275,1,64,2|0,3:2|0:0,0:0:0:0:
503,363,107031,2,0,P|461:372|430:363,1,64,0|2,0:0|0:0,0:0:0:0:
338,345,107364,1,8,0:0:0:0:
265,376,107531,1,0,0:0:0:0:
227,251,107698,2,0,P|185:242|154:251,1,64,2|0,0:0|0:0,0:0:0:0:
83,306,108031,1,2,3:2:0:0:
77,149,108198,6,0,B|104:214|55:214|78:283,1,128,0|2,0:0|0:0,0:0:0:0:
123,347,108698,1,8,0:0:0:0:
0,184,109031,1,2,0:0:0:0:
163,145,109364,6,0,P|217:116|285:136,1,128,2|0,3:2|0:0,0:0:0:0:
352,209,109864,2,0,L|347:287,1,64,2|8,0:0|0:0,0:0:0:0:
452,312,110198,1,0,0:0:0:0:
452,312,110364,2,0,L|447:248,1,64,2|0,0:0|0:0,0:0:0:0:
476,143,110698,6,0,P|434:161|410:160,1,64,2|0,3:2|0:0,0:0:0:0:
352,209,111031,2,0,P|334:167|335:143,1,64,0|2,0:0|0:0,0:0:0:0:
425,79,111364,6,0,L|362:66,1,64,8|0,0:0|0:0,0:0:0:0:
274,41,111698,2,0,L|211:28,1,64,2|0,0:0|0:0,0:0:0:0:
129,35,112031,6,0,P|138:69|165:94,1,64,2|0,3:2|0:0,0:0:0:0:
46,134,112364,2,0,P|36:168|9:193,1,64,0|2,0:0|0:0,0:0:0:0:
143,230,112698,6,0,L|138:296,1,64,8|0,0:0|0:0,0:0:0:0:
18,371,113031,2,0,L|23:305,1,64,2|0,0:0|0:0,0:0:0:0:
32,221,113364,5,4,0:0:0:0:
32,221,113531,1,2,0:0:0:0:
118,249,113781,1,2,0:0:0:0:
170,176,114031,1,2,0:0:0:0:
118,104,114281,1,2,0:0:0:0:
32,131,114531,1,2,0:0:0:0:
252,345,114864,5,2,0:0:0:0:
375,302,115114,1,2,0:0:0:0:
490,357,115364,1,2,0:0:0:0:
368,384,115614,1,2,0:0:0:0:
252,345,115864,1,2,0:0:0:0:
463,112,116198,5,2,0:0:0:0:
436,26,116448,1,2,0:0:0:0:
351,52,116698,1,2,0:0:0:0:
377,138,116948,1,2,0:0:0:0:
463,112,117198,1,2,0:0:0:0:
151,24,117531,5,2,0:0:0:0:
190,100,117781,1,2,0:0:0:0:
183,187,118031,1,2,0:0:0:0:
132,257,118281,1,2,0:0:0:0:
50,289,118531,1,2,0:0:0:0:
427,356,118864,5,2,0:0:0:0:
341,239,119114,1,2,0:0:0:0:
341,384,119364,1,2,0:0:0:0:
427,266,119614,1,2,0:0:0:0:
289,311,119864,1,2,0:0:0:0:
28,143,120198,5,2,0:0:0:0:
123,129,120448,1,2,0:0:0:0:
218,115,120698,1,2,0:0:0:0:
313,102,120948,1,2,0:0:0:0:
328,114,121031,2,0,L|338:188,1,64,0|2,0:0|0:0,0:0:0:0:
349,256,121364,5,0,0:0:0:0:
349,256,121531,1,2,0:0:0:0:
238,296,121781,1,2,0:0:0:0:
126,260,122031,1,2,0:0:0:0:
59,163,122281,1,2,0:0:0:0:
65,46,122531,1,2,0:0:0:0:
178,99,122864,5,2,0:0:0:0:
162,101,123114,1,2,0:0:0:0:
146,103,123364,1,2,0:0:0:0:
130,106,123614,1,2,0:0:0:0:
114,108,123864,1,2,0:0:0:0:
32,73,124031,6,0,B|8:88|8:88|-3:119|3:167|48:195,1,128,4|0,3:2|0:0,0:0:0:0:
118,191,124531,1,0,0:0:0:0:
14,262,124698,2,0,B|76:239|77:288|141:270,1,128,0|0,3:0|0:0,0:0:0:0:
202,222,125198,1,0,0:0:0:0:
268,342,125364,6,0,L|264:264,1,64,0|0,3:0|0:0,0:0:0:0:
339,217,125698,2,0,L|342:280,1,64,0|0,0:0|0:0,0:0:0:0:
440,369,126031,2,0,B|422:330|422:330|417:235,1,128,0|0,3:0|0:0,0:0:0:0:
418,163,126531,1,0,0:0:0:0:
502,311,126698,6,0,L|494:163,1,128,0|0,3:0|0:0,0:0:0:0:
494,101,127198,1,0,0:0:0:0:
328,46,127364,2,0,P|378:20|462:54,1,128,0|0,3:0|0:0,0:0:0:0:
391,100,127864,1,0,0:0:0:0:
314,220,128031,6,0,L|243:217,1,64,0|0,3:0|0:0,0:0:0:0:
191,73,128364,2,0,L|254:75,1,64,0|0,0:0|0:0,0:0:0:0:
165,160,128698,2,0,P|166:116|94:65,1,128,0|0,3:0|0:0,0:0:0:0:
24,63,129198,1,0,0:0:0:0:
94,255,129364,6,0,L|179:245,1,80,0|0,3:0|0:0,0:0:0:0:
395,280,129698,2,0,L|310:270,1,80,0|0,3:0|0:0,0:0:0:0:
166,110,130031,2,0,P|155:70|157:28,1,80,0|0,3:0|0:0,0:0:0:0:
358,94,130364,2,0,P|359:133|348:172,1,80,0|0,3:0|0:0,0:0:0:0:
91,332,130698,2,0,B|82:295|82:295|100:229,1,80,0|0,3:0|0:0,0:0:0:0:
418,254,131031,2,0,B|430:295|430:295|421:332,1,80,0|0,3:0|0:0,0:0:0:0:
130,181,131364,2,0,B|214:220|206:145|315:201,1,160,0|0,3:0|3:0,0:0:0:0:
348,254,131864,1,0,0:0:0:0:
480,52,132031,6,0,P|420:28|353:34,1,95.9999970703126,0|0,3:0|0:0,0:0:0:0:
412,197,132364,2,0,P|459:192|502:171,1,95.9999970703126,0|0,3:0|0:0,0:0:0:0:
340,114,132698,2,0,L|231:103,1,95.9999970703126,0|0,3:0|0:0,0:0:0:0:
99,281,133031,2,0,L|208:270,1,95.9999970703126,0|0,3:0|0:0,0:0:0:0:
44,120,133364,6,0,B|28:162|28:162|41:229,1,95.9999970703126,0|0,3:0|0:0,0:0:0:0:
277,384,133698,2,0,B|293:342|293:342|280:275,1,95.9999970703126,0|0,3:0|0:0,0:0:0:0:
204,30,134031,2,0,B|191:94|191:94|206:141|206:141|189:228,1,191.999994140625,0|0,3:0|3:0,0:0:0:0:
99,281,134531,1,0,0:0:0:0:
429,353,134698,6,0,L|482:340,1,40,12|0,3:2|0:0,0:0:0:0:
346,270,135031,2,0,L|359:323,1,40,8|0,0:0|0:0,0:0:0:0:
429,187,135364,2,0,L|376:200,1,40,8|0,0:0|0:0,0:0:0:0:
512,270,135698,2,0,L|499:217,1,40,8|0,0:0|0:0,0:0:0:0:
369,24,136031,6,0,L|322:16,1,40,8|0,0:0|0:0,0:0:0:0:
246,209,136364,2,0,L|296:201,1,40,8|0,0:0|0:0,0:0:0:0:
169,70,136698,2,0,L|122:62,1,40,8|0,0:0|0:0,0:0:0:0:
46,255,137031,2,0,L|96:247,1,40,8|0,0:0|0:0,0:0:0:0:
381,294,137364,6,0,L|377:346,1,47.9999985351563,8|0,0:0|0:0,0:0:0:0:
149,155,137698,2,0,L|153:207,1,47.9999985351563,8|0,0:0|0:0,0:0:0:0:
448,72,138031,2,0,L|444:124,1,47.9999985351563,8|0,0:0|0:0,0:0:0:0:
80,36,138364,2,0,L|84:88,1,47.9999985351563,8|0,0:0|0:0,0:0:0:0:
194,321,138698,6,0,L|197:264,1,47.9999985351563,8|0,0:0|0:0,0:0:0:0:
56,157,139031,2,0,L|64:230,1,47.9999985351563,8|0,0:0|0:0,0:0:0:0:
349,199,139364,2,0,L|346:142,1,47.9999985351563,8|0,0:0|0:0,0:0:0:0:
487,35,139697,2,0,L|479:108,1,47.9999985351563,8|0,0:0|0:0,0:0:0:0:
444,286,140031,6,0,L|393:275,1,40,8|0,3:1|0:0,0:0:0:0:
339,336,140198,2,0,L|288:347,1,40,8|0,0:0|0:0,0:0:0:0:
236,238,140364,2,0,P|245:258|256:293,1,40,8|0,0:0|0:0,0:0:0:0:
167,367,140531,2,0,P|173:348|182:329,1,40,8|0,0:0|0:0,0:0:0:0:
325,190,140698,6,0,L|322:233,1,40,8|0,0:0|0:0,0:0:0:0:
164,140,140864,2,0,L|167:183,1,40,8|0,0:0|0:0,0:0:0:0:
381,88,141031,2,0,L|378:131,1,40,8|0,0:0|0:0,0:0:0:0:
117,36,141198,2,0,L|120:79,1,40,8|0,0:0|0:0,0:0:0:0:
12,285,141364,6,0,P|43:270|86:274,1,55.9999982910157,8|0,0:0|0:0,0:0:0:0:
173,274,141531,2,0,L|182:331,1,55.9999982910157,8|0,0:0|0:0,0:0:0:0:
331,203,141698,2,0,P|362:218|405:214,1,55.9999982910157,8|0,0:0|0:0,0:0:0:0:
492,214,141865,2,0,L|501:157,1,55.9999982910157,8|0,0:0|0:0,0:0:0:0:
374,72,142031,6,0,L|379:141,1,55.9999982910157,8|0,0:0|0:0,0:0:0:0:
188,186,142198,2,0,L|192:130,1,55.9999982910157,8|0,0:0|0:0,0:0:0:0:
274,333,142364,2,0,P|288:357|295:385,1,55.9999982910157,8|0,0:0|0:0,0:0:0:0:
29,293,142531,2,0,P|35:265|49:241,1,55.9999982910157,8|0,0:0|0:0,0:0:0:0:
369,312,142698,5,0,3:0:0:0:
381,299,142781,1,0,1:0:0:0:
391,284,142865,1,0,1:0:0:0:
397,267,142948,1,0,1:0:0:0:
401,249,143031,1,0,1:0:0:0:
401,231,143115,1,0,1:0:0:0:
397,214,143198,1,0,1:0:0:0:
391,197,143281,1,0,1:0:0:0:
382,181,143365,1,0,1:0:0:0:
369,168,143448,1,0,1:0:0:0:
355,157,143531,1,0,1:0:0:0:
339,149,143615,1,0,1:0:0:0:
322,144,143698,1,0,1:0:0:0:
304,143,143781,1,0,1:0:0:0:
286,145,143865,1,0,1:0:0:0:
269,150,143948,1,0,1:0:0:0:
253,158,144031,6,0,L|205:153,16,32,0|0|0|0|0|0|0|0|0|0|0|0|0|0|0|0|8,0:0|0:0|0:0|0:0|0:0|0:0|0:0|0:0|0:0|0:0|0:0|0:0|0:0|0:0|0:0|0:0|0:3,0:0:0:0:
214,70,144781,1,8,0:3:0:0:
155,46,144864,1,8,0:3:0:0:
97,69,144947,1,8,0:3:0:0:
69,125,145030,1,4,0:3:0:0:
87,185,145114,1,4,0:3:0:0:
141,217,145197,1,4,0:3:0:0:
164,277,145281,1,4,0:3:0:0:
80,347,145364,6,2,L|80:275,1,71.9999978027344,2|2,3:1|0:0,0:0:0:0:
245,222,145531,2,0,B|270:253|270:253|270:365,1,143.9999956055,2|8,0:0|0:0,0:0:0:0:
26,178,145864,2,0,P|44:142|83:121,1,71.99999780273,2|0,0:0|2:0,0:0:0:0:
174,177,146031,6,0,B|247:208|250:146|325:186,1,143.9999956055,2|0,3:1|0:0,0:0:0:0:
380,240,146281,1,2,0:0:0:0:
380,240,146364,1,8,0:0:0:0:
417,95,146531,1,2,0:0:0:0:
512,312,146698,6,0,L|432:294,1,71.99999780273,0|0,3:0|0:0,0:0:0:0:
397,167,146864,1,0,0:0:0:0:
380,240,146948,1,0,0:0:0:0:
363,313,147032,2,0,B|294:298|294:298|259:238|259:238|189:211,1,215.9999934082,10|0,0:0|2:0,0:0:0:0:
110,173,147364,6,0,P|101:202|127:271,1,71.99999780273,2|0,3:1|2:0,0:0:0:0:
183,384,147531,2,0,P|192:355|166:286,1,71.99999780273,2|0,0:0|2:0,0:0:0:0:
142,95,147698,1,10,0:0:0:0:
110,90,147781,1,0,0:0:0:0:
79,97,147865,1,2,0:0:0:0:
193,165,148031,5,2,3:1:0:0:
262,156,148114,1,2,0:0:0:0:
332,147,148197,1,2,0:0:0:0:
287,16,148364,1,8,0:0:0:0:
415,172,148531,2,0,P|391:214|342:227,1,71.99999780273,2|0,0:0|2:0,0:0:0:0:
267,376,148698,6,0,B|248:311|248:311|285:243,1,143.9999956055,2|0,3:1|0:0,0:0:0:0:
262,156,148948,1,2,0:0:0:0:
262,156,149031,2,0,B|269:143|269:143|119:160,1,143.9999956055,8|2,0:0|0:0,0:0:0:0:
16,239,149364,5,0,3:0:0:0:
154,61,149531,2,0,L|145:142,1,71.99999780273,2|0,0:0|2:0,0:0:0:0:
24,310,149698,2,0,L|15:230,1,71.99999780273,10|0,0:0|2:0,0:0:0:0:
0,117,149864,5,0,3:0:0:0:
147,133,150031,2,0,L|66:124,1,71.99999780273,2|0,0:0|2:0,0:0:0:0:
16,239,150198,2,0,L|96:230,1,71.99999780273,2|0,3:1|2:0,0:0:0:0:
213,279,150364,6,2,B|203:213|203:213|236:147|236:147|224:60,1,215.9999934082,8|0,0:0|2:0,0:0:0:0:
297,17,150698,6,0,L|310:105,1,71.99999780273,2|2,3:1|0:0,0:0:0:0:
291,232,150864,2,0,B|330:248|330:248|449:210,1,143.9999956055,2|8,0:0|0:0,0:0:0:0:
483,76,151198,2,0,L|467:165,1,71.99999780273,2|0,0:0|2:0,0:0:0:0:
433,333,151364,6,0,B|439:298|439:298|313:337,1,143.9999956055,2|0,3:1|0:0,0:0:0:0:
261,359,151614,1,2,0:0:0:0:
261,359,151698,1,8,0:0:0:0:
168,169,151864,1,2,0:0:0:0:
291,232,152031,6,0,L|206:239,1,71.99999780273,0|0,3:0|2:0,0:0:0:0:
22,248,152197,1,0,0:0:0:0:
0,181,152281,1,0,0:0:0:0:
24,114,152364,2,0,B|98:145|98:145|196:104|196:104|140:79,1,215.9999934082,10|0,0:0|2:0,0:0:0:0:
78,52,152698,6,0,L|145:80,1,71.99999780273,2|0,3:1|2:0,0:0:0:0:
196,191,152864,2,0,L|263:163,1,71.99999780273,2|0,0:0|2:0,0:0:0:0:
338,50,153031,6,0,L|271:78,1,71.99999780273,10|0,0:0|2:0,0:0:0:0:
379,216,153197,2,0,L|446:244,1,71.99999780273,2|0,0:0|2:0,0:0:0:0:
512,0,153364,5,2,3:1:0:0:
508,71,153447,1,2,0:0:0:0:
504,143,153530,1,2,0:0:0:0:
338,50,153698,1,8,0:0:0:0:
445,188,153864,2,0,L|378:216,1,71.99999780273,2|0,0:0|2:0,0:0:0:0:
246,241,154031,6,0,B|207:192|207:192|90:179,1,143.9999956055,2|0,3:1|0:0,0:0:0:0:
18,232,154281,1,2,0:0:0:0:
18,232,154364,2,0,L|31:80,1,143.9999956055,8|2,0:0|0:0,0:0:0:0:
111,325,154698,6,0,B|151:364|201:352|201:352|211:326|194:302,1,143.9999956055,0|0,3:0|2:0,0:0:0:0:
246,241,154948,2,0,P|279:292|275:382,1,143.9999956055,8|0,0:0|2:0,0:0:0:0:
368,368,155198,2,0,B|397:384|397:384|518:369,1,143.9999956055,4|0,3:0|2:0,0:0:0:0:
370,333,155448,2,0,B|399:349|399:349|520:334,1,143.9999956055,4|0,3:0|2:0,0:0:0:0:
388,252,155698,5,10,0:0:0:0:
347,192,155781,1,2,0:0:0:0:
351,120,155864,1,2,0:0:0:0:
402,68,155948,1,0,0:0:0:0:
471,51,156031,6,0,L|482:137,1,71.9999978027344,2|2,3:1|0:0,0:0:0:0:
323,43,156198,2,0,B|334:19|334:19|206:27,1,143.9999956055,2|8,0:0|0:0,0:0:0:0:
73,198,156531,2,0,P|74:162|88:129,1,71.99999780273,2|0,0:0|2:0,0:0:0:0:
220,115,156698,6,0,B|248:160|248:160|229:277,1,143.9999956055,2|0,3:1|0:0,0:0:0:0:
223,341,156948,1,2,0:0:0:0:
223,341,157031,1,8,0:0:0:0:
155,178,157198,1,2,0:0:0:0:
302,307,157364,6,0,L|387:300,1,71.99999780273,0|0,3:0|2:0,0:0:0:0:
488,367,157531,1,0,0:0:0:0:
499,295,157614,1,0,0:0:0:0:
511,224,157698,2,0,B|477:190|423:202|423:202|399:220|399:220|340:232|304:182,1,215.9999934082,10|0,0:0|2:0,0:0:0:0:
237,172,158031,6,0,P|232:207|246:240,1,71.99999780273,2|0,3:1|2:0,0:0:0:0:
460,348,158198,2,0,P|465:312|451:280,1,71.99999780273,2|0,0:0|2:0,0:0:0:0:
295,343,158364,1,10,0:0:0:0:
259,342,158447,1,0,0:0:0:0:
223,341,158531,1,2,0:0:0:0:
374,142,158698,5,2,3:1:0:0:
372,213,158781,1,2,0:0:0:0:
371,285,158864,1,2,0:0:0:0:
237,172,159031,1,8,0:0:0:0:
415,75,159198,2,0,L|411:168,1,71.99999780273,2|0,0:0|2:0,0:0:0:0:
477,281,159364,6,0,B|447:246|447:246|450:131,1,143.9999956055,2|0,3:1|0:0,0:0:0:0:
497,63,159614,1,2,0:0:0:0:
497,63,159698,2,0,P|434:-3|352:28,1,143.9999956055,8|2,0:0|0:0,0:0:0:0:
230,55,160031,5,0,3:0:0:0:
415,75,160198,2,0,L|299:66,1,71.99999780273,2|0,0:0|2:0,0:0:0:0:
237,172,160364,2,0,L|353:163,1,71.99999780273,10|0,0:0|2:0,0:0:0:0:
422,152,160531,5,0,3:0:0:0:
434,310,160698,2,0,L|428:238,1,71.99999780273,2|0,0:0|2:0,0:0:0:0:
309,166,160864,2,0,L|303:237,1,71.99999780273,2|0,3:1|2:0,0:0:0:0:
283,361,161031,6,0,B|296:333|341:312|341:312|291:338|228:312|223:245,1,215.9999934082,8|0,0:0|2:0,0:0:0:0:
216,188,161364,5,2,3:1:0:0:
216,188,161448,1,2,0:1:0:0:
216,188,161531,1,2,0:1:0:0:
134,182,161698,6,0,P|137:154|167:130,1,47.99999853516,4|0,0:1|0:0,0:0:0:0:
235,114,161864,2,0,P|209:103|173:119,1,47.99999853516,4|0,0:1|0:0,0:0:0:0:
106,160,162031,6,0,P|101:132|124:101,1,47.99999853516,12|0,0:1|0:0,0:0:0:0:
230,81,162197,2,0,P|207:64|169:70,1,47.99999853516,4|0,0:1|0:0,0:0:0:0:
73,147,162364,6,0,P|62:121|76:85,1,47.99999853516,4|0,0:1|0:0,0:0:0:0:
234,46,162530,2,0,P|216:24|178:19,1,47.99999853516,4|0,0:1|0:0,0:0:0:0:
81,27,162698,6,0,B|45:20|45:20|-17:71,1,95.99999707031,0|0,3:0|0:0,0:0:0:0:
0,189,163031,6,0,L|3:242,1,47.99999853516,4|0,0:1|0:0,0:0:0:0:
37,254,163198,2,0,L|53:304,1,47.99999853516,4|0,0:1|0:0,0:0:0:0:
122,223,163364,6,0,L|151:267,1,47.99999853516,12|0,0:1|0:0,0:0:0:0:
199,266,163531,2,0,L|238:301,1,47.99999853516,4|0,0:1|0:0,0:0:0:0:
257,197,163697,6,0,L|304:220,1,47.99999853516,4|0,0:1|0:0,0:0:0:0:
377,195,163864,2,0,L|428:205,1,47.99999853516,4|0,0:1|0:0,0:0:0:0:
367,79,164031,5,0,3:0:0:0:
355,69,164114,1,0,1:0:0:0:
341,62,164198,1,0,1:0:0:0:
326,58,164281,1,0,1:0:0:0:
310,57,164364,1,0,1:0:0:0:
294,60,164448,1,0,1:0:0:0:
279,65,164531,1,0,1:0:0:0:
266,73,164614,1,0,1:0:0:0:
254,83,164698,1,2,1:0:0:0:
244,95,164781,1,0,1:0:0:0:
237,109,164864,1,0,1:0:0:0:
233,125,164948,1,2,1:0:0:0:
232,140,165031,1,0,1:0:0:0:
234,156,165114,1,0,1:0:0:0:
239,171,165198,1,2,1:0:0:0:
246,184,165281,1,0,1:0:0:0:
257,197,165364,6,0,L|307:191,14,32,0|0|0|0|0|0|0|0|0|0|0|0|0|0|0,0:0|0:0|0:0|0:0|0:0|0:0|0:0|0:0|0:0|0:0|0:0|0:0|0:0|0:0|0:0,0:0:0:0:
175,284,166031,5,2,0:0:0:0:
246,278,166114,1,2,0:0:0:0:
318,273,166197,1,2,0:0:0:0:
512,302,166364,5,2,0:0:0:0:
451,271,166447,1,2,0:0:0:0:
412,211,166531,1,2,0:0:0:0:
409,140,166614,1,0,0:0:0:0:
444,78,166698,6,0,L|363:75,1,71.99999780273,2|2,3:1|0:0,0:0:0:0:
241,60,166864,2,0,B|268:114|268:114|257:198,1,143.9999956055,2|8,0:0|0:0,0:0:0:0:
79,384,167198,2,0,L|91:303,1,71.99999780273,0|0,0:0|0:0,0:0:0:0:
140,227,167364,6,0,P|204:209|279:258,1,143.9999956055,2|0,0:0|3:0,0:0:0:0:
335,313,167614,1,2,0:0:0:0:
335,313,167698,1,8,0:0:0:0:
192,324,167864,1,2,0:0:0:0:
397,371,168031,6,0,P|416:323|414:293,1,71.99999780273,0|0,3:0|2:0,0:0:0:0:
477,111,168198,1,0,0:0:0:0:
508,173,168281,1,0,0:0:0:0:
479,238,168364,2,0,B|363:173|370:281|265:214,1,215.9999934082,10|0,0:0|2:0,0:0:0:0:
322,80,168698,6,0,L|325:154,1,71.99999780273,2|0,0:0|2:0,0:0:0:0:
192,324,168864,2,0,L|195:250,1,71.99999780273,2|0,3:1|2:0,0:0:0:0:
109,97,169031,1,10,0:0:0:0:
158,77,169114,1,0,0:0:0:0:
211,86,169197,1,2,0:0:0:0:
15,176,169364,5,2,3:1:0:0:
17,104,169447,1,2,0:0:0:0:
20,32,169530,1,2,0:0:0:0:
256,17,169698,1,8,0:0:0:0:
167,166,169864,2,0,L|162:244,1,71.99999780273,2|0,0:0|2:0,0:0:0:0:
258,314,170031,6,0,B|217:304|217:304|184:326|152:331|111:304,1,143.9999956055,2|0,0:0|3:0,0:0:0:0:
87,224,170281,1,2,0:0:0:0:
87,224,170364,1,8,0:0:0:0:
253,213,170531,1,2,0:0:0:0:
158,77,170698,5,0,3:0:0:0:
360,20,170864,1,2,0:0:0:0:
360,20,170948,1,0,0:0:0:0:
360,20,171031,1,10,0:0:0:0:
369,223,171198,5,0,3:0:0:0:
167,166,171364,1,2,0:0:0:0:
167,166,171448,1,0,0:0:0:0:
167,166,171531,1,2,3:1:0:0:
424,79,171698,6,2,B|436:128|436:128|426:164|426:164|461:195|461:255|418:285,1,215.9999934082,8|0,0:0|2:0,0:0:0:0:
361,334,172031,6,0,B|331:321|331:321|265:325,1,71.99999780273,2|2,3:1|0:0,0:0:0:0:
143,255,172198,2,0,L|-11:261,1,143.9999956055,2|8,0:0|0:0,0:0:0:0:
173,363,172531,1,0,0:0:0:0:
231,200,172698,6,0,B|167:167|167:167|78:171,1,143.9999956055,2|0,0:0|3:0,0:0:0:0:
0,175,172948,1,2,0:0:0:0:
0,175,173031,1,8,0:0:0:0:
210,92,173198,1,2,0:0:0:0:
47,96,173364,6,0,L|135:93,1,71.99999780273,0|0,3:0|2:0,0:0:0:0:
259,18,173531,1,0,0:0:0:0:
290,80,173614,1,0,0:0:0:0:
356,106,173698,2,0,B|368:172|368:172|341:234|341:234|356:322,1,215.9999934082,10|0,0:0|2:0,0:0:0:0:
430,244,174031,6,0,L|508:237,1,71.99999780273,2|0,0:0|2:0,0:0:0:0:
280,161,174198,2,0,L|202:168,1,71.99999780273,2|0,3:1|2:0,0:0:0:0:
441,148,174364,6,0,L|519:141,1,71.99999780273,10|0,0:0|2:0,0:0:0:0:
268,256,174531,2,0,L|197:263,1,71.99999780273,2|0,0:0|2:0,0:0:0:0:
431,340,174698,5,2,3:1:0:0:
359,345,174781,1,2,0:0:0:0:
287,350,174864,1,2,0:0:0:0:
353,204,175031,1,8,0:0:0:0:
509,199,175198,2,0,B|517:232|517:232|498:288,1,71.99999780273,2|0,0:0|2:0,0:0:0:0:
431,340,175364,6,0,L|288:332,1,143.9999956055,2|0,0:0|3:0,0:0:0:0:
180,321,175614,1,2,0:0:0:0:
180,321,175698,1,8,0:0:0:0:
96,138,175864,1,2,0:0:0:0:
17,360,176031,5,0,3:0:0:0:
186,234,176197,1,2,0:0:0:0:
186,234,176281,1,0,0:0:0:0:
186,234,176364,1,10,0:0:0:0:
0,173,176531,1,0,3:0:0:0:
200,91,176698,5,2,0:0:0:0:
193,162,176781,1,2,0:0:0:0:
186,234,176864,1,2,3:1:0:0:
14,317,177031,5,10,0:0:0:0:
7,245,177114,1,2,0:0:0:0:
0,173,177197,1,2,0:0:0:0:
254,282,177364,6,0,L|345:292,1,71.99999780273,2|2,3:1|0:0,0:0:0:0:
444,367,177531,2,0,B|428:326|428:326|452:207,1,143.9999956055,2|8,0:0|0:0,0:0:0:0:
512,55,177864,2,0,L|421:65,1,71.99999780273,2|0,0:0|2:0,0:0:0:0:
200,91,178031,6,0,P|270:80|351:124,1,143.9999956055,2|0,0:0|3:0,0:0:0:0:
390,167,178281,1,2,0:0:0:0:
390,167,178364,1,8,0:0:0:0:
186,234,178531,1,2,0:0:0:0:
198,19,178698,6,0,L|200:91,1,71.99999780273,0|0,3:0|0:0,0:0:0:0:
263,219,178864,1,0,0:0:0:0:
246,289,178948,1,0,0:0:0:0:
180,321,179032,2,0,B|139:320|112:291|103:263|103:263|60:245|24:252|-8:293,1,215.9999934082,10|0,0:0|2:0,0:0:0:0:
0,368,179364,6,0,B|30:384|81:367,1,71.99999780273,2|0,0:0|2:0,0:0:0:0:
250,318,179531,2,0,B|220:334|169:317,1,71.99999780273,2|0,3:1|2:0,0:0:0:0:
53,167,179698,1,10,0:0:0:0:
99,164,179781,1,0,0:0:0:0:
147,160,179864,1,2,0:0:0:0:
342,32,180031,5,2,3:1:0:0:
270,26,180114,1,2,0:0:0:0:
198,19,180197,1,2,0:0:0:0:
148,243,180364,1,8,0:0:0:0:
382,280,180531,2,0,L|374:202,1,71.99999780273,2|0,0:0|2:0,0:0:0:0:
269,104,180698,6,0,L|107:120,1,143.9999956055,2|0,0:0|3:0,0:0:0:0:
53,167,180948,1,2,0:0:0:0:
53,167,181031,1,8,0:0:0:0:
124,11,181198,1,2,0:0:0:0:
276,190,181364,5,0,3:0:0:0:
342,32,181531,1,2,0:0:0:0:
342,32,181614,1,0,0:0:0:0:
342,32,181698,1,10,0:0:0:0:
499,190,181864,5,0,3:0:0:0:
269,104,182031,1,2,0:0:0:0:
269,104,182114,1,0,0:0:0:0:
269,104,182198,1,2,3:1:0:0:
461,110,182364,6,0,B|486:96|453:50|412:88|412:138|512:172|442:256,1,215.9999934082,8|0,0:0|2:0,0:0:0:0:
382,200,182698,5,2,3:1:0:0:
382,200,182781,1,2,0:1:0:0:
382,200,182864,1,2,0:1:0:0:
329,300,183031,6,0,P|334:259|323:244,1,47.99999853516,4|0,0:1|0:0,0:0:0:0:
356,290,183198,2,0,P|362:249|350:234,1,47.99999853516,4|0,0:1|0:0,0:0:0:0:
188,321,183364,6,0,P|220:346|240:343,1,47.99999853516,12|0,0:1|0:0,0:0:0:0:
184,349,183531,2,0,P|216:375|235:372,1,47.99999853516,4|0,0:1|0:0,0:0:0:0:
241,188,183697,6,0,P|203:203|195:221,1,47.99999853516,4|0,0:1|0:0,0:0:0:0:
218,169,183864,2,0,P|180:185|173:203,1,47.99999853516,4|0,0:1|0:0,0:0:0:0:
251,270,184031,6,0,B|270:239|270:239|259:158,1,95.99999707031,0|0,3:0|0:0,0:0:0:0:
249,18,184364,6,0,L|300:15,1,47.99999853516,4|0,0:1|0:0,0:0:0:0:
254,97,184531,2,0,L|305:94,1,47.99999853516,4|0,0:1|0:0,0:0:0:0:
448,78,184698,6,0,L|397:75,1,47.99999853516,12|0,0:1|0:0,0:0:0:0:
443,157,184865,2,0,L|392:154,1,47.99999853516,4|0,0:1|0:0,0:0:0:0:
177,189,185031,6,0,L|228:186,1,47.99999853516,4|0,0:1|0:0,0:0:0:0:
182,268,185198,2,0,L|233:265,1,47.99999853516,4|0,0:1|0:0,0:0:0:0:
403,289,185364,5,0,3:0:0:0:
397,305,185447,1,0,1:0:0:0:
388,321,185530,1,0,1:0:0:0:
378,336,185614,1,0,1:0:0:0:
365,348,185697,1,0,1:0:0:0:
350,359,185780,1,0,1:0:0:0:
334,367,185864,1,0,1:0:0:0:
317,372,185947,1,0,1:0:0:0:
299,375,186030,1,2,1:0:0:0:
281,375,186114,1,0,1:0:0:0:
263,373,186197,1,0,1:0:0:0:
246,368,186280,1,2,1:0:0:0:
230,360,186364,1,0,1:0:0:0:
215,350,186447,1,0,1:0:0:0:
202,338,186530,1,2,1:0:0:0:
191,324,186614,1,0,1:0:0:0:
182,309,186698,6,0,L|192:268,14,32,0|0|0|0|0|0|0|0|0|0|0|0|0|0|0,0:0|0:0|0:0|0:0|0:0|0:0|0:0|0:0|0:0|0:0|0:0|0:0|0:0|0:0|0:0,0:0:0:0:
149,208,187364,5,2,0:0:0:0:
162,137,187447,1,2,0:0:0:0:
175,66,187531,1,2,0:0:0:0:
9,182,187698,5,2,0:0:0:0:
6,254,187781,1,2,0:0:0:0:
51,311,187864,1,2,0:0:0:0:
124,314,187948,1,0,0:0:0:0:
190,278,188031,6,0,P|246:303|326:266,1,128,4|2,3:2|0:0,0:0:0:0:
427,206,188364,2,0,P|382:192|343:202,1,64,8|2,0:0|0:0,0:0:0:0:
251,226,188531,1,0,0:0:0:0:
424,291,188698,6,0,P|368:266|288:303,1,128,2|0,0:0|3:0,0:0:0:0:
243,341,188948,1,2,0:0:0:0:
243,341,189031,2,0,P|299:366|379:329,1,128,8|2,0:0|0:0,0:0:0:0:
512,272,189364,6,0,B|486:233|486:233|495:127,1,128,0|2,3:0|0:0,0:0:0:0:
432,39,189698,2,0,L|424:121,1,64,8|2,0:0|0:0,0:0:0:0:
413,191,189864,1,0,0:0:0:0:
247,100,190031,6,0,B|349:100|349:100|322:119,1,128,2|0,0:0|3:0,0:0:0:0:
327,114,190281,1,2,0:0:0:0:
327,114,190364,1,8,0:0:0:0:
449,111,190531,1,2,0:0:0:0:
304,222,190698,6,0,P|289:162|327:114,1,128,0|2,3:0|0:0,0:0:0:0:
361,276,191031,2,0,P|325:299|281:293,1,64,8|2,0:0|0:0,0:0:0:0:
224,260,191198,1,0,0:0:0:0:
366,177,191364,6,0,B|317:173|317:173|291:185|291:185|222:177,1,128,2|0,0:0|3:0,0:0:0:0:
177,100,191614,1,2,0:0:0:0:
177,100,191698,2,0,P|139:109|88:202,1,128,8|2,0:0|0:0,0:0:0:0:
203,384,192031,6,0,B|226:326|226:326|224:260,1,128,0|2,3:0|0:0,0:0:0:0:
88,177,192364,2,0,L|90:241,1,64,8|2,0:0|0:0,0:0:0:0:
177,100,192531,2,0,B|269:87|269:87|304:111,1,128,0|2,3:0|0:0,0:0:0:0:
224,260,192864,6,0,L|222:196,1,64,0|2,3:0|0:0,0:0:0:0:
194,20,193031,2,0,B|286:7|286:7|321:31,1,128,8|2,0:0|0:0,0:0:0:0:
423,44,193364,6,0,P|401:76|420:165,1,128,0|2,3:0|0:0,0:0:0:0:
409,315,193698,2,0,P|410:281|381:235,1,64,8|2,0:0|0:0,0:0:0:0:
330,202,193864,1,0,0:0:0:0:
295,299,194031,6,0,B|320:285|320:285|209:256,1,128,2|0,0:0|3:0,0:0:0:0:
206,169,194281,1,2,0:0:0:0:
206,169,194364,2,0,L|334:203,1,128,8|2,0:0|0:0,0:0:0:0:
321,56,194698,6,0,P|261:44|193:103,1,128,0|2,3:0|0:0,0:0:0:0:
83,34,195031,2,0,L|88:102,1,64,8|2,0:0|0:0,0:0:0:0:
98,190,195198,1,0,0:0:0:0:
237,195,195364,6,0,B|245:149|245:149|198:62,1,128,2|0,0:0|3:0,0:0:0:0:
206,77,195614,1,2,0:0:0:0:
206,77,195698,1,8,0:0:0:0:
98,190,195864,1,2,0:0:0:0:
269,125,196031,6,0,P|322:110|386:147,1,128,2|2,3:1|0:0,0:0:0:0:
458,170,196281,1,0,0:0:0:0:
458,170,196364,2,0,B|451:201|451:201|397:228,1,64,10|2,0:1|0:0,0:0:0:0:
323,192,196531,5,0,0:0:0:0:
323,192,196614,1,0,0:0:0:0:
323,192,196698,2,0,B|328:238|328:238|391:302,1,128,2|0,0:1|3:0,0:0:0:0:
465,262,196948,1,2,0:1:0:0:
465,262,197031,2,0,L|405:197,1,64,8|0,0:0|0:0,0:0:0:0:
412,80,197198,5,2,0:1:0:0:
393,97,197281,1,0,0:0:0:0:
374,114,197364,2,0,B|323:107|323:107|287:114|287:114|248:105,1,128,2|2,3:1|0:0,0:0:0:0:
193,48,197614,1,0,0:0:0:0:
193,48,197698,2,0,P|169:79|172:114,1,64,10|2,0:1|0:0,0:0:0:0:
243,221,197864,5,0,3:0:0:0:
243,221,197948,1,0,0:0:0:0:
243,221,198031,2,0,P|268:164|247:105,1,128,2|0,0:1|3:0,0:0:0:0:
168,102,198281,1,2,0:1:0:0:
168,102,198364,2,0,L|103:105,1,64,8|0,0:0|0:0,0:0:0:0:
10,49,198531,5,2,0:1:0:0:
35,45,198614,1,0,0:0:0:0:
60,41,198698,2,0,B|73:117|73:117|35:188,1,128,4|2,3:2|0:0,0:0:0:0:
67,316,199031,2,0,L|51:240,1,64,8|2,0:0|0:0,0:0:0:0:
123,212,199198,1,0,0:0:0:0:
240,318,199364,6,0,B|147:303|147:303|181:275,1,128,2|0,0:0|3:0,0:0:0:0:
243,233,199614,1,2,0:0:0:0:
243,233,199698,2,0,L|376:248,1,128,8|2,0:0|0:0,0:0:0:0:
388,366,200031,6,0,B|364:339|364:339|371:234,1,128,0|2,3:0|0:0,0:0:0:0:
243,158,200364,2,0,L|313:150,1,64,8|2,0:0|0:0,0:0:0:0:
398,138,200531,1,0,0:0:0:0:
235,75,200698,6,0,P|177:100|154:158,1,128,2|0,0:0|3:0,0:0:0:0:
154,157,200948,1,2,0:0:0:0:
154,157,201031,1,8,0:0:0:0:
254,241,201198,1,2,0:0:0:0:
354,64,201364,6,0,B|327:81|327:81|210:72,1,128,0|2,3:0|0:0,0:0:0:0:
95,34,201698,2,0,L|184:27,1,64,8|2,0:0|0:0,0:0:0:0:
302,0,201864,1,0,0:0:0:0:
342,173,202031,6,0,P|370:142|350:61,1,128,2|0,0:0|3:0,0:0:0:0:
231,74,202281,1,2,0:0:0:0:
231,74,202364,2,0,L|91:75,1,128,8|2,0:0|0:0,0:0:0:0:
31,199,202698,6,0,B|62:166|62:166|169:165,1,128,0|2,3:0|0:0,0:0:0:0:
271,201,203031,2,0,P|278:244|256:287,1,64,8|2,0:0|0:0,0:0:0:0:
197,355,203198,2,0,P|180:316|206:216,1,128,0|2,3:0|0:0,0:0:0:0:
334,261,203531,6,0,P|291:268|248:246,1,64,0|2,3:0|0:0,0:0:0:0:
189,113,203698,2,0,P|206:152|180:252,1,128,8|2,0:0|0:0,0:0:0:0:
102,30,204031,6,0,B|149:38|149:38|178:32|178:32|239:40,1,128,0|2,3:0|0:0,0:0:0:0:
340,135,204364,2,0,L|265:125,1,64,8|2,0:0|0:0,0:0:0:0:
189,113,204531,1,0,0:0:0:0:
324,51,204698,6,0,B|427:66|427:66|396:83,1,128,2|0,0:0|3:0,0:0:0:0:
340,135,204948,1,2,0:0:0:0:
340,135,205031,2,0,P|317:181|359:269,1,128,8|2,0:0|0:0,0:0:0:0:
507,215,205364,6,0,P|460:181|385:202,1,128,0|2,3:0|0:0,0:0:0:0:
341,314,205698,2,0,P|346:279|334:245,1,64,8|2,0:0|0:0,0:0:0:0:
293,160,205864,1,0,0:0:0:0:
218,314,206031,6,0,B|282:297|282:297|362:320,1,128,2|0,0:0|3:0,0:0:0:0:
341,314,206281,1,2,0:0:0:0:
341,314,206364,1,8,0:0:0:0:
276,384,206531,1,2,0:0:0:0:
464,314,206698,6,0,B|400:331|400:331|320:308,1,128,2|2,3:1|0:0,0:0:0:0:
329,221,206948,1,0,0:0:0:0:
329,221,207031,2,0,L|400:242,1,64,10|2,0:1|0:0,0:0:0:0:
485,233,207198,5,0,0:0:0:0:
485,233,207281,1,0,0:0:0:0:
485,233,207364,2,0,P|478:192|390:149,1,128,2|0,0:1|3:0,0:0:0:0:
325,157,207614,1,2,0:1:0:0:
325,157,207698,2,0,L|330:244,1,64,8|0,0:0|0:0,0:0:0:0:
207,317,207864,5,2,0:1:0:0:
227,301,207948,1,0,0:0:0:0:
247,286,208031,2,0,L|243:150,1,128,2|2,3:1|0:0,0:0:0:0:
273,78,208281,1,0,0:0:0:0:
273,78,208364,2,0,P|228:72|195:89,1,64,10|2,0:1|0:0,0:0:0:0:
49,148,208531,5,0,3:0:0:0:
49,148,208614,1,0,0:0:0:0:
49,148,208698,2,0,P|105:172|165:147,1,128,2|0,0:1|3:0,0:0:0:0:
105,27,208948,1,2,0:1:0:0:
105,27,209031,2,0,B|97:58|97:58|106:106,1,64,8|0,0:0|0:0,0:0:0:0:
90,215,209198,5,2,0:1:0:0:
97,245,209281,1,0,0:0:0:0:
92,277,209364,2,0,B|146:261|146:261|255:287,1,160,6|0,3:2|0:0,0:0:0:0:
147,352,209864,1,2,0:0:0:0:
147,352,209948,1,0,0:0:0:0:
147,352,210031,1,8,0:0:0:0:
301,384,210198,2,0,L|326:293,1,80,0|2,0:0|0:0,0:0:0:0:
290,197,210531,1,0,0:0:0:0:
290,197,210614,1,0,0:0:0:0:
290,197,210698,6,0,L|279:235,1,40,2|0,3:2|0:0,0:0:0:0:
214,175,210864,2,0,L|203:213,1,40,0|0,0:0|0:0,0:0:0:0:
258,81,211031,6,0,L|268:119,1,40,0|0,0:0|0:0,0:0:0:0:
334,59,211197,2,0,L|344:97,1,40,2|0,0:0|0:0,0:0:0:0:
367,177,211364,6,0,L|274:201,1,80,8|0,0:0|0:0,0:0:0:0:
152,274,211698,2,0,L|229:254,1,80,2|0,0:0|0:0,0:0:0:0:
369,327,212031,2,0,P|335:313|311:262,2,80,2|0|0,3:2|0:0|0:0,0:0:0:0:
480,364,212531,5,2,0:0:0:0:
389,253,212698,1,8,0:0:0:0:
491,177,212864,1,0,0:0:0:0:
508,152,212947,1,0,0:0:0:0:
504,123,213030,1,2,0:0:0:0:
475,115,213115,1,0,0:0:0:0:
459,139,213198,1,0,0:0:0:0:
463,168,213281,1,0,0:0:0:0:
491,177,213364,6,0,B|508:152|508:152|497:57,1,120,2|0,3:2|0:0,0:0:0:0:
497,62,213698,1,0,0:0:0:0:
389,97,213864,1,2,0:0:0:0:
389,253,214031,1,8,0:0:0:0:
280,287,214197,1,0,0:0:0:0:
338,117,214364,2,8,L|341:210,1,80,2|0,0:0|0:0,0:0:0:0:
160,164,214698,2,0,L|200:147,1,40,2|0,3:2|0:0,0:0:0:0:
316,96,214864,6,0,L|317:231,1,120,0|0,0:0|0:0,0:0:0:0:
316,215,215198,1,2,0:0:0:0:
203,304,215364,2,0,P|171:306|121:280,1,80,8|0,0:0|0:0,0:0:0:0:
160,164,215698,2,0,P|192:162|242:188,1,80,2|0,0:0|0:0,0:0:0:0:
81,209,216031,5,2,3:2:0:0:
178,79,216198,1,2,0:1:0:0:
178,79,216281,1,0,0:0:0:0:
30,140,216448,1,2,0:1:0:0:
30,140,216532,1,2,0:0:0:0:
203,63,216698,6,0,L|108:59,1,80,8|0,0:0|0:0,0:0:0:0:
86,31,216948,1,0,0:0:0:0:
86,31,217031,2,0,B|91:51|91:51|65:121,1,80,2|2,0:1|0:0,0:0:0:0:
31,275,217364,6,0,P|64:290|111:279,1,80,2|0,3:1|0:0,0:0:0:0:
160,218,217614,1,0,0:0:0:0:
160,218,217698,2,0,P|181:249|181:269,1,40,2|0,0:1|0:0,0:0:0:0:
173,339,217864,5,2,0:0:0:0:
173,339,217948,1,0,0:0:0:0:
173,339,218031,2,0,P|206:354|253:343,1,80,10|0,0:1|0:0,0:0:0:0:
302,282,218281,1,2,0:1:0:0:
302,282,218365,2,0,P|323:313|323:333,1,40,2|0,0:0|0:0,0:0:0:0:
385,384,218531,5,2,0:1:0:0:
416,384,218614,1,0,0:0:0:0:
448,384,218698,2,0,B|456:363|456:363|451:291,1,80,2|0,3:1|0:0,0:0:0:0:
446,222,218948,1,0,0:0:0:0:
446,222,219031,2,0,L|389:226,1,40,2|0,0:1|0:0,0:0:0:0:
320,173,219198,5,2,0:0:0:0:
320,173,219281,1,0,0:0:0:0:
320,173,219365,2,0,B|312:152|312:152|317:80,1,80,10|0,0:1|0:0,0:0:0:0:
322,11,219615,1,2,0:1:0:0:
322,11,219698,2,0,L|379:15,1,40,2|0,0:0|0:0,0:0:0:0:
494,23,219864,5,2,0:1:0:0:
503,53,219948,1,0,0:0:0:0:
512,83,220031,2,0,B|461:80|461:80|417:102|417:102|354:97,1,160,0|0,3:0|0:0,0:0:0:0:
246,84,220531,1,2,0:0:0:0:
246,84,220614,1,0,0:0:0:0:
246,84,220698,1,8,0:0:0:0:
320,173,220864,2,0,L|222:162,1,80,0|2,0:0|0:0,0:0:0:0:
145,117,221198,1,0,0:0:0:0:
145,117,221281,1,0,0:0:0:0:
145,117,221364,6,0,L|142:73,1,40,2|0,3:2|0:0,0:0:0:0:
61,44,221531,2,0,L|58:83,1,40,0|0,0:0|0:0,0:0:0:0:
87,223,221698,6,0,L|84:179,1,40,0|0,0:0|0:0,0:0:0:0:
3,150,221865,2,0,L|0:189,1,40,2|0,0:0|0:0,0:0:0:0:
30,296,222031,6,0,P|17:326|18:381,1,80,8|0,0:0|0:0,0:0:0:0:
162,275,222364,2,0,P|175:245|174:190,1,80,2|0,0:0|0:0,0:0:0:0:
106,354,222698,2,0,L|186:357,2,80,2|0|0,3:2|0:0|0:0,0:0:0:0:
87,223,223198,5,2,0:0:0:0:
259,166,223364,1,8,0:0:0:0:
143,100,223531,1,0,0:0:0:0:
117,106,223614,1,0,0:0:0:0:
145,80,223698,1,2,0:0:0:0:
118,74,223781,1,0,0:0:0:0:
154,62,223865,1,0,0:0:0:0:
132,45,223948,1,0,0:0:0:0:
170,50,224031,6,0,B|203:58|203:58|295:44,1,120,2|0,3:2|0:0,0:0:0:0:
287,45,224364,1,0,0:0:0:0:
259,166,224531,1,2,0:0:0:0:
405,137,224698,1,8,0:3:0:0:
314,52,224864,1,0,0:0:0:0:
293,174,225031,2,0,P|279:213|293:258,1,80,2|0,0:0|0:0,0:0:0:0:
408,209,225364,2,0,L|368:216,1,40,2|0,3:2|0:0,0:0:0:0:
287,249,225531,6,0,P|295:201|270:120,1,120,0|0,0:0|0:0,0:0:0:0:
277,132,225864,1,2,0:0:0:0:
201,230,226031,2,0,L|88:242,1,80,8|0,0:0|0:0,0:0:0:0:
0,175,226364,2,0,L|79:165,1,80,2|0,0:0|0:0,0:0:0:0:
195,151,226698,5,2,3:2:0:0:
227,307,226864,1,2,0:1:0:0:
227,307,226948,1,0,0:0:0:0:
416,306,227114,1,2,0:1:0:0:
416,306,227198,1,0,0:0:0:0:
286,250,227364,6,0,B|282:235|282:235|300:153,1,80,10|0,0:0|0:0,0:0:0:0:
391,132,227614,1,0,0:0:0:0:
391,132,227698,2,0,L|371:223,1,80,2|0,0:1|0:0,0:0:0:0:
461,85,228031,6,0,P|427:55|369:56,1,80,2|0,3:1|0:0,0:0:0:0:
330,2,228281,1,0,0:0:0:0:
330,2,228364,2,0,P|316:25|317:54,1,40,2|0,0:1|0:0,0:0:0:0:
310,122,228531,5,2,0:0:0:0:
310,122,228614,1,0,0:0:0:0:
310,122,228698,2,0,P|276:152|218:151,1,80,10|0,0:1|0:0,0:0:0:0:
179,205,228948,1,2,0:1:0:0:
179,205,229031,2,0,P|165:181|166:153,1,40,2|0,0:0|0:0,0:0:0:0:
244,75,229198,5,2,0:1:0:0:
212,77,229281,1,0,0:0:0:0:
180,81,229364,2,0,L|95:62,1,80,2|0,3:1|0:0,0:0:0:0:
28,24,229614,1,0,0:0:0:0:
28,24,229698,2,0,B|16:49|16:49|11:80,1,40,2|0,0:1|0:0,0:0:0:0:
100,222,229864,5,2,0:0:0:0:
100,222,229948,1,0,0:0:0:0:
100,222,230031,2,0,L|185:203,1,80,10|0,0:1|0:0,0:0:0:0:
252,165,230281,1,2,0:1:0:0:
252,165,230365,2,0,B|264:190|264:190|269:221,1,40,2|0,0:0|0:0,0:0:0:0:
213,284,230531,1,2,0:1:0:0:
208,323,230614,1,0,0:0:0:0:
223,360,230698,6,0,B|129:386|163:336|64:360,1,160,6|2,3:2|0:0,0:0:0:0:
66,359,231864,1,2,0:0:0:0:
84,181,232864,6,0,L|84:231,1,40,2|0,0:0|0:0,0:0:0:0:
42,105,233364,6,0,B|136:79|102:129|201:105,1,160,6|2,3:2|0:0,0:0:0:0:
199,106,234530,1,2,0:0:0:0:
256,224,235531,5,0,0:0:0:0:
289,360,236031,6,0,B|383:386|349:336|448:360,1,160,6|2,3:2|0:0,0:0:0:0:
446,359,237197,1,2,0:0:0:0:
428,181,238198,6,0,L|428:231,1,40,2|0,0:0|0:0,0:0:0:0:
470,105,238697,6,0,B|376:79|410:129|311:105,1,160,6|2,3:2|0:0,0:0:0:0:
313,106,239863,1,2,0:0:0:0:
256,288,240864,5,0,0:0:0:0:
171,165,241364,6,0,B|142:146|142:146|98:133|49:154|33:191,1,160,6|2,0:0|0:0,0:0:0:0:
34,189,242531,1,2,0:0:0:0:
210,77,243531,6,0,L|212:38,1,40,2|0,0:0|0:0,0:0:0:0:
64,82,244031,6,0,P|136:50|210:77,1,160,2|2,0:0|0:0,0:0:0:0:
210,77,245198,1,2,0:0:0:0:
256,192,246198,5,0,0:0:0:0:
341,165,246698,6,0,B|370:146|370:146|414:133|462:154|479:191,1,160,2|2,0:0|0:0,0:0:0:0:
477,188,247864,1,0,0:0:0:0:
301,77,248865,6,0,L|300:38,1,40,2|0,0:0|0:0,0:0:0:0:
446,83,249364,6,0,P|374:51|300:77,1,160,2|2,0:0|0:0,0:0:0:0:
301,78,250532,1,2,0:0:0:0:
256,192,251532,5,0,0:0:0:0:
163,52,252031,6,0,P|174:81|130:169,1,128,6|2,0:0|0:0,0:0:0:0:
83,92,253198,2,0,P|69:70|-2:48,2,96,2|2|2,0:0|0:0|0:0,0:0:0:0:
212,179,254698,6,0,L|197:316,1,128,2|2,0:0|0:0,0:0:0:0:
112,256,255864,2,0,L|8:264,2,96,2|2|2,0:0|0:0|0:0,0:0:0:0:
374,164,257364,6,0,P|338:113|349:52,1,128,6|2,0:0|0:0,0:0:0:0:
429,92,258531,2,0,P|443:70|514:48,2,96,2|2|2,0:0|0:0|0:0,0:0:0:0:
300,179,260031,6,0,L|315:316,1,128,2|2,0:0|0:0,0:0:0:0:
400,256,261198,2,0,L|504:264,2,96,2|2|2,0:0|0:0|0:0,0:0:0:0:
121,51,262698,6,0,B|50:76|37:192|86:237|86:237|165:210,1,297.1428571429,6|0,0:0|0:0,0:0:0:0:
391,51,265364,6,0,B|462:76|475:192|426:237|426:237|347:210,1,297.1428571429,2|0,0:0|0:0,0:0:0:0:
134,147,268031,6,0,P|68:247|175:214,1,297.1428571429,2|0,0:0|0:0,0:0:0:0:
378,147,270698,6,0,P|444:247|337:214,1,297.1428571429,2|0,0:0|0:0,0:0:0:0:
256,128,273364,5,0,0:0:0:0:
