osu file format v14

[General]
AudioFilename: Sample Text.mp3
AudioLeadIn: 0
PreviewTime: 145364
Countdown: 0
SampleSet: Normal
StackLeniency: 0.4
Mode: 0
LetterboxInBreaks: 0
WidescreenStoryboard: 0

[Editor]
Bookmarks: 22698,49364,70698,92031,113364,124031,129364
DistanceSpacing: 1.3
BeatDivisor: 4
GridSize: 16
TimelineZoom: 0.9

[Metadata]
Title:Flashes (Extended)
TitleUnicode:Flashes (Extended)
Artist:Dollscythe
ArtistUnicode:Dollscythe
Creator:handsome
Version:Rohit's Hard
Source:beatmania IIDX 22 PENDUAL
Tags:dnb drum n bass and nerova riuz gx hommarju dubstep electro atsuro side rohit6 n/a nrg
BeatmapID:899861
BeatmapSetID:358350

[Difficulty]
HPDrainRate:5
CircleSize:4
OverallDifficulty:6
ApproachRate:8
SliderMultiplier:1.2
SliderTickRate:1

[Events]
//Background and Video events
0,0,"Sample-Text.jpg",0,0
//Break Periods
//Storyboard Layer 0 (Background)
//Storyboard Layer 1 (Fail)
//Storyboard Layer 2 (Pass)
//Storyboard Layer 3 (Foreground)
//Storyboard Sound Samples

[TimingPoints]
1365,333.3333333333,4,2,1,30,1,0
4031,-100,4,2,1,35,0,0
6698,-100,4,2,1,40,0,0
9364,-100,4,2,1,45,0,0
12031,-100,4,2,1,50,0,0
14698,-100,4,2,1,50,0,0
17364,-100,4,2,1,55,0,0
20031,-100,4,2,1,60,0,0
20364,-95.2380952380952,4,2,1,60,0,0
20531,-95.2380952380952,4,2,1,30,0,0
20698,-90.9090909090909,4,2,1,30,0,0
21031,-86.9565217391304,4,2,1,30,0,0
21364,-83.3333333333333,4,2,1,50,0,0
21698,-80,4,2,1,50,0,0
22031,-66.6666666666667,4,2,0,55,0,0
22364,-62.5,4,2,0,55,0,0
22698,-100,4,2,2,60,0,0
46698,-100,4,2,2,40,0,0
47031,-95.2380952380952,4,2,2,40,0,0
47364,-90.9090909090909,4,2,2,40,0,0
47698,-86.9565217391304,4,2,2,40,0,0
48031,-83.3333333333333,4,2,2,60,0,0
48364,-80,4,2,2,60,0,0
48698,-83.3333333333333,4,2,0,65,0,0
49364,-83.3333333333333,4,1,2,65,0,0
52281,-83.3333333333333,4,1,2,65,0,0
52364,-83.3333333333333,4,1,2,65,0,0
53364,-83.3333333333333,4,2,2,65,0,0
54698,-83.3333333333333,4,1,2,65,0,0
58864,-83.3333333333333,4,1,0,65,0,0
59031,-83.3333333333333,4,1,2,65,0,0
59364,-83.3333333333333,4,1,0,65,0,0
59531,-83.3333333333333,4,1,2,65,0,0
59948,-83.3333333333333,4,1,2,65,0,0
60031,-83.3333333333333,4,1,2,65,0,0
64031,-83.3333333333333,4,2,2,65,0,0
65364,-83.3333333333333,4,1,2,65,0,0
69364,-83.3333333333333,4,1,2,40,0,0
70031,-83.3333333333333,4,2,0,60,0,0
70698,-83.3333333333333,4,1,2,65,0,0
74698,-83.3333333333333,4,2,2,65,0,0
76031,-83.3333333333333,4,1,2,65,0,0
80198,-83.3333333333333,4,1,0,65,0,0
80364,-83.3333333333333,4,1,2,65,0,0
80698,-83.3333333333333,4,1,0,65,0,0
80864,-83.3333333333333,4,1,2,65,0,0
85364,-83.3333333333333,4,2,2,65,0,0
86698,-83.3333333333333,4,1,2,65,0,0
89698,-83.3333333333333,4,2,2,65,0,0
90698,-83.3333333333333,4,2,2,40,0,0
91364,-83.3333333333333,4,2,0,65,0,0
92031,-100,4,2,2,45,0,0
113364,-133.333333333333,4,2,2,40,0,0
124031,-100,4,2,2,40,0,0
129364,-83.3333333333333,4,2,2,45,0,0
134698,-83.3333333333333,4,2,2,50,0,0
137364,-83.3333333333333,4,2,2,55,0,0
138698,-83.3333333333333,4,2,2,60,0,0
140031,-83.3333333333333,4,2,2,65,0,0
141364,-83.3333333333333,4,2,2,70,0,0
142698,-83.3333333333333,4,2,2,55,0,0
144031,-83.3333333333333,4,2,0,65,0,0
145364,-76.9230769230769,4,1,2,70,0,1
161364,-100,4,2,2,50,0,0
164031,-100,4,2,2,55,0,0
165364,-100,4,2,2,70,0,0
166031,-100,4,1,2,70,0,1
166698,-76.9230769230769,4,1,2,70,0,1
182698,-100,4,2,2,50,0,0
185364,-100,4,1,2,55,0,0
186698,-100,4,2,2,70,0,0
187364,-100,4,1,2,70,0,0
188031,-100,4,2,2,70,0,0
209364,-100,4,2,2,60,0,0
230698,-133.333333333333,4,2,2,60,0,0
230781,-133.333333333333,4,2,2,50,0,0
233281,-133.333333333333,4,2,2,10,0,0
233364,-133.333333333333,4,2,2,50,0,0
238614,-133.333333333333,4,2,2,10,0,0
238697,-133.333333333333,4,2,2,50,0,0
241364,-133.333333333333,4,2,2,45,0,0
243948,-133.333333333333,4,2,2,10,0,0
244031,-133.333333333333,4,2,2,45,0,0
249281,-133.333333333333,4,2,2,10,0,0
249364,-133.333333333333,4,2,2,45,0,0
252031,-200,4,2,3,25,0,0
262698,-200,4,2,3,15,0,0
268031,-200,4,2,3,10,0,0

[Colours]
Combo1 : 100,173,255
Combo2 : 185,185,185
Combo3 : 163,221,250

[HitObjects]
46,77,1365,6,0,P|106:61|178:89,1,120,6|8,0:0|0:0,0:0:0:0:
223,110,1864,2,0,P|280:125|337:109,1,120,2|0,0:0|0:0,0:0:0:0:
390,60,2364,1,10,0:0:0:0:
471,178,2698,1,2,0:0:0:0:
387,295,3031,6,0,L|311:287,1,60,8|2,0:0|0:0,0:0:0:0:
272,241,3364,2,0,L|196:233,1,60
159,284,3698,2,0,L|83:276,1,60,10|0,0:0|0:0,0:0:0:0:
36,315,4031,6,0,B|29:274|29:274|52:159,1,120,6|8,0:0|0:0,0:0:0:0:
59,126,4531,2,0,B|100:119|100:119|136:131|136:131|211:120,1,120,2|0,0:0|0:0,0:0:0:0:
246,112,5031,1,10,0:0:0:0:
161,203,5364,1,2,0:0:0:0:
255,326,5698,6,0,P|296:315|350:328,1,60,8|2,0:0|0:0,0:0:0:0:
377,347,6031,2,0,P|418:358|472:345,1,60
497,321,6364,2,0,P|508:280|495:226,1,60,10|0,0:0|0:0,0:0:0:0:
480,195,6698,6,0,B|421:209|421:209|343:190,1,120,6|8,0:0|0:0,0:0:0:0:
312,143,7198,2,0,B|254:128|254:128|195:142,1,120,2|0,0:0|0:0,0:0:0:0:
132,177,7698,2,0,B|111:246|149:222|121:309,1,120,10|2,0:0|0:0,0:0:0:0:
256,354,8364,6,0,P|268:329|268:287,1,60,8|2,0:0|0:0,0:0:0:0:
229,236,8698,2,0,P|217:211|217:169,1,60
282,152,9031,2,0,P|294:127|294:85,1,60,10|0,0:0|0:0,0:0:0:0:
291,23,9364,6,0,P|240:48|227:114,1,120,6|8,0:0|0:0,0:0:0:0:
214,179,9864,2,0,B|169:171|169:171|138:180|138:180|94:171,1,120,2|0,0:0|0:0,0:0:0:0:
44,121,10364,2,0,B|53:157|53:157|35:254,1,120,10|2,0:0|0:0,0:0:0:0:
139,340,11031,6,0,L|215:332,1,60,8|2,0:0|0:0,0:0:0:0:
257,291,11364,2,0,L|333:299,1,60
376,338,11698,2,0,L|452:330,1,60,10|0,0:0|0:0,0:0:0:0:
495,376,12031,6,0,B|506:335|506:335|490:223,1,120,6|8,0:0|0:0,0:0:0:0:
479,187,12531,2,0,P|415:180|389:106,1,120,2|0,0:0|0:0,0:0:0:0:
379,64,13031,1,10,0:0:0:0:
277,166,13364,1,2,0:0:0:0:
130,142,13698,6,0,P|104:162|93:196,1,60,8|2,0:0|0:0,0:0:0:0:
118,254,14031,2,0,P|148:266|183:259,1,60
219,205,14364,2,0,P|214:172|190:145,1,60,10|0,0:0|0:0,0:0:0:0:
175,81,14698,6,0,B|128:68|128:68|55:97,1,120,6|8,0:0|0:0,0:0:0:0:
7,142,15198,2,0,B|19:182|19:182|9:295,1,120,2|0,0:0|0:0,0:0:0:0:
0,331,15698,1,10,0:0:0:0:
118,254,16031,1,2,0:0:0:0:
279,285,16364,6,0,P|306:264|317:228,1,60,8|2,0:0|0:0,0:0:0:0:
292,173,16697,2,0,P|260:159|223:167,1,60,0|0,0:0|0:0,0:0:0:0:
190,218,17031,2,0,P|194:252|219:279,1,60,10|0,0:0|0:0,0:0:0:0:
284,313,17364,6,0,B|329:321|329:321|358:305|358:305|417:315,1,120,6|8,0:0|0:0,0:0:0:0:
460,346,17864,2,0,P|443:277|475:217,1,120,2|0,0:0|0:0,0:0:0:0:
512,183,18364,1,10,0:0:0:0:
444,66,18698,1,2,0:0:0:0:
322,212,19031,6,0,P|294:190|282:153,1,60,8|2,0:0|0:0,0:0:0:0:
308,97,19364,2,0,P|340:83|378:91,1,60,0|0,0:0|0:0,0:0:0:0:
413,143,19698,2,0,P|408:177|382:206,1,60,10|0,0:0|0:0,0:0:0:0:
316,243,20031,6,0,L|303:285,2,30,6|0|0,0:0|0:0|0:0,0:0:0:0:
232,244,20364,2,0,L|200:285,2,31.4999990386963,8|0|2,0:0|0:0|1:2,0:0:0:0:
154,205,20698,2,0,L|107:234,2,33.0000010070801,0|0|0,1:0|1:0|1:0,0:0:0:0:
89,137,21031,2,0,L|24:153,2,34.5000006580353,10|0|0,1:2|1:0|1:0,0:0:0:0:
154,60,21364,6,0,L|114:34,2,35.9999989013672
262,73,21698,2,0,L|249:14,2,37.5,8|0|0,0:0|0:0|0:0,0:0:0:0:
296,171,22031,6,0,L|359:157,2,45.0000017166138,8|8|8,0:3|0:3|0:3,0:0:0:0:
176,225,22364,2,0,L|110:210,2,48,4|4|4,0:3|0:3|0:3,0:0:0:0:
265,284,22698,6,0,L|400:254,1,120,6|0,3:2|0:0,0:0:0:0:
441,207,23198,1,2,0:0:0:0:
457,283,23364,1,8,0:0:0:0:
382,258,23531,2,0,P|346:203|348:136,1,120
279,89,24031,6,0,L|217:100,1,60,2|0,3:2|0:0,0:0:0:0:
158,147,24364,2,0,L|80:129,1,60,0|2,0:0|0:0,0:0:0:0:
38,83,24698,2,0,B|23:123|23:123|30:219,1,120,8|2,0:0|0:0,0:0:0:0:
152,294,25364,6,0,B|192:290|192:290|227:304|227:304|279:299,1,120,2|0,3:2|0:0,0:0:0:0:
324,244,25864,1,2,0:0:0:0:
401,252,26031,1,8,0:0:0:0:
460,303,26198,2,0,P|479:245|431:179,1,120,0|0,0:1|0:0,0:0:0:0:
376,151,26698,6,0,L|236:160,1,120,2|0,3:2|0:0,0:0:0:0:
180,138,27198,1,2,0:0:0:0:
171,215,27364,2,0,P|171:252|157:278,1,60,8|0,0:0|0:0,0:0:0:0:
119,341,27698,2,0,B|149:351|149:351|184:349,1,60,2|0,0:0|0:0,0:0:0:0:
267,356,28031,6,0,P|294:367|388:327,1,120,2|0,3:2|0:0,0:0:0:0:
388,264,28531,1,2,0:0:0:0:
460,293,28698,1,8,0:0:0:0:
503,228,28864,1,0,0:0:0:0:
446,173,29031,2,0,P|434:144|433:115,1,60,2|0,0:0|0:0,0:0:0:0:
357,63,29364,6,0,L|225:71,1,120,2|0,3:2|0:0,0:0:0:0:
160,56,29864,1,2,0:0:0:0:
188,130,30031,2,0,B|206:165|206:165|193:265,1,120,8|2,0:0|0:1,0:0:0:0:
152,309,30531,1,0,0:0:0:0:
238,337,30698,6,0,L|360:320,1,120,2|2,3:1|0:1,0:0:0:0:
410,263,31198,1,2,0:0:0:0:
333,250,31364,2,0,L|214:266,1,120,10|2,0:1|0:0,0:0:0:0:
148,223,31864,1,2,0:1:0:0:
198,149,32031,6,0,B|241:152|241:152|275:136|275:136|321:135,1,120,2|2,3:1|0:1,0:0:0:0:
373,83,32531,1,2,0:0:0:0:
426,140,32698,2,0,B|423:183|423:183|439:217|439:217|440:263,1,120,10|2,0:1|0:0,0:0:0:0:
439,334,33198,1,2,0:1:0:0:
365,282,33364,6,0,P|313:270|241:309,1,120,6|0,3:2|0:0,0:0:0:0:
186,335,33864,1,2,0:0:0:0:
116,299,34031,1,8,0:0:0:0:
132,222,34198,2,0,L|117:102,1,120,0|0,0:0|0:0,0:0:0:0:
175,38,34698,6,0,P|203:50|257:45,1,60,2|0,3:2|0:0,0:0:0:0:
296,95,35031,2,0,P|323:83|353:81,1,60,0|2,0:0|0:0,0:0:0:0:
417,36,35364,2,0,B|432:70|432:70|416:176,1,120,8|2,0:0|0:0,0:0:0:0:
324,276,36031,6,0,L|198:263,1,120,2|0,3:2|0:0,0:0:0:0:
129,241,36531,1,2,0:0:0:0:
171,175,36698,1,8,0:0:0:0:
105,132,36864,2,0,P|156:100|223:118,1,120
258,186,37364,6,0,L|266:318,1,120,2|0,3:2|0:0,0:0:0:0:
330,349,37864,1,2,0:0:0:0:
397,309,38031,2,0,L|391:220,1,60,8|0,0:0|0:0,0:0:0:0:
359,178,38364,2,0,L|355:118,1,60,2|0,0:0|0:0,0:0:0:0:
406,37,38698,6,0,P|462:46|471:110,1,120,2|0,3:2|0:0,0:0:0:0:
437,169,39198,1,2,0:0:0:0:
463,241,39364,1,8,0:0:0:0:
404,293,39531,1,0,0:0:0:0:
336,253,39698,2,0,L|262:246,1,60,2|0,0:0|0:0,0:0:0:0:
191,276,40031,6,0,P|137:274|123:201,1,120,2|0,3:2|0:0,0:0:0:0:
145,146,40531,1,2,0:0:0:0:
77,106,40698,2,0,P|127:71|200:85,1,120,8|2,0:0|0:1,0:0:0:0:
238,130,41198,1,0,0:0:0:0:
275,50,41364,6,0,P|326:82|399:61,1,120,2|2,3:1|0:1,0:0:0:0:
442,22,41864,1,2,0:2:0:0:
465,96,42031,2,0,P|433:147|454:220,1,120,10|2,0:1|0:0,0:0:0:0:
477,273,42531,1,2,0:1:0:0:
387,270,42698,6,0,B|311:255|311:255|280:206,1,120,2|2,3:1|0:1,0:0:0:0:
249,151,43198,1,2,0:0:0:0:
208,217,43364,2,0,B|185:252|185:252|109:267,1,120,10|2,0:1|0:0,0:0:0:0:
31,279,43864,1,2,0:1:0:0:
48,183,44031,6,0,L|54:116,1,60,12|0,3:2|0:0,0:0:0:0:
110,45,44364,2,0,L|177:51,1,60,8|0,0:0|0:0,0:0:0:0:
243,112,44698,2,0,L|310:118,1,60,8|0,0:0|0:0,0:0:0:0:
371,49,45031,2,0,L|438:55,1,60,8|0,0:0|0:0,0:0:0:0:
512,125,45364,6,0,L|497:198,1,60,8|0,0:0|0:0,0:0:0:0:
403,179,45698,2,0,L|415:237,1,60,8|0,0:0|0:0,0:0:0:0:
321,259,46031,2,0,L|308:317,1,60,8|0,0:0|0:0,0:0:0:0:
212,322,46365,2,0,L|224:380,1,60,8|0,0:0|0:0,0:0:0:0:
89,290,46698,6,0,L|80:254,2,30,0|0|0,1:0|1:0|1:0,0:0:0:0:
162,222,47031,2,0,L|171:186,2,31.4999990386963,0|0|0,1:0|1:0|1:0,0:0:0:0:
80,156,47364,2,0,L|70:117,2,33.0000010070801,0|0|0,1:0|1:0|1:0,0:0:0:0:
169,82,47698,2,0,L|185:22,2,34.5000006580353,0|0|0,1:0|1:0|1:0,0:0:0:0:
261,147,48031,6,0,L|319:133,2,35.9999989013672,0|0|0,3:0|0:0|0:0,0:0:0:0:
162,222,48364,2,0,L|100:206,2,37.5
270,270,48698,6,0,L|264:306,2,35.9999989013672,8|8|8,0:3|0:3|0:3,0:0:0:0:
369,200,49031,2,0,L|403:187,2,35.9999989013672,4|4|4,0:3|0:3|0:3,0:0:0:0:
262,156,49364,6,0,P|210:124|124:133,1,143.999995605469,4|8,3:2|0:0,0:0:0:0:
69,191,49864,1,6,0:0:0:0:
99,272,50031,1,6,0:0:0:0:
183,252,50198,1,2,3:1:0:0:
250,306,50364,2,0,L|326:295,1,71.9999978027344,10|6,0:0|0:0,0:0:0:0:
401,358,50698,6,0,B|418:321|418:321|416:207,1,143.999995605469,0|8,3:0|0:0,0:0:0:0:
438,132,51198,1,6,0:0:0:0:
361,93,51364,2,0,P|325:86|291:94,1,71.9999978027344,6|2,0:0|3:1,0:0:0:0:
218,140,51698,2,0,P|181:148|133:133,1,71.9999978027344,10|4,0:0|0:1,0:0:0:0:
70,76,52031,6,0,B|56:130|56:130|65:207,1,107.999996704102,0|0,3:0|2:0,0:0:0:0:
62,181,52364,1,10,0:3:0:0:
116,248,52531,1,2,0:3:0:0:
176,185,52698,1,2,0:3:0:0:
176,185,52781,1,2,0:3:0:0:
176,185,52864,2,0,L|182:127,2,35.9999989013672,2|2|10,3:0|0:3|0:3,0:0:0:0:
235,248,53198,1,2,0:3:0:0:
318,228,53364,5,2,3:1:0:0:
385,269,53531,2,0,L|388:315,2,35.9999989013672,2|0|8,0:2|0:0|0:0,0:0:0:0:
448,221,53864,1,2,0:1:0:0:
419,146,54031,2,0,L|456:121,2,35.9999989013672,2|0|0,0:2|0:0|3:0,0:0:0:0:
339,151,54364,2,0,P|290:153|242:124,1,71.9999978027344,10|0,0:1|0:0,0:0:0:0:
193,78,54698,6,0,B|175:116|175:116|182:174|182:174|161:223,1,143.999995605469,0|8,3:0|0:0,0:0:0:0:
97,268,55198,1,6,0:0:0:0:
30,213,55364,1,6,0:0:0:0:
96,158,55531,1,2,3:1:0:0:
164,214,55698,2,0,P|190:228|232:231,1,71.9999978027344,10|6,0:0|0:0,0:0:0:0:
333,230,56031,6,0,B|355:153|355:153|309:162|272:118,1,143.999995605469,0|8,3:0|0:0,0:0:0:0:
259,60,56531,1,6,0:0:0:0:
343,76,56698,2,0,P|376:75|419:102,1,71.9999978027344,6|2,0:0|3:1,0:0:0:0:
442,172,57031,2,0,P|450:214|432:268,1,71.9999978027344,10|4,0:0|0:0,0:0:0:0:
390,327,57364,6,0,B|320:339|320:339|277:314,1,107.999996704102,0|0,3:0|2:0,0:0:0:0:
288,320,57698,1,10,0:3:0:0:
222,260,57864,1,2,0:3:0:0:
148,305,58031,1,2,0:3:0:0:
148,305,58114,1,2,0:3:0:0:
148,305,58198,2,0,L|138:361,2,35.9999989013672,2|2|8,0:3|0:3|0:3,0:0:0:0:
121,222,58531,1,2,0:3:0:0:
188,145,58698,6,0,L|300:156,1,107.999996704102,2|0,3:1|0:0,0:0:0:0:
295,155,59031,1,8,0:0:0:0:
327,235,59198,2,0,L|215:224,1,107.999996704102,2|0,0:0|0:0,0:0:0:0:
219,225,59531,1,0,3:0:0:0:
172,298,59698,2,0,L|284:309,1,107.999996704102,10|0,3:1|0:0,0:0:0:0:
283,312,60031,6,0,B|334:316|334:316|374:301|374:301|441:304,1,143.999995605469,4|8,3:2|0:0,0:0:0:0:
487,240,60531,1,6,0:0:0:0:
444,164,60698,1,6,0:0:0:0:
478,85,60864,1,2,3:1:0:0:
399,58,61031,2,0,P|361:58|313:90,1,71.9999978027344,10|6,0:0|0:0,0:0:0:0:
269,151,61364,6,0,P|202:180|129:179,1,143.999995605469,0|8,3:0|0:0,0:0:0:0:
54,141,61864,1,6,0:0:0:0:
14,217,62031,2,0,P|6:247|15:296,1,71.9999978027344,6|2,0:0|3:1,0:0:0:0:
85,332,62364,2,0,P|120:326|155:334,1,71.9999978027344,10|4,0:0|0:0,0:0:0:0:
256,350,62698,6,0,B|293:342|293:342|318:352|318:352|384:339,1,107.999996704102,0|0,3:0|2:0,0:0:0:0:
360,343,63031,1,10,0:3:0:0:
415,276,63198,1,2,0:3:0:0:
335,243,63364,1,2,0:3:0:0:
335,243,63448,1,2,0:3:0:0:
335,243,63531,2,0,L|285:237,2,35.9999989013672,2|2|10,3:0|0:3|0:3,0:0:0:0:
402,188,63864,1,2,0:3:0:0:
314,138,64031,6,0,L|193:129,1,107.999996704102,2|0,3:1|0:0,0:0:0:0:
206,129,64364,1,8,0:0:0:0:
141,71,64531,2,0,L|132:192,1,107.999996704102,2|0,0:1|0:0,0:0:0:0:
132,178,64864,1,0,3:0:0:0:
76,244,65031,2,0,L|183:252,1,107.999996704102,10|0,0:1|2:0,0:0:0:0:
187,256,65364,6,0,B|259:282|248:229|350:268,1,143.999995605469,0|8,3:0|0:0,0:0:0:0:
404,301,65864,1,6,0:0:0:0:
473,248,66031,1,6,0:0:0:0:
435,169,66198,1,2,3:1:0:0:
349,177,66364,2,0,P|310:182|258:165,1,71.9999978027344,10|6,0:0|0:0,0:0:0:0:
210,243,66698,6,0,P|180:187|212:106,1,143.999995605469,0|8,3:0|0:0,0:0:0:0:
270,59,67198,1,6,0:0:0:0:
333,117,67364,2,0,L|326:202,1,71.9999978027344,6|2,0:0|3:1,0:0:0:0:
405,226,67698,2,0,L|398:311,1,71.9999978027344,10|4,0:0|0:0,0:0:0:0:
313,349,68031,6,0,B|281:351|260:342|260:342|231:352|231:352|202:333|161:348,1,143.999995605469,0|10,3:0|0:3,0:0:0:0:
88,356,68531,1,2,0:3:0:0:
45,280,68698,1,2,0:3:0:0:
45,280,68781,1,2,0:3:0:0:
45,280,68864,2,0,L|2:275,2,35.9999989013672,2|2|10,3:0|0:3|0:3,0:0:0:0:
126,248,69198,1,2,0:3:0:0:
67,167,69364,6,0,L|62:121,2,35.9999989013672,0|0|0,3:0|0:0|0:0,0:0:0:0:
166,145,69698,2,0,L|171:99,2,35.9999989013672
267,179,70031,6,0,L|270:214,2,35.9999989013672,8|8|8,0:3|0:3|0:3,0:0:0:0:
375,161,70364,2,0,L|371:196,2,35.9999989013672,4|4|4,0:3|0:3|0:3,0:0:0:0:
470,100,70698,6,0,P|435:52|339:62,1,143.999995605469,4|8,3:2|0:0,0:0:0:0:
277,87,71198,1,6,0:0:0:0:
191,79,71364,2,0,P|164:103|162:165,1,71.9999978027344,6|2,0:0|3:1,0:0:0:0:
158,223,71698,1,10,0:0:0:0:
226,274,71864,1,6,0:0:0:0:
129,302,72031,6,0,P|83:254|96:167,1,143.999995605469,0|8,3:0|0:0,0:0:0:0:
148,119,72531,1,6,0:0:0:0:
212,176,72698,2,0,P|247:182|287:173,1,71.9999978027344,6|2,0:0|3:1,0:0:0:0:
344,114,73031,2,0,P|379:106|414:112,1,71.9999978027344,10|4,0:0|0:0,0:0:0:0:
483,187,73364,6,0,L|470:320,1,107.999996704102,2|0,3:1|2:0,0:0:0:0:
476,298,73698,2,0,P|436:281|379:297,1,71.9999978027344,10|2,0:3|0:3,0:0:0:0:
324,305,74031,1,2,0:3:0:0:
324,305,74114,1,2,0:3:0:0:
324,305,74198,2,0,L|317:356,2,35.9999989013672,2|2|10,3:0|0:3|0:3,0:0:0:0:
263,243,74531,1,2,0:3:0:0:
168,277,74698,6,0,P|118:296|61:280,1,107.999996704102,2|0,3:1|0:0,0:0:0:0:
66,283,75031,1,8,0:0:0:0:
116,213,75198,2,0,P|124:160|166:118,1,107.999996704102,2|0,0:1|0:0,0:0:0:0:
161,121,75531,1,0,3:0:0:0:
201,200,75698,2,0,P|242:233|257:291,1,107.999996704102,10|0,0:1|2:0,0:0:0:0:
262,289,76031,6,0,B|306:301|306:301|351:280|351:280|421:296,1,143.999995605469,0|8,3:0|0:0,0:0:0:0:
477,325,76531,1,6,0:0:0:0:
459,240,76698,2,0,P|449:210|452:167,1,71.9999978027344,6|2,0:0|3:1,0:0:0:0:
487,91,77031,1,10,0:0:0:0:
417,39,77198,1,6,0:0:0:0:
365,128,77364,6,0,B|294:155|291:101|216:127,1,143.999995605469,0|8,3:0|0:0,0:0:0:0:
160,182,77864,1,6,0:0:0:0:
91,129,78031,2,0,P|78:162|77:198,1,71.9999978027344,6|2,0:0|3:1,0:0:0:0:
69,284,78364,2,0,P|101:267|152:262,1,71.9999978027344,10|4,0:0|0:0,0:0:0:0:
231,291,78698,6,0,B|357:308,1,107.999996704102,2|0,3:1|2:0,0:0:0:0:
342,309,79031,2,0,P|381:300|416:249,1,71.9999978027344,10|2,0:3|0:3,0:0:0:0:
470,198,79364,1,2,0:3:0:0:
470,198,79448,1,2,0:3:0:0:
470,198,79531,2,0,L|521:184,2,35.9999989013672,2|2|10,3:0|0:3|0:3,0:0:0:0:
392,159,79864,1,2,0:3:0:0:
320,230,80031,6,0,B|283:243|283:243|195:230,1,107.999996704102,2|0,3:1|0:0,0:0:0:0:
214,232,80364,1,8,0:0:0:0:
269,165,80531,2,0,B|276:126|276:126|331:56,1,107.999996704102,2|0,0:0|0:0,0:0:0:0:
319,72,80864,1,0,3:0:0:0:
353,151,81031,2,0,B|382:176|382:176|415:259,1,107.999996704102,10|0,0:0|0:0,0:0:0:0:
413,245,81364,6,0,B|347:283|347:283|265:262,1,143.999995605469,4|8,3:2|0:0,0:0:0:0:
198,240,81864,1,6,0:0:0:0:
122,282,82031,2,0,B|85:280|85:280|42:259,1,71.9999978027344,6|2,0:0|3:1,0:0:0:0:
70,179,82364,1,10,0:0:0:0:
22,106,82531,1,6,0:0:0:0:
122,97,82698,6,0,P|173:129|275:99,1,143.999995605469,0|8,3:0|0:0,0:0:0:0:
318,61,83198,1,6,0:0:0:0:
395,97,83364,2,0,L|387:173,1,71.9999978027344,6|2,0:0|3:1,0:0:0:0:
302,188,83698,2,0,L|294:264,1,71.9999978027344,10|4,0:0|0:0,0:0:0:0:
221,332,84031,6,0,L|91:320,1,107.999996704102,2|0,3:1|2:0,0:0:0:0:
117,326,84364,2,0,L|126:240,1,71.9999978027344,10|2,0:3|0:3,0:0:0:0:
77,181,84698,1,2,0:3:0:0:
77,181,84781,1,2,0:3:0:0:
77,181,84864,2,0,L|16:177,2,35.9999989013672,2|2|10,3:0|0:3|0:3,0:0:0:0:
145,126,85198,1,2,0:3:0:0:
199,211,85364,6,0,L|317:214,1,107.999996704102,2|0,3:1|0:0,0:0:0:0:
307,213,85698,1,8,0:0:0:0:
345,136,85864,2,0,L|227:133,1,107.999996704102,2|0,0:1|0:0,0:0:0:0:
237,133,86198,1,0,3:0:0:0:
200,55,86364,2,0,L|318:58,1,107.999996704102,10|0,0:1|2:0,0:0:0:0:
311,62,86698,6,0,B|379:82|385:39|457:61,1,143.999995605469,0|8,3:0|0:0,0:0:0:0:
502,130,87198,1,6,0:0:0:0:
454,202,87364,2,0,P|447:229|451:278,1,71.9999978027344,6|2,0:0|3:1,0:0:0:0:
477,355,87698,1,10,0:0:0:0:
392,339,87864,1,6,0:0:0:0:
352,245,88031,6,0,P|244:298|223:292,1,143.999995605469,0|8,3:0|0:0,0:0:0:0:
159,243,88531,1,6,0:0:0:0:
97,305,88698,2,0,P|73:268|70:233,1,71.9999978027344,6|2,0:0|3:1,0:0:0:0:
115,167,89031,2,0,P|108:131|87:103,1,71.9999978027344,10|4,0:0|0:0,0:0:0:0:
1,51,89364,6,0,L|7:186,1,107.999996704102,0|0,3:0|2:0,0:0:0:0:
10,163,89698,2,0,L|14:254,1,71.9999978027344,2|2,0:3|0:3,0:0:0:0:
81,305,90031,1,10,0:3:0:0:
81,305,90114,1,2,0:3:0:0:
81,305,90198,2,0,L|77:347,2,35.9999989013672,2|2|2,0:3|0:3|0:3,0:0:0:0:
159,268,90531,1,2,0:3:0:0:
242,331,90698,6,0,L|281:324,2,35.9999989013672,0|0|0,3:0|1:0|1:0,0:0:0:0:
283,240,91031,2,0,L|322:233,2,35.9999989013672,0|0|0,1:0|1:0|1:0,0:0:0:0:
221,171,91364,6,0,L|182:164,2,35.9999989013672,8|8|8,0:3|0:3|0:3,0:0:0:0:
180,80,91697,2,0,L|141:73,2,35.9999989013672,4|4|4,0:3|0:3|0:3,0:0:0:0:
295,66,92031,6,0,L|430:36,1,120,6|0,3:2|0:0,0:0:0:0:
469,109,92531,1,2,0:0:0:0:
415,181,92697,1,8,0:0:0:0:
333,145,92864,2,0,P|274:143|227:179,1,120,0|0,0:0|0:0,0:0:0:0:
201,286,93364,6,0,L|139:297,1,60,2|0,3:2|0:0,0:0:0:0:
83,227,93697,2,0,L|72:165,1,60,0|2,0:0|0:0,0:0:0:0:
17,96,94031,2,0,B|57:81|57:81|153:88,1,120,8|2,0:0|0:0,0:0:0:0:
310,214,94697,6,0,B|314:255|314:255|300:290|300:290|304:330,1,120,2|0,3:2|0:0,0:0:0:0:
385,368,95197,1,2,0:0:0:0:
443,299,95364,1,8,0:0:0:0:
404,217,95531,2,0,P|388:165|416:79,1,120,0|0,0:0|0:0,0:0:0:0:
305,46,96031,6,0,L|171:54,1,120,2|0,3:2|0:0,0:0:0:0:
101,86,96531,1,2,0:0:0:0:
154,158,96697,2,0,L|151:226,1,60,8|0,0:0|0:0,0:0:0:0:
115,301,97031,2,0,P|142:310|184:302,1,60,2|0,0:0|0:0,0:0:0:0:
255,235,97364,6,0,P|282:224|376:264,1,120,2|0,3:2|0:0,0:0:0:0:
422,318,97864,1,2,0:0:0:0:
505,283,98031,1,8,0:0:0:0:
502,193,98197,1,0,0:0:0:0:
413,177,98364,2,0,P|401:148|400:119,1,60,2|0,0:0|0:0,0:0:0:0:
316,57,98697,6,0,L|184:65,1,120,2|0,3:2|0:0,0:0:0:0:
134,130,99197,1,2,0:0:0:0:
64,72,99364,2,0,P|43:121|78:197,1,120,8|2,0:0|0:0,0:0:0:0:
111,257,99864,1,0,0:0:0:0:
197,188,100031,6,0,L|319:171,1,120,2|0,3:2|0:0,0:0:0:0:
387,225,100531,1,2,0:0:0:0:
452,163,100697,2,0,L|436:44,1,120,8|2,0:0|0:0,0:0:0:0:
348,21,101197,1,0,0:0:0:0:
247,65,101364,6,0,B|244:108|244:108|260:142|260:142|261:188,1,120,2|0,3:2|0:0,0:0:0:0:
237,268,101864,1,2,0:0:0:0:
181,196,102031,2,0,B|180:156|180:156|164:122|164:122|167:79,1,120,8|2,0:0|0:0,0:0:0:0:
110,9,102531,1,0,0:0:0:0:
62,106,102697,6,0,L|54:245,1,120,6|0,3:2|0:0,0:0:0:0:
112,295,103197,1,2,0:0:0:0:
195,261,103364,1,8,0:0:0:0:
275,302,103531,2,0,B|317:308|317:308|352:293|352:293|403:302,1,120,0|0,0:0|0:0,0:0:0:0:
459,216,104031,6,0,P|471:188|466:134,1,60,2|0,3:2|0:0,0:0:0:0:
405,98,104364,2,0,P|375:99|347:111,1,60,0|2,0:0|0:0,0:0:0:0:
329,200,104697,2,0,B|296:216|296:216|202:200,1,120,8|2,0:0|0:0,0:0:0:0:
47,64,105364,6,0,B|106:41|103:76|173:51,1,120,2|0,3:2|0:0,0:0:0:0:
246,16,105864,1,2,0:0:0:0:
309,79,106031,1,8,0:0:0:0:
377,19,106198,2,0,P|401:60|377:138,1,120,0|0,0:0|0:0,0:0:0:0:
286,167,106697,6,0,L|294:299,1,120,2|0,3:2|0:0,0:0:0:0:
226,347,107197,1,2,0:0:0:0:
149,299,107364,2,0,L|60:305,1,60,8|0,0:0|0:0,0:0:0:0:
22,242,107697,2,0,L|18:182,1,60,2|0,0:0|0:0,0:0:0:0:
81,94,108031,6,0,B|132:91|132:91|149:76|149:76|207:71,1,120,2|0,3:2|0:0,0:0:0:0:
272,117,108531,1,2,0:0:0:0:
344,64,108697,1,8,0:0:0:0:
405,129,108864,1,0,0:0:0:0:
334,184,109031,2,0,L|327:258,1,60,2|0,0:0|0:0,0:0:0:0:
241,307,109364,6,0,B|183:322|183:322|114:300,1,120,2|0,3:2|0:0,0:0:0:0:
64,237,109864,1,2,0:0:0:0:
142,192,110031,2,0,P|170:138|149:63,1,120,8|2,0:0|0:0,0:0:0:0:
106,9,110531,1,0,0:0:0:0:
234,38,110697,6,0,B|291:59|291:59|358:49,1,120,2|0,3:2|0:0,0:0:0:0:
437,31,111197,1,2,0:0:0:0:
404,115,111364,2,0,B|383:172|383:172|393:239,1,120,8|2,0:0|0:0,0:0:0:0:
431,311,111864,1,0,0:0:0:0:
327,286,112031,6,0,L|189:299,1,120,2|0,3:2|0:0,0:0:0:0:
137,240,112531,1,2,0:0:0:0:
195,171,112698,2,0,L|333:158,1,120,8|2,0:0|0:0,0:0:0:0:
370,89,113197,1,0,0:0:0:0:
288,43,113364,6,0,B|236:86|204:59|167:33|116:81,1,180.000006866455,4|2,0:0|0:0,0:0:0:0:
119,77,114531,1,2,0:0:0:0:
119,77,116031,6,0,B|88:162|88:162|125:259,1,180.000006866455,0|2,0:0|0:0,0:0:0:0:
119,245,117198,1,2,0:0:0:0:
119,245,118698,6,0,B|177:238|177:238|234:259|234:259|309:246,1,180.000006866455,0|2,0:0|0:0,0:0:0:0:
293,248,119864,1,2,0:0:0:0:
293,248,121364,6,0,B|306:208|288:180|288:180|312:159|312:159|285:119|309:78,1,180.000006866455,0|2,0:0|0:0,0:0:0:0:
304,85,122531,1,2,0:0:0:0:
304,85,124031,6,0,B|287:148|323:135|296:218,1,120,4|0,3:2|0:0,0:0:0:0:
184,351,124698,2,0,B|201:288|165:301|192:218,1,120,0|0,3:0|0:0,0:0:0:0:
378,278,125364,2,0,B|315:260|328:296|245:269,1,120,0|0,3:0|0:0,0:0:0:0:
107,157,126031,2,0,B|169:174|156:138|239:165,1,120,0|0,3:0|0:0,0:0:0:0:
430,242,126698,6,0,P|372:258|302:228,1,120,0|0,3:0|0:0,0:0:0:0:
107,157,127364,2,0,P|165:141|235:171,1,120,0|0,3:0|0:0,0:0:0:0:
227,362,128031,2,0,P|211:304|241:234,1,120,0|0,3:0|0:0,0:0:0:0:
309,34,128698,2,0,P|325:92|295:162,1,120,0|0,3:0|0:0,0:0:0:0:
175,107,129364,6,0,P|135:113|93:99,1,71.9999978027344,0|0,3:0|0:0,0:0:0:0:
36,169,129698,2,0,P|42:209|28:251,1,71.9999978027344,0|0,3:0|0:0,0:0:0:0:
100,305,130031,2,0,P|140:299|182:313,1,71.9999978027344,0|0,3:0|0:0,0:0:0:0:
239,243,130365,2,0,P|233:203|247:161,1,71.9999978027344,0|0,3:0|0:0,0:0:0:0:
334,173,130698,6,0,P|371:187|401:220,1,71.9999978027344,0|0,3:0|0:0,0:0:0:0:
465,270,131031,2,0,P|433:295|389:304,1,71.9999978027344,0|0,3:0|0:0,0:0:0:0:
315,336,131364,2,0,P|309:296|323:254,1,71.9999978027344,0|0,3:0|0:0,0:0:0:0:
393,209,131698,2,0,P|417:182|429:149,1,71.9999978027344,0|0,3:0|0:0,0:0:0:0:
425,55,132031,6,0,L|338:52,1,71.9999978027344,0|0,3:0|0:0,0:0:0:0:
341,145,132364,2,0,L|269:147,1,71.9999978027344,0|0,3:0|0:0,0:0:0:0:
174,148,132698,2,0,L|102:145,1,71.9999978027344,0|0,3:0|0:0,0:0:0:0:
90,53,133031,2,0,L|18:55,1,71.9999978027344,0|0,3:0|0:0,0:0:0:0:
25,148,133364,6,0,L|36:249,1,71.9999978027344,0|0,3:0|0:0,0:0:0:0:
118,284,133698,2,0,L|126:213,1,71.9999978027344,0|0,3:0|0:0,0:0:0:0:
219,215,134031,2,0,L|226:286,1,71.9999978027344,0|0,3:0|0:0,0:0:0:0:
313,221,134365,2,0,L|320:149,1,71.9999978027344,0|0,3:0|0:0,0:0:0:0:
397,97,134698,5,12,3:2:0:0:
237,81,135031,1,8,0:0:0:0:
226,240,135364,1,8,0:0:0:0:
386,256,135697,1,8,0:0:0:0:
397,97,136031,5,8,0:0:0:0:
226,240,136364,1,8,0:0:0:0:
237,81,136698,1,8,0:0:0:0:
386,256,137031,1,8,0:0:0:0:
226,240,137364,5,8,0:0:0:0:
67,213,137698,1,8,0:0:0:0:
226,149,138031,1,8,0:0:0:0:
69,307,138364,1,8,0:0:0:0:
226,240,138698,5,8,0:0:0:0:
385,267,139032,1,8,0:0:0:0:
226,331,139365,1,8,0:0:0:0:
383,173,139698,1,8,0:0:0:0:
226,240,140031,6,0,P|187:248|147:236,1,71.9999978027344,8|8,3:1|0:0,0:0:0:0:
192,154,140364,2,0,P|231:146|271:158,1,71.9999978027344,8|8,0:0|0:0,0:0:0:0:
316,229,140698,2,0,P|350:236|385:228,1,71.9999978027344,8|8,0:0|0:0,0:0:0:0:
422,141,141031,2,0,P|387:133|352:141,1,71.9999978027344,8|8,0:0|0:0,0:0:0:0:
297,65,141364,6,0,P|262:73|227:65,1,71.9999978027344,8|8,0:0|0:0,0:0:0:0:
138,30,141698,2,0,P|130:65|139:100,1,71.9999978027344,8|8,0:0|0:0,0:0:0:0:
102,186,142031,2,0,P|136:177|171:185,1,71.9999978027344,8|8,0:0|0:0,0:0:0:0:
261,221,142365,2,0,P|268:186|260:151,1,71.9999978027344,8|0,0:0|0:0,0:0:0:0:
319,78,142698,6,0,L|344:36,2,35.9999989013672,0|0|0,3:0|1:0|1:0,0:0:0:0:
420,115,143031,2,0,L|462:91,2,35.9999989013672,0|0|0,1:0|1:0|1:0,0:0:0:0:
431,222,143364,2,0,L|479:223,2,35.9999989013672,0|0|0,1:0|1:0|1:0,0:0:0:0:
375,315,143697,2,0,L|416:340,2,35.9999989013672,0|0|0,1:0|1:0|1:0,0:0:0:0:
266,323,144031,6,0,L|212:307,2,35.9999989013672
226,214,144364,2,0,L|210:160,2,35.9999989013672
347,193,144698,6,0,L|357:228,2,35.9999989013672,8|8|8,0:3|0:3|0:3,0:0:0:0:
420,86,145031,2,0,L|454:76,2,35.9999989013672,4|4|4,0:3|0:3|0:3,0:0:0:0:
269,61,145364,6,0,L|191:59,1,77.9999964294435,2|2,3:1|0:0,0:0:0:0:
104,18,145698,2,0,L|99:113,1,77.9999964294435,8|2,0:0|0:0,0:0:0:0:
41,169,146031,2,0,P|85:188|166:161,1,116.999994644165,2|2,3:1|0:0,0:0:0:0:
150,173,146364,1,8,0:0:0:0:
230,124,146531,1,2,0:0:0:0:
294,214,146698,5,0,3:0:0:0:
372,163,146864,2,0,L|376:116,2,38.9999982147218,0|0|10,0:0|0:0|0:0,0:0:0:0:
427,315,147364,1,2,3:1:0:0:
334,297,147531,1,2,0:0:0:0:
251,342,147698,2,0,L|156:333,1,77.9999964294435,10|2,0:0|0:0,0:0:0:0:
64,337,148031,5,2,3:1:0:0:
64,337,148114,1,2,0:0:0:0:
64,337,148198,1,2,0:0:0:0:
25,251,148364,2,0,L|36:173,1,77.9999964294435,8|2,0:0|0:0,0:0:0:0:
13,82,148698,2,0,B|49:97|49:97|151:76,1,116.999994644165,2|2,3:1|0:0,0:0:0:0:
129,85,149031,2,0,P|156:114|206:113,1,77.9999964294435,8|2,0:0|0:0,0:0:0:0:
294,75,149364,5,0,3:0:0:0:
359,132,149531,2,0,L|351:217,1,77.9999964294435,2|10,0:0|0:0,0:0:0:0:
282,273,149864,1,0,3:0:0:0:
339,338,150031,2,0,L|424:330,1,77.9999964294435,2|2,0:0|3:1,0:0:0:0:
492,274,150364,1,8,0:0:0:0:
430,206,150531,1,0,0:0:0:0:
487,114,150698,6,0,P|461:96|399:104,1,77.9999964294435,2|2,3:1|0:0,0:0:0:0:
340,151,151031,2,0,P|301:152|268:132,1,77.9999964294435,8|2,0:0|0:0,0:0:0:0:
195,73,151364,2,0,P|136:93|63:91,1,116.999994644165,2|2,3:1|0:0,0:0:0:0:
81,94,151698,1,8,0:0:0:0:
117,180,151864,1,2,0:0:0:0:
76,282,152031,5,0,3:0:0:0:
149,340,152198,2,0,L|236:323,1,77.9999964294435,0|10,0:0|0:0,0:0:0:0:
318,313,152531,1,0,0:0:0:0:
260,240,152698,2,0,L|277:153,1,77.9999964294435,2|2,3:1|0:0,0:0:0:0:
366,142,153031,2,0,L|349:55,1,77.9999964294435,10|2,0:0|0:0,0:0:0:0:
259,28,153364,5,2,3:1:0:0:
259,28,153448,1,2,0:0:0:0:
259,28,153531,1,2,0:0:0:0:
197,98,153698,2,0,L|93:93,1,77.9999964294435,8|2,0:0|0:0,0:0:0:0:
40,145,154031,2,0,P|31:199|58:287,1,116.999994644165,2|2,3:1|0:0,0:0:0:0:
47,263,154364,2,0,P|93:260|131:274,1,77.9999964294435,8|2,0:0|0:0,0:0:0:0:
227,344,154698,6,0,L|243:243,1,77.9999964294435,0|0,3:0|2:0,0:0:0:0:
239,266,154948,2,0,L|339:282,1,77.9999964294435,8|0,0:0|2:0,0:0:0:0:
316,278,155198,2,0,L|328:200,1,77.9999964294435,0|0,3:0|2:0,0:0:0:0:
328,200,155448,2,0,L|405:212,1,77.9999964294435,0|0,3:0|2:0,0:0:0:0:
405,212,155698,2,0,L|419:147,2,38.9999982147218,10|2|0,0:0|0:0|2:0,0:0:0:0:
468,116,156031,6,0,P|436:97|383:99,1,77.9999964294435,2|2,3:1|0:0,0:0:0:0:
305,119,156364,2,0,P|266:117|233:98,1,77.9999964294435,8|2,0:0|0:0,0:0:0:0:
160,37,156698,2,0,P|141:81|168:162,1,116.999994644165,2|2,3:1|0:0,0:0:0:0:
155,146,157031,1,8,0:0:0:0:
128,235,157198,1,2,0:0:0:0:
237,252,157365,5,0,3:0:0:0:
309,193,157531,2,0,L|313:146,2,38.9999982147218,0|0|10,0:0|0:0|0:0,0:0:0:0:
469,290,158031,1,2,3:1:0:0:
422,208,158198,1,2,0:0:0:0:
356,275,158365,2,0,L|344:355,1,77.9999964294435,10|2,0:0|0:0,0:0:0:0:
241,376,158698,5,2,3:1:0:0:
241,376,158781,1,2,0:0:0:0:
241,376,158865,1,2,0:0:0:0:
156,336,159031,2,0,L|167:258,1,77.9999964294435,8|2,0:0|0:0,0:0:0:0:
112,182,159364,2,0,P|146:168|226:188,1,116.999994644165,2|2,3:1|0:0,0:0:0:0:
226,189,159698,2,0,L|259:101,1,77.9999964294435,8|2,0:0|0:0,0:0:0:0:
302,17,160031,5,0,3:0:0:0:
366,85,160198,2,0,L|358:170,1,77.9999964294435,2|10,0:0|0:0,0:0:0:0:
421,232,160531,1,0,3:0:0:0:
356,299,160698,2,0,L|278:306,1,77.9999964294435,2|2,0:0|3:1,0:0:0:0:
205,247,161031,1,8,0:0:0:0:
133,308,161198,1,0,0:0:0:0:
109,201,161364,6,0,L|102:91,1,90,2|0,3:1|0:0,0:0:0:0:
100,71,161698,2,0,P|137:61|175:68,1,60,4|4,0:1|0:1,0:0:0:0:
186,135,162031,2,0,P|224:138|257:157,1,60,12|4,0:1|0:1,0:0:0:0:
250,224,162364,2,0,P|284:240|309:269,1,60,4|4,0:1|0:1,0:0:0:0:
325,339,162698,6,0,L|436:329,1,90,0|0,3:0|0:0,0:0:0:0:
453,325,163031,2,0,L|466:245,1,60,4|4,0:1|0:1,0:0:0:0:
404,213,163364,2,0,L|391:133,1,60,12|4,0:1|0:1,0:0:0:0:
469,130,163698,2,0,L|482:50,1,60,4|4,0:1|0:1,0:0:0:0:
407,22,164031,6,0,L|401:-8,2,30,0|0|0,3:0|1:0|1:0,0:0:0:0:
337,79,164364,2,0,L|343:109,2,30,0|0|0,1:0|1:0|1:0,0:0:0:0:
257,34,164698,2,0,L|263:4,2,30,2|0|0,1:0|1:0|0:0,0:0:0:0:
199,103,165031,2,0,L|205:133,2,30,0|0|2,1:0|1:0|1:0,0:0:0:0:
118,61,165364,6,0,L|113:21,2,30
67,143,165698,2,0,L|37:147,2,30
120,230,166031,6,0,L|165:219,2,30,2|2|2,0:0|0:0|0:0,0:0:0:0:
229,294,166364,2,0,L|199:301,2,30,2|2|2,0:0|0:0|0:0,0:0:0:0:
340,248,166698,6,0,P|356:216|357:166,1,77.9999964294435,2|2,3:1|0:0,0:0:0:0:
287,113,167031,2,0,P|271:145|270:195,1,77.9999964294435,8|0,0:0|0:0,0:0:0:0:
340,248,167364,2,0,B|382:267|382:267|481:253,1,116.999994644165,2|2,0:0|0:0,0:0:0:0:
452,257,167698,1,8,0:0:0:0:
502,177,167865,1,2,0:0:0:0:
456,75,168032,5,0,3:0:0:0:
376,123,168198,2,0,L|372:170,2,38.9999982147218,0|0|10,0:0|0:0|0:0,0:0:0:0:
209,37,168698,1,2,0:0:0:0:
131,89,168865,1,2,3:1:0:0:
195,156,169032,2,0,L|186:251,1,77.9999964294435,10|0,0:0|0:0,0:0:0:0:
123,325,169365,5,2,3:1:0:0:
123,325,169448,1,2,0:0:0:0:
123,325,169532,1,0,0:0:0:0:
212,352,169698,2,0,L|290:341,1,77.9999964294435,8|2,0:0|0:0,0:0:0:0:
356,274,170032,2,0,B|398:279|398:279|425:257|425:257|494:264,1,116.999994644165,2|2,0:0|0:0,0:0:0:0:
468,265,170364,2,0,B|463:222|463:222|474:176,1,77.9999964294435,8|2,0:0|0:0,0:0:0:0:
510,87,170698,5,0,3:0:0:0:
423,122,170865,2,0,L|338:114,1,77.9999964294435,2|10,0:0|0:0,0:0:0:0:
276,51,171198,1,0,3:0:0:0:
199,105,171365,2,0,L|207:190,1,77.9999964294435,2|2,0:0|3:1,0:0:0:0:
274,247,171698,1,8,0:0:0:0:
215,320,171865,1,0,0:0:0:0:
112,289,172031,6,0,P|102:251|111:201,1,77.9999964294435,2|2,3:1|0:0,0:0:0:0:
158,135,172364,2,0,P|199:150|253:135,1,77.9999964294435,8|0,0:0|0:0,0:0:0:0:
306,87,172698,2,0,B|355:90|355:90|377:99|377:99|455:103,1,116.999994644165,2|2,0:0|0:0,0:0:0:0:
421,101,173032,1,8,0:0:0:0:
472,178,173198,1,2,0:0:0:0:
388,250,173365,5,0,3:0:0:0:
289,240,173532,2,0,L|272:153,1,77.9999964294435,0|10,0:0|0:0,0:0:0:0:
255,71,173865,1,0,0:0:0:0:
182,130,174032,2,0,L|105:144,1,77.9999964294435,2|2,0:0|3:1,0:0:0:0:
33,205,174365,2,0,L|16:118,1,77.9999964294435,10|2,0:0|0:0,0:0:0:0:
84,44,174698,5,2,3:1:0:0:
84,44,174782,1,2,0:0:0:0:
84,44,174865,1,2,0:0:0:0:
173,70,175032,2,0,L|253:61,1,77.9999964294435,8|2,0:0|0:0,0:0:0:0:
324,4,175364,2,0,P|341:78|304:135,1,116.999994644165,2|2,0:0|0:0,0:0:0:0:
329,118,175698,2,0,P|326:168|345:210,1,77.9999964294435,8|2,0:0|0:0,0:0:0:0:
414,279,176031,5,0,3:0:0:0:
333,327,176198,2,0,L|342:372,2,38.9999982147218,2|0|10,0:0|0:0|0:0,0:0:0:0:
245,292,176531,1,0,3:0:0:0:
157,325,176698,2,0,L|139:370,2,38.9999982147218,2|2|2,0:0|0:0|3:1,0:0:0:0:
94,255,177031,2,0,L|49:274,2,38.9999982147218,10|2|2,0:0|0:0|0:0,0:0:0:0:
193,219,177364,6,0,B|225:198|225:198|277:197,1,77.9999964294435,2|2,3:1|0:0,0:0:0:0:
357,212,177698,2,0,B|396:211|396:211|428:190,1,77.9999964294435,8|2,0:0|0:0,0:0:0:0:
506,136,178032,2,0,P|487:180|514:261,1,116.999994644165,2|2,0:0|0:0,0:0:0:0:
501,245,178365,1,8,0:0:0:0:
450,323,178532,1,2,0:0:0:0:
355,265,178699,5,0,3:0:0:0:
277,317,178865,2,0,L|273:364,2,38.9999982147218,0|0|10,0:0|0:0|0:0,0:0:0:0:
210,141,179365,1,2,0:0:0:0:
171,226,179532,1,2,3:1:0:0:
264,221,179698,2,0,P|293:192|302:141,1,77.9999964294435,10|2,0:0|0:0,0:0:0:0:
293,57,180032,5,2,3:1:0:0:
293,57,180115,1,2,0:0:0:0:
293,57,180199,1,0,0:0:0:0:
379,92,180365,2,0,L|457:103,1,77.9999964294435,8|2,0:0|0:0,0:0:0:0:
471,195,180698,2,0,B|460:228|460:228|474:343,1,116.999994644165,2|2,0:0|0:0,0:0:0:0:
473,314,181031,2,0,P|428:307|385:330,1,77.9999964294435,8|2,0:0|0:0,0:0:0:0:
300,372,181365,5,0,3:0:0:0:
227,312,181532,2,0,L|149:304,1,77.9999964294435,2|10,0:0|0:0,0:0:0:0:
89,232,181865,1,0,3:0:0:0:
166,178,182032,2,0,L|244:171,1,77.9999964294435,2|2,0:0|3:1,0:0:0:0:
307,102,182365,1,8,0:0:0:0:
239,36,182532,1,0,0:0:0:0:
143,89,182698,6,0,L|41:79,1,90,2|0,3:1|0:0,0:0:0:0:
12,73,183031,2,0,P|15:105|-4:156,1,60,4|4,0:1|0:1,0:0:0:0:
7,210,183364,2,0,P|6:251|28:281,1,60,12|4,0:1|0:1,0:0:0:0:
92,256,183698,2,0,P|108:252|159:274,1,60,4|4,0:1|0:1,0:0:0:0:
206,335,184031,6,0,L|323:331,1,90,0|0,3:0|0:0,0:0:0:0:
299,336,184364,2,0,B|319:308|316:255,1,60,4|4,0:1|0:1,0:0:0:0:
394,270,184698,2,0,B|403:236|382:188,1,60,12|4,0:1|0:1,0:0:0:0:
454,165,185031,2,0,B|451:130|415:92,1,60,4|4,0:1|0:1,0:0:0:0:
346,68,185364,6,0,L|335:21,2,30,0|0|0,3:0|1:0|1:0,0:0:0:0:
306,149,185698,2,0,L|299:178,2,30,0|0|0,1:0|0:0|1:0,0:0:0:0:
242,84,186031,2,0,L|235:54,2,30,2|0|0,1:0|1:0|1:0,0:0:0:0:
176,145,186364,2,0,L|169:174,2,30,0|0|2,1:0|1:0|1:0,0:0:0:0:
81,123,186698,6,0,L|51:130,2,30
101,223,187031,2,0,L|72:229,2,30
200,264,187364,6,0,L|208:308,2,30,2|2|2,0:0|0:0|0:0,0:0:0:0:
298,178,187698,2,0,L|293:208,2,30,2|2|0,0:0|0:0|0:0,0:0:0:0:
414,86,188031,6,0,P|360:60|282:76,1,120,4|8,3:2|0:0,0:0:0:0:
235,107,188531,1,0,0:0:0:0:
168,88,188698,2,0,P|133:98|98:92,1,60,2|0,0:0|3:0,0:0:0:0:
110,96,188948,1,2,0:0:0:0:
110,96,189031,2,0,P|99:135|103:158,1,60,8|2,0:0|0:0,0:0:0:0:
96,231,189364,5,0,3:0:0:0:
165,267,189530,1,2,0:0:0:0:
234,230,189697,2,0,L|244:181,2,30,8|2|0,0:0|0:0|0:0,0:0:0:0:
296,281,190030,1,2,0:0:0:0:
367,248,190197,1,0,3:0:0:0:
367,248,190280,1,2,0:0:0:0:
367,248,190364,2,0,P|394:259|437:249,1,60,8|2,0:0|0:0,0:0:0:0:
484,194,190697,6,0,L|469:49,1,120,0|8,3:0|0:0,0:0:0:0:
402,38,191197,1,0,0:0:0:0:
344,91,191364,2,0,L|273:99,1,60,2|0,0:0|3:0,0:0:0:0:
284,98,191614,1,2,0:0:0:0:
284,98,191697,2,0,L|293:177,1,60,8|2,0:0|0:0,0:0:0:0:
251,232,192031,5,0,3:0:0:0:
180,198,192198,1,2,0:0:0:0:
131,259,192364,2,0,L|99:242,2,30,8|2|0,0:0|0:0|3:0,0:0:0:0:
171,326,192698,1,2,0:0:0:0:
248,316,192864,1,0,3:0:0:0:
248,316,192948,1,2,0:0:0:0:
248,316,193031,2,0,P|273:334|322:333,1,60,8|2,0:0|0:0,0:0:0:0:
385,303,193364,6,0,B|404:246|404:246|394:165,1,120,0|8,3:0|0:0,0:0:0:0:
376,110,193864,1,0,0:0:0:0:
306,136,194031,2,0,P|270:143|240:133,1,60,2|0,0:0|3:0,0:0:0:0:
248,137,194281,1,2,0:0:0:0:
248,137,194364,2,0,P|260:97|256:62,1,60,8|2,0:0|0:0,0:0:0:0:
189,23,194698,5,0,3:0:0:0:
126,68,194864,1,2,0:0:0:0:
48,74,195031,2,0,L|25:38,2,30,8|2|0,0:0|0:0|0:0,0:0:0:0:
64,150,195364,1,2,0:0:0:0:
36,228,195531,1,0,3:0:0:0:
36,228,195614,1,2,0:0:0:0:
36,228,195698,2,0,P|55:251|106:251,1,60,8|2,0:0|0:0,0:0:0:0:
147,199,196031,6,0,B|191:185|191:185|223:189|223:189|282:170,1,120,2|10,3:1|0:1,0:0:0:0:
319,122,196531,1,0,0:0:0:0:
393,175,196698,2,0,L|386:244,1,60,2|0,0:1|3:0,0:0:0:0:
387,235,196948,1,2,0:1:0:0:
387,235,197031,2,0,L|456:238,1,60,8|2,0:0|0:1,0:0:0:0:
508,172,197364,6,0,P|519:138|500:94,1,60,2|2,3:1|0:0,0:0:0:0:
468,51,197698,1,10,0:1:0:0:
402,92,197864,2,0,P|362:97|323:80,1,60,0|2,3:0|0:1,0:0:0:0:
274,54,198198,1,0,3:0:0:0:
216,105,198364,2,0,B|199:134|199:134|207:205,1,90,8|0,0:0|0:0,0:0:0:0:
209,194,198698,6,0,B|151:210|151:210|84:186,1,120,4|8,3:2|0:0,0:0:0:0:
29,146,199198,1,0,0:0:0:0:
14,222,199364,2,0,P|13:261|26:293,1,60,2|0,0:0|3:0,0:0:0:0:
19,280,199614,1,2,0:0:0:0:
19,280,199698,2,0,B|43:301|94:288,1,60,8|2,0:0|0:0,0:0:0:0:
164,269,200031,5,0,3:0:0:0:
229,312,200198,2,0,L|223:353,2,30,2|0|8,0:0|0:0|0:0,0:0:0:0:
294,269,200531,1,0,0:0:0:0:
271,194,200698,1,2,0:0:0:0:
199,201,200864,1,0,3:0:0:0:
199,201,200948,1,2,0:0:0:0:
199,201,201031,2,0,P|188:159|196:130,1,60,8|2,0:0|0:0,0:0:0:0:
223,60,201364,6,0,P|276:72|360:37,1,120,0|8,3:0|0:0,0:0:0:0:
406,17,201864,1,0,0:0:0:0:
467,85,202031,2,0,P|456:125|459:156,1,60,2|0,0:0|3:0,0:0:0:0:
456,143,202281,1,2,0:0:0:0:
456,143,202364,2,0,P|465:171|466:201,1,60,8|2,0:0|0:0,0:0:0:0:
437,287,202698,6,0,B|409:299|409:299|369:281,1,60,0|2,3:0|0:0,0:0:0:0:
313,249,203031,1,8,0:0:0:0:
252,297,203198,2,0,B|225:309|225:309|197:297,1,60,0|2,3:0|0:0,0:0:0:0:
122,272,203531,1,0,3:0:0:0:
60,320,203698,2,0,B|44:278|44:278|56:213,1,90,8|0,0:0|0:0,0:0:0:0:
56,237,204031,6,0,B|67:189|67:189|41:97,1,120,0|8,3:0|0:0,0:0:0:0:
17,48,204531,1,0,0:0:0:0:
104,66,204697,2,0,P|136:68|177:45,1,60,2|0,0:0|3:0,0:0:0:0:
162,58,204948,1,2,0:0:0:0:
162,58,205031,2,0,P|189:47|219:50,1,60,8|2,0:0|0:0,0:0:0:0:
291,107,205364,5,0,3:0:0:0:
366,88,205531,2,0,L|374:52,2,30,2|0|8,0:0|0:0|0:0,0:0:0:0:
396,160,205864,1,0,0:0:0:0:
470,184,206031,1,2,0:0:0:0:
439,263,206198,1,0,3:0:0:0:
439,263,206281,1,2,0:0:0:0:
439,263,206364,2,0,P|406:278|365:273,1,60,8|2,0:0|0:0,0:0:0:0:
295,257,206698,6,0,L|155:277,1,120,2|10,3:1|0:1,0:0:0:0:
113,321,207198,1,0,0:0:0:0:
50,294,207364,2,0,P|46:264|64:221,1,60,2|0,0:1|3:0,0:0:0:0:
54,235,207614,1,2,0:1:0:0:
54,235,207698,2,0,P|62:206|57:176,1,60,8|2,0:0|0:1,0:0:0:0:
25,90,208031,6,0,L|104:79,1,60,2|2,3:1|0:0,0:0:0:0:
147,35,208364,1,10,0:1:0:0:
194,97,208531,2,0,L|273:86,1,60,0|2,3:0|0:1,0:0:0:0:
316,42,208864,1,0,3:0:0:0:
369,99,209031,2,0,L|476:84,1,90,8|0,0:0|0:0,0:0:0:0:
462,90,209364,6,0,L|479:231,1,120,6|0,3:2|0:0,0:0:0:0:
428,271,209864,1,2,0:0:0:0:
352,253,210030,1,8,0:0:0:0:
284,289,210197,2,0,P|230:280|191:221,1,120,0|0,0:0|0:0,0:0:0:0:
219,143,210697,6,0,L|209:71,1,60,2|0,3:2|0:0,0:0:0:0:
137,55,211031,2,0,L|77:63,1,60,0|2,0:0|0:0,0:0:0:0:
33,127,211364,2,0,B|18:167|18:167|47:261,1,120,8|2,0:0|0:0,0:0:0:0:
174,320,212030,6,0,B|214:316|214:316|249:330|249:330|301:325,1,120,2|0,3:2|0:0,0:0:0:0:
340,265,212530,1,2,0:0:0:0:
413,291,212697,1,8,0:0:0:0:
456,226,212864,2,0,P|469:166|438:100,1,120,0|0,0:0|0:0,0:0:0:0:
368,74,213364,6,0,L|228:83,1,120,2|0,3:2|0:0,0:0:0:0:
174,56,213864,1,2,0:0:0:0:
179,133,214031,2,0,P|179:170|164:197,1,60,8|0,0:0|0:0,0:0:0:0:
104,235,214364,2,0,P|104:272|118:298,1,60,2|0,0:0|0:0,0:0:0:0:
195,338,214697,6,0,B|239:347|239:347|267:335|267:335|322:348,1,120,2|0,3:2|0:0,0:0:0:0:
383,318,215197,1,2,0:0:0:0:
353,245,215364,1,8,0:0:0:0:
413,195,215530,1,0,0:0:0:0:
371,128,215697,2,0,P|359:99|358:70,1,60,2|0,0:0|0:0,0:0:0:0:
278,31,216030,6,0,P|220:57|146:39,1,120,2|0,3:2|0:0,0:0:0:0:
88,39,216530,1,0,0:0:0:0:
32,93,216698,2,0,P|16:130|50:208,1,120,8|2,0:0|0:1,0:0:0:0:
111,236,217197,1,2,0:0:0:0:
173,167,217364,6,0,L|295:150,1,120,2|2,3:1|0:1,0:0:0:0:
356,195,217864,1,2,0:0:0:0:
306,255,218031,2,0,L|187:271,1,120,10|2,0:1|0:0,0:0:0:0:
111,236,218531,1,2,0:1:0:0:
94,149,218698,6,0,B|80:95|104:54|104:54|121:74,1,120,2|2,3:1|0:1,0:0:0:0:
172,126,219197,1,2,0:0:0:0:
226,181,219364,2,0,B|280:195|321:171|321:171|301:154,1,120,10|2,0:1|0:0,0:0:0:0:
249,103,219863,1,2,0:1:0:0:
160,132,220031,6,0,P|147:160|182:248,1,120,0|0,3:0|0:0,0:0:0:0:
236,285,220530,1,2,0:0:0:0:
305,248,220697,1,8,0:0:0:0:
365,297,220864,2,0,B|449:285|449:285|477:253,1,120,0|0,0:0|0:0,0:0:0:0:
462,170,221364,6,0,L|451:88,1,60,2|0,3:2|0:0,0:0:0:0:
392,62,221697,2,0,P|362:63|334:75,1,60,0|2,0:0|0:0,0:0:0:0:
302,147,222031,2,0,P|244:159|185:135,1,120,8|2,0:0|0:0,0:0:0:0:
72,241,222697,6,0,B|51:270|51:270|59:367,1,120,2|0,3:2|0:0,0:0:0:0:
132,376,223197,1,2,0:0:0:0:
183,317,223364,1,8,0:0:0:0:
255,346,223531,2,0,P|307:354|366:296,1,120,0|0,0:0|0:0,0:0:0:0:
401,237,224031,6,0,L|384:102,1,120,2|0,3:2|0:0,0:0:0:0:
314,86,224530,1,2,0:0:0:0:
255,138,224698,2,0,L|180:146,1,60,8|0,0:3|0:0,0:0:0:0:
129,101,225031,2,0,L|54:109,1,60,2|0,0:0|0:0,0:0:0:0:
20,185,225364,6,0,B|2:221|2:221|18:301,1,120,2|0,3:2|0:0,0:0:0:0:
86,337,225864,1,2,0:0:0:0:
142,283,226030,1,8,0:0:0:0:
209,322,226197,1,0,0:0:0:0:
275,281,226364,2,0,L|334:286,1,60,2|0,0:0|0:0,0:0:0:0:
393,356,226698,6,0,P|426:305|406:238,1,120,2|0,3:2|0:0,0:0:0:0:
378,181,227197,1,0,0:0:0:0:
300,188,227364,2,0,B|255:184|255:184|228:203|228:203|158:193,1,120,10|2,0:0|0:1,0:0:0:0:
128,145,227864,1,0,0:0:0:0:
50,191,228031,6,0,L|56:320,1,120,2|2,3:1|0:1,0:0:0:0:
113,362,228530,1,2,0:0:0:0:
184,330,228698,2,0,B|228:321|228:321|258:328|258:328|322:318,1,120,10|2,0:1|0:0,0:0:0:0:
375,296,229197,1,2,0:1:0:0:
419,219,229364,6,0,B|403:174|403:174|423:76,1,120,2|2,3:1|0:1,0:0:0:0:
430,26,229864,1,2,0:0:0:0:
358,57,230031,2,0,P|291:66|235:44,1,120,10|2,0:1|0:0,0:0:0:0:
173,11,230531,1,2,0:1:0:0:
128,97,230698,6,0,B|110:143|110:143|121:285,1,180.000006866455,6|2,3:2|0:0,0:0:0:0:
120,273,231864,1,2,0:0:0:0:
120,273,232864,5,2,0:0:0:0:
205,253,233031,2,0,L|277:261,1,67.5000025749207
276,264,233364,6,0,P|337:259|274:200,1,180.000006866455,2|2,0:0|0:0,0:0:0:0:
290,190,234531,1,2,0:0:0:0:
290,190,236031,6,0,B|194:143|213:227|110:181,1,180.000006866455,2|2,0:0|0:0,0:0:0:0:
117,184,237198,1,2,0:0:0:0:
117,184,238198,5,2,0:0:0:0:
57,143,238364,2,0,L|51:63,1,67.5000025749207,0|0,0:0|0:0,0:0:0:0:
55,79,238698,6,0,B|111:68|111:68|169:89|169:89|240:71,1,180.000006866455,2|2,0:0|0:0,0:0:0:0:
228,74,239864,1,2,0:0:0:0:
228,74,241364,6,0,B|213:121|213:121|242:196|242:196|221:258,1,180.000006866455,6|2,0:0|0:0,0:0:0:0:
225,243,242530,1,2,0:0:0:0:
225,243,243530,5,2,0:0:0:0:
153,259,243697,2,0,P|119:264|85:251,1,67.5000025749207,0|0,0:0|0:0,0:0:0:0:
92,257,244031,6,0,B|130:204|141:115|77:118|60:171|100:182,1,180.000006866455,2|2,0:0|0:0,0:0:0:0:
94,180,245197,1,2,0:0:0:0:
94,180,246697,6,0,B|189:222|170:138|266:185,1,180.000006866455,2|2,0:0|0:0,0:0:0:0:
265,185,247864,1,0,0:0:0:0:
265,185,248864,5,2,0:0:0:0:
311,242,249031,2,0,P|334:212|335:172,1,67.5000025749207,0|0,0:0|0:0,0:0:0:0:
340,187,249364,6,0,B|401:177|401:177|446:205|446:205|524:191,1,180.000006866455,2|2,0:0|0:0,0:0:0:0:
510,193,250530,1,0,0:0:0:0:
508,193,252031,6,0,B|508:160|487:137|487:137|503:110|501:79|501:79|454:83|421:120|421:120|421:76|400:37|400:37|341:39|317:77,1,390,6|2,0:0|0:0,0:0:0:0:
160,23,254698,2,0,B|160:56|181:79|181:79|165:106|167:137|167:137|214:133|247:96|247:96|247:140|268:179|268:179|327:177|351:139,1,390,2|2,0:0|0:0,0:0:0:0:
512,195,257365,6,0,B|471:170|443:222|398:205|398:205|396:257|369:289|369:289|333:298|286:264|286:264|236:294|197:268,1,390,6|2,0:0|0:0,0:0:0:0:
13,274,260031,2,0,B|54:299|82:246|127:264|127:264|128:211|155:179|155:179|191:170|239:204|239:204|288:174|328:201,1,390,2|2,0:0|0:0,0:0:0:0:
421,336,262698,6,0,B|411:264|458:225|458:225|408:202|401:161|401:161|352:153|323:197|323:197|306:146|255:137,1,390,6|0,0:0|0:0,0:0:0:0:
151,75,265364,2,0,B|158:144|112:183|112:183|162:206|170:247|170:247|219:256|247:212|247:212|264:263|315:272,1,390,2|0,0:0|0:0,0:0:0:0:
445,251,268031,6,0,B|479:208|473:137|473:137|386:161|386:161|310:114|310:114|221:138,1,390,2|0,0:0|0:0,0:0:0:0:
73,163,270698,2,0,B|37:204|44:274|44:274|131:251|131:251|206:297|206:297|294:272,1,390,2|0,0:0|0:0,0:0:0:0:
257,207,273364,5,0,0:0:0:0:
