osu file format v14

[General]
AudioFilename: Sample Text.mp3
AudioLeadIn: 0
PreviewTime: 145364
Countdown: 0
SampleSet: Normal
StackLeniency: 0.6
Mode: 0
LetterboxInBreaks: 0
WidescreenStoryboard: 0

[Editor]
DistanceSpacing: 1
BeatDivisor: 4
GridSize: 16
TimelineZoom: 1

[Metadata]
Title:Flashes (Extended)
TitleUnicode:Flashes (Extended)
Artist:Dollscythe
ArtistUnicode:Dollscythe
Creator:handsome
Version:Normal
Source:beatmania IIDX 22 PENDUAL
Tags:dnb drum n bass and nerova riuz gx hommarju dubstep electro atsuro side rohit6 n/a nrg
BeatmapID:899860
BeatmapSetID:358350

[Difficulty]
HPDrainRate:4
CircleSize:3.5
OverallDifficulty:4
ApproachRate:5.5
SliderMultiplier:1
SliderTickRate:1

[Events]
//Background and Video events
0,0,"Sample-Text.jpg",0,0
//Break Periods
2,113564,122906
//Storyboard Layer 0 (Background)
//Storyboard Layer 1 (Fail)
//Storyboard Layer 2 (Pass)
//Storyboard Layer 3 (Foreground)
//Storyboard Sound Samples

[TimingPoints]
1365,333.3333333333,4,2,1,30,1,0
4031,-100,4,2,1,35,0,0
6698,-100,4,2,1,40,0,0
9364,-100,4,2,1,45,0,0
12031,-100,4,2,1,50,0,0
17364,-100,4,2,1,55,0,0
20031,-100,4,2,1,60,0,0
20531,-100,4,2,1,30,0,0
21364,-100,4,2,1,50,0,0
22031,-100,4,2,0,55,0,0
22698,-100,4,2,2,60,0,0
46698,-100,4,2,2,40,0,0
48031,-100,4,2,2,60,0,0
48698,-100,4,2,0,65,0,0
49364,-100,4,1,2,65,0,0
53364,-100,4,2,2,65,0,0
54698,-100,4,1,2,65,0,0
58864,-100,4,1,0,65,0,0
59031,-100,4,1,2,65,0,0
59364,-100,4,1,0,65,0,0
59531,-100,4,1,2,65,0,0
64031,-100,4,2,2,65,0,0
65364,-100,4,1,2,65,0,0
69364,-100,4,1,2,40,0,0
70031,-100,4,2,0,60,0,0
70698,-100,4,1,2,65,0,0
74698,-100,4,2,2,65,0,0
76031,-100,4,1,2,65,0,0
80198,-100,4,1,0,65,0,0
80364,-100,4,1,2,65,0,0
80698,-100,4,1,0,65,0,0
80864,-100,4,1,2,65,0,0
85364,-100,4,2,2,65,0,0
86698,-100,4,1,2,65,0,0
89698,-100,4,2,2,65,0,0
90698,-100,4,2,2,40,0,0
91364,-100,4,2,0,65,0,0
92031,-100,4,2,2,45,0,0
113364,-100,4,2,2,40,0,0
129364,-100,4,2,2,45,0,0
134698,-100,4,2,2,50,0,0
137364,-100,4,2,2,55,0,0
138698,-100,4,2,2,60,0,0
140031,-100,4,2,2,65,0,0
141364,-100,4,2,2,70,0,0
142698,-100,4,2,2,55,0,0
144031,-100,4,2,0,65,0,0
145364,-100,4,1,2,70,0,1
161364,-100,4,2,2,50,0,0
164031,-100,4,2,2,55,0,0
165364,-100,4,2,2,70,0,0
166031,-100,4,1,2,70,0,0
166698,-100,4,1,2,70,0,1
182698,-100,4,2,2,50,0,0
185364,-100,4,1,2,55,0,0
186698,-100,4,2,2,70,0,0
187364,-100,4,1,2,70,0,0
188031,-100,4,2,2,70,0,0
209364,-100,4,2,2,60,0,0
230698,-100,4,2,2,60,0,0
230781,-100,4,2,2,50,0,0
241364,-100,4,2,2,45,0,0
252031,-125,4,2,3,25,0,0
262698,-166.6666666667,4,2,3,15,0,0
268031,-166.6666666667,4,2,3,10,0,0

[Colours]
Combo1 : 100,173,255
Combo2 : 185,185,185
Combo3 : 163,221,250

[HitObjects]
18,62,1365,6,0,L|134:58,1,100,6|8,0:0|0:0,0:0:0:0:
167,59,1864,2,0,P|189:95|248:123,1,100,2|0,0:0|0:0,0:0:0:0:
288,117,2364,2,0,L|404:113,1,100,10|2,0:0|0:0,0:0:0:0:
411,16,3031,2,0,L|527:20,2,100,8|0|10,0:0|0:0|0:0,0:0:0:0:
313,40,4031,6,0,P|304:100|325:145,1,100,6|8,0:0|0:0,0:0:0:0:
366,149,4531,2,0,P|420:163|456:205,1,100,2|0,0:0|0:0,0:0:0:0:
427,238,5031,2,0,P|413:290|362:325,1,100,10|2,0:0|0:0,0:0:0:0:
296,262,5698,2,0,P|231:227|192:232,2,100,8|0|10,0:0|0:0|0:0,0:0:0:0:
262,356,6698,6,0,L|150:351,1,100,6|8,0:0|0:0,0:0:0:0:
113,360,7198,2,0,L|80:256,1,100,2|0,0:0|0:0,0:0:0:0:
46,236,7698,2,0,L|79:132,1,100,10|2,0:0|0:0,0:0:0:0:
175,133,8364,2,0,L|165:18,2,100,8|0|10,0:0|0:0|0:0,0:0:0:0:
250,198,9364,6,0,P|300:204|355:181,1,100,6|8,0:0|0:0,0:0:0:0:
383,154,9864,2,0,L|399:45,1,100,2|0,0:0|0:0,0:0:0:0:
443,36,10364,2,0,P|482:51|513:113,1,100,10|2,0:0|0:0,0:0:0:0:
475,192,11031,2,0,P|452:237|455:300,2,100,8|0|10,0:0|0:0|0:0,0:0:0:0:
383,154,12031,6,0,L|282:144,1,100,6|8,0:0|0:0,0:0:0:0:
234,136,12531,1,2,0:0:0:0:
134,123,12864,1,0,0:0:0:0:
134,123,13031,2,0,P|115:158|119:222,1,100,10|2,0:0|0:0,0:0:0:0:
190,285,13698,1,8,0:0:0:0:
272,229,14031,1,0,0:0:0:0:
284,328,14364,1,10,0:0:0:0:
378,361,14698,6,0,P|431:365|485:338,1,100,6|8,0:0|0:0,0:0:0:0:
508,312,15198,1,2,0:0:0:0:
468,220,15531,1,0,0:0:0:0:
468,220,15698,2,0,L|368:208,1,100,10|2,0:0|0:0,0:0:0:0:
303,132,16364,1,8,0:0:0:0:
203,141,16698,1,0,0:0:0:0:
103,151,17031,1,10,0:0:0:0:
23,211,17364,6,0,L|37:328,1,100,6|8,0:0|0:0,0:0:0:0:
43,359,17864,1,2,0:0:0:0:
129,307,18198,1,0,0:0:0:0:
129,307,18364,2,0,P|186:285|237:297,1,100,10|2,0:0|0:0,0:0:0:0:
315,330,19031,1,8,0:0:0:0:
375,250,19364,1,0,0:0:0:0:
471,275,19698,1,10,0:0:0:0:
507,182,20031,6,0,L|508:77,1,100,6|8,0:0|0:0,0:0:0:0:
480,40,20531,2,0,P|424:62|371:56,1,100,2|0,1:2|1:0,0:0:0:0:
336,47,21031,1,10,1:2:0:0:
236,45,21364,2,0,L|182:64,1,50,0|0,0:0|0:0,0:0:0:0:
138,55,21698,2,0,L|105:107,1,50,8|0,0:0|0:0,0:0:0:0:
85,140,22031,1,8,0:3:0:0:
195,307,22698,6,0,L|305:291,1,100,6|0,3:2|0:0,0:0:0:0:
342,281,23198,1,2,0:0:0:0:
342,281,23364,2,0,L|367:330,1,50,8|0,0:0|0:0,0:0:0:0:
462,349,23864,1,0,0:0:0:0:
462,349,24031,2,0,L|480:295,1,50,2|0,3:2|0:0,0:0:0:0:
459,255,24364,2,0,L|441:201,1,50,0|2,0:0|0:0,0:0:0:0:
460,160,24698,2,0,L|468:46,1,100,8|2,0:0|0:0,0:0:0:0:
372,29,25364,6,0,P|326:22|259:54,1,100,2|0,3:2|0:0,0:0:0:0:
241,75,25864,1,2,0:0:0:0:
241,75,26031,2,0,L|129:73,1,100,8|2,0:0|0:0,0:0:0:0:
40,68,26698,1,2,3:2:0:0:
86,156,27031,2,0,L|97:210,1,50,0|2,0:0|0:0,0:0:0:0:
132,238,27364,2,0,P|176:231|230:244,1,100,8|2,0:0|0:0,0:0:0:0:
308,304,28031,5,2,3:2:0:0:
308,304,28198,2,0,L|412:294,1,100,0|2,0:0|0:0,0:0:0:0:
457,287,28698,1,8,0:0:0:0:
489,192,29031,1,2,0:0:0:0:
407,134,29364,2,0,P|402:98|421:32,2,100,2|0|8,3:2|0:0|0:0,0:0:0:0:
375,229,30364,1,2,0:1:0:0:
451,293,30698,6,0,P|414:320|349:325,1,100,2|2,3:1|0:1,0:0:0:0:
268,356,31364,2,0,P|239:320|239:253,1,100,10|2,0:1|0:0,0:0:0:0:
204,172,32031,2,0,P|240:143|307:143,1,100,2|2,3:1|0:1,0:0:0:0:
388,108,32698,2,0,P|417:144|417:211,1,100,10|2,0:1|0:0,0:0:0:0:
452,292,33364,6,0,L|345:281,1,100,6|0,3:2|0:0,0:0:0:0:
302,274,33864,1,2,0:0:0:0:
302,274,34031,2,0,L|284:325,1,50,8|0,0:0|0:0,0:0:0:0:
190,353,34531,1,0,0:0:0:0:
190,353,34698,2,0,L|120:341,1,50,2|0,3:2|0:0,0:0:0:0:
107,307,35031,2,0,L|37:295,1,50,0|2,0:0|0:0,0:0:0:0:
22,262,35364,2,0,L|8:161,1,100,8|2,0:0|0:0,0:0:0:0:
66,81,36031,6,0,P|104:63|176:73,1,100,2|0,3:2|0:0,0:0:0:0:
196,101,36531,1,2,0:0:0:0:
196,101,36698,2,0,L|311:95,1,100,8|2,0:0|0:0,0:0:0:0:
395,85,37364,1,2,3:2:0:0:
485,127,37698,2,0,L|478:194,1,50,0|2,0:0|0:0,0:0:0:0:
488,226,38031,2,0,P|439:246|387:237,1,100,8|2,0:0|0:0,0:0:0:0:
309,184,38698,5,2,3:2:0:0:
309,184,38864,2,0,L|207:177,1,100,0|2,0:0|0:0,0:0:0:0:
159,170,39364,1,8,0:0:0:0:
106,84,39698,1,2,0:0:0:0:
27,145,40031,2,0,P|5:188|5:243,2,100,2|0|8,3:2|0:0|0:0,0:0:0:0:
100,213,41031,1,2,0:1:0:0:
170,141,41364,6,0,L|279:126,1,100,2|2,3:1|0:1,0:0:0:0:
333,51,42031,1,10,0:1:0:0:
468,198,42698,2,0,L|359:213,1,100,2|2,3:1|0:1,0:0:0:0:
305,288,43365,1,10,0:1:0:0:
111,337,44031,6,0,B|101:288|101:288|123:235,2,100,8|8|8,0:0|0:0|0:0,0:0:0:0:
203,298,45031,1,8,0:0:0:0:
279,233,45364,2,0,B|289:184|289:184|267:131,2,100,8|8|8,0:0|0:0|0:0,0:0:0:0:
187,194,46364,1,8,0:0:0:0:
177,94,46698,5,8,1:0:0:0:
261,40,47031,1,8,1:0:0:0:
353,78,47364,1,8,1:0:0:0:
437,24,47697,1,8,1:0:0:0:
442,124,48031,2,0,L|429:232,1,100,0|0,3:0|0:0,0:0:0:0:
411,321,48698,2,0,L|352:328,1,50,8|8,0:3|0:3,0:0:0:0:
318,305,49031,2,0,L|259:298,1,50,4|4,0:3|0:3,0:0:0:0:
225,324,49364,6,0,B|184:318|184:318|110:332,1,100,4|8,3:2|0:0,0:0:0:0:
77,339,49864,1,6,0:0:0:0:
17,258,50198,1,2,3:1:0:0:
17,258,50364,2,0,L|22:200,1,50,10|6,0:0|0:0,0:0:0:0:
50,166,50698,6,0,P|101:157|154:164,1,100,0|8,3:0|0:0,0:0:0:0:
195,144,51198,2,0,P|246:153|299:146,1,100,6|2,0:0|3:1,0:0:0:0:
340,129,51698,1,10,0:0:0:0:
434,161,52031,6,0,L|450:103,1,50,0|0,3:0|0:0,0:0:0:0:
463,65,52364,2,0,B|425:36|425:36|356:25,1,100,10|2,0:3|0:3,0:0:0:0:
324,40,52864,1,2,3:0:0:0:
324,40,53031,1,10,0:3:0:0:
250,107,53364,6,0,P|217:115|151:89,1,100,2|8,3:1|0:0,0:0:0:0:
150,44,53864,1,2,0:1:0:0:
150,44,54031,2,0,P|92:33|35:58,1,100,2|10,0:2|0:1,0:0:0:0:
44,145,54698,6,0,L|55:247,1,100,0|8,3:0|0:0,0:0:0:0:
66,293,55198,1,6,0:0:0:0:
154,247,55531,1,2,3:1:0:0:
154,247,55698,2,0,L|220:235,1,50,10|6,0:0|0:0,0:0:0:0:
246,212,56031,6,0,P|282:248|342:255,1,100,0|8,3:0|0:0,0:0:0:0:
370,229,56531,2,0,P|418:222|461:170,1,100,6|2,0:0|3:1,0:0:0:0:
441,138,57031,1,10,0:0:0:0:
347,101,57364,6,0,L|280:104,1,50,0|0,3:0|0:0,0:0:0:0:
248,115,57698,2,0,B|260:163|260:163|246:212,1,100,10|2,0:3|0:3,0:0:0:0:
228,258,58198,1,2,0:3:0:0:
228,258,58364,1,8,0:3:0:0:
187,349,58698,2,0,L|29:342,2,150,2|8|2,3:1|0:0|0:3,0:0:0:0:
285,332,60031,6,0,L|292:227,1,100,4|8,3:2|0:0,0:0:0:0:
294,187,60531,1,6,0:0:0:0:
384,145,60864,1,2,3:1:0:0:
384,145,61031,2,0,L|445:155,1,50,10|6,0:0|0:0,0:0:0:0:
483,153,61364,6,0,P|500:195|486:255,1,100,0|8,3:0|0:0,0:0:0:0:
476,296,61864,2,0,L|359:287,1,100,6|2,0:0|3:1,0:0:0:0:
326,284,62364,1,10,0:0:0:0:
263,206,62698,6,0,L|201:213,1,50,0|0,3:0|0:0,0:0:0:0:
163,220,63031,2,0,P|121:266|63:272,1,100,10|2,0:3|0:3,0:0:0:0:
37,261,63531,1,2,3:0:0:0:
37,261,63698,1,10,0:3:0:0:
13,358,64031,6,0,L|120:365,1,100,2|8,3:1|0:0,0:0:0:0:
151,332,64531,1,2,0:1:0:0:
151,332,64698,2,0,L|253:319,1,100,2|10,0:2|0:1,0:0:0:0:
351,325,65364,6,0,P|397:337|459:317,1,100,0|8,3:0|0:0,0:0:0:0:
491,301,65864,1,6,0:0:0:0:
481,201,66198,1,2,3:1:0:0:
481,201,66364,2,0,L|483:137,1,50,10|6,0:0|0:0,0:0:0:0:
469,102,66698,6,0,L|357:93,1,100,0|8,3:0|0:0,0:0:0:0:
324,72,67198,2,0,L|212:81,1,100,6|2,0:0|3:1,0:0:0:0:
176,93,67698,2,0,L|64:84,1,100,10|0,0:0|3:0,0:0:0:0:
11,160,68364,6,0,P|0:223|25:271,1,100,10|2,0:3|0:3,0:0:0:0:
51,287,68864,1,2,3:0:0:0:
51,287,69031,1,10,0:3:0:0:
148,266,69364,6,0,L|248:257,1,100,0|0,3:0|0:0,0:0:0:0:
329,314,70031,2,0,L|346:257,1,50,8|8,0:3|0:3,0:0:0:0:
378,230,70364,2,0,L|363:182,1,50,4|4,0:3|0:3,0:0:0:0:
372,132,70698,6,0,P|309:110|259:124,1,100,4|8,3:2|0:0,0:0:0:0:
238,146,71198,1,6,0:0:0:0:
162,80,71531,1,2,3:1:0:0:
162,80,71698,2,0,L|99:85,1,50,10|6,0:0|0:0,0:0:0:0:
69,56,72031,6,0,L|46:161,1,100,0|8,3:0|0:0,0:0:0:0:
83,188,72531,2,0,P|107:224|106:293,1,100,6|2,0:0|3:1,0:0:0:0:
89,324,73031,1,10,0:0:0:0:
178,367,73364,6,0,L|243:358,1,50,2|0,3:1|0:0,0:0:0:0:
265,326,73698,2,0,L|370:340,1,100,10|2,0:3|0:3,0:0:0:0:
413,345,74198,1,2,3:0:0:0:
413,345,74364,1,10,0:3:0:0:
507,313,74698,6,0,L|512:204,1,100,2|8,3:1|0:0,0:0:0:0:
471,183,75198,1,2,0:1:0:0:
471,183,75364,2,0,P|450:169|439:95,1,100,2|10,0:2|0:1,0:0:0:0:
491,16,76031,6,0,L|387:9,1,100,0|8,3:0|0:0,0:0:0:0:
341,4,76531,1,6,0:0:0:0:
244,27,76864,1,2,3:1:0:0:
244,27,77031,2,0,L|252:92,1,50,10|6,0:0|0:0,0:0:0:0:
275,119,77364,6,0,P|340:119|379:140,1,100,0|8,3:0|0:0,0:0:0:0:
420,126,77864,2,0,P|413:170|448:233,1,100,6|2,0:0|3:1,0:0:0:0:
474,249,78364,1,10,0:0:0:0:
501,345,78698,6,0,L|432:356,1,50,2|0,3:1|0:0,0:0:0:0:
405,372,79031,2,0,L|285:361,1,100,10|2,0:3|0:3,0:0:0:0:
256,351,79531,1,2,3:0:0:0:
256,351,79698,1,10,0:3:0:0:
178,287,80031,2,0,P|138:321|25:310,2,150
210,192,81364,6,0,L|104:184,1,100,4|8,3:2|0:0,0:0:0:0:
60,178,81864,1,6,0:0:0:0:
2,95,82198,1,2,3:1:0:0:
2,95,82364,2,0,L|18:34,1,50,10|6,0:0|0:0,0:0:0:0:
53,14,82698,6,0,P|102:4|160:23,1,100,0|8,3:0|0:0,0:0:0:0:
186,50,83198,2,0,L|301:45,1,100,6|2,0:0|3:1,0:0:0:0:
335,41,83698,1,10,0:0:0:0:
433,25,84031,6,0,L|466:89,1,50,2|0,3:1|0:0,0:0:0:0:
500,92,84364,2,0,P|489:135|492:205,1,100,10|2,0:3|0:3,0:0:0:0:
502,238,84864,1,2,3:0:0:0:
502,238,85031,1,10,0:3:0:0:
482,336,85364,6,0,B|440:321|440:321|368:335,1,100,2|8,3:1|0:0,0:0:0:0:
342,357,85864,1,2,0:1:0:0:
342,357,86031,2,0,L|230:343,1,100,2|10,0:2|0:1,0:0:0:0:
146,372,86698,6,0,P|142:323|181:267,1,100,0|8,3:0|0:0,0:0:0:0:
208,254,87198,1,6,0:0:0:0:
307,255,87531,1,2,3:1:0:0:
307,255,87698,2,0,L|374:249,1,50,10|6,0:0|0:0,0:0:0:0:
401,273,88031,6,0,L|411:159,1,100,0|8,3:0|0:0,0:0:0:0:
375,137,88531,2,0,L|366:34,1,100,6|2,0:0|3:1,0:0:0:0:
321,15,89031,2,0,P|259:7|213:29,1,100,10|0,0:0|3:0,0:0:0:0:
203,117,89698,6,0,B|217:155|217:155|196:231,1,100,2|10,0:3|0:3,0:0:0:0:
181,258,90198,1,2,0:3:0:0:
181,258,90364,1,2,0:3:0:0:
85,226,90698,6,0,P|66:181|77:128,1,100,0|0,3:0|1:0,0:0:0:0:
127,47,91364,2,0,L|190:50,1,50,8|8,0:3|0:3,0:0:0:0:
223,30,91698,2,0,L|286:27,1,50,4|4,0:3|0:3,0:0:0:0:
318,7,92031,6,0,P|385:10|422:42,1,100,6|0,3:2|0:0,0:0:0:0:
444,64,92531,1,2,0:0:0:0:
444,64,92698,2,0,L|432:131,1,50,8|0,0:0|0:0,0:0:0:0:
475,205,93198,1,0,0:0:0:0:
475,205,93364,2,0,L|489:272,1,50,2|0,3:2|0:0,0:0:0:0:
491,303,93698,2,0,L|477:370,1,50,0|2,0:0|0:0,0:0:0:0:
437,376,94031,2,0,L|334:371,1,100,8|2,0:0|0:0,0:0:0:0:
238,351,94698,6,0,P|196:318|139:323,1,100,2|0,3:2|0:0,0:0:0:0:
101,319,95198,1,2,0:0:0:0:
101,319,95364,2,0,L|91:215,1,100,8|2,0:0|0:0,0:0:0:0:
78,120,96031,1,2,3:2:0:0:
161,64,96364,2,0,L|233:75,1,50,0|2,0:0|0:0,0:0:0:0:
257,52,96698,2,0,P|315:81|361:72,1,100,8|2,0:0|0:0,0:0:0:0:
438,34,97364,5,2,3:2:0:0:
438,34,97531,2,0,L|454:149,1,100,0|2,0:0|0:0,0:0:0:0:
459,182,98031,1,8,0:0:0:0:
401,263,98364,1,2,0:0:0:0:
304,236,98698,2,0,P|304:289|331:334,2,100,2|0|8,3:2|0:0|0:0,0:0:0:0:
374,164,99698,1,2,0:0:0:0:
300,95,100031,6,0,P|249:95|205:127,1,100,2|0,3:2|0:0,0:0:0:0:
112,147,100698,2,0,P|112:198|144:242,1,100,8|2,0:0|0:0,0:0:0:0:
235,212,101364,2,0,P|261:253|261:302,1,100,2|0,3:2|0:0,0:0:0:0:
164,329,102031,2,0,P|122:355|73:355,1,100,8|2,0:0|0:0,0:0:0:0:
5,281,102698,6,0,L|17:177,1,100,6|0,3:2|0:0,0:0:0:0:
22,131,103198,1,2,0:0:0:0:
22,131,103364,2,0,L|84:141,1,50,8|0,0:0|0:0,0:0:0:0:
154,83,103864,1,0,0:0:0:0:
154,83,104031,2,0,L|210:78,1,50,2|0,3:2|0:0,0:0:0:0:
250,96,104364,2,0,L|306:101,1,50,0|2,0:0|0:0,0:0:0:0:
343,75,104698,2,0,P|397:68|449:93,1,100,8|2,0:0|0:0,0:0:0:0:
475,177,105364,6,0,L|486:293,1,100,2|0,3:2|0:0,0:0:0:0:
458,319,105864,1,2,0:0:0:0:
458,319,106031,2,0,P|403:311|346:333,1,100,8|2,0:0|0:0,0:0:0:0:
277,377,106698,1,2,3:2:0:0:
201,311,107031,2,0,L|143:323,1,50,0|2,0:0|0:0,0:0:0:0:
109,347,107364,2,0,P|81:330|64:264,1,100,8|2,0:0|0:0,0:0:0:0:
21,177,108031,5,2,3:2:0:0:
21,177,108198,2,0,L|44:66,1,100,0|2,0:0|0:0,0:0:0:0:
55,31,108698,1,8,0:0:0:0:
144,75,109031,1,2,0:0:0:0:
232,28,109364,2,0,L|339:15,2,100,2|0|8,3:2|0:0|0:0,0:0:0:0:
228,128,110364,1,2,0:0:0:0:
173,212,110698,6,0,B|217:206|217:206|283:229,1,100,2|0,3:2|0:0,0:0:0:0:
368,240,111364,2,0,B|362:196|362:196|385:130,1,100,8|2,0:0|0:0,0:0:0:0:
396,45,112031,2,0,B|352:51|352:51|286:28,1,100,2|0,3:2|0:0,0:0:0:0:
201,17,112698,2,0,B|207:61|207:61|184:127,1,100,8|2,0:0|0:0,0:0:0:0:
173,212,113364,5,4,0:0:0:0:
100,114,124031,6,0,L|203:108,1,100,4|0,3:2|0:0,0:0:0:0:
293,73,124698,2,0,P|328:92|351:149,1,100,0|0,3:0|0:0,0:0:0:0:
377,241,125364,6,0,L|274:235,1,100,0|0,3:0|0:0,0:0:0:0:
184,200,126031,2,0,P|149:219|126:276,1,100,0|0,3:0|0:0,0:0:0:0:
164,365,126698,6,0,P|199:346|222:289,1,100,0|0,3:0|0:0,0:0:0:0:
281,212,127364,2,0,L|273:107,1,100,0|0,3:0|0:0,0:0:0:0:
216,29,128031,6,0,P|181:48|158:105,1,100,0|0,3:0|0:0,0:0:0:0:
99,182,128697,2,0,L|107:287,1,100,0|0,3:0|0:0,0:0:0:0:
182,347,129364,5,0,3:0:0:0:
242,268,129698,1,0,3:0:0:0:
342,280,130031,1,0,3:0:0:0:
380,372,130364,1,0,3:0:0:0:
444,294,130698,6,0,P|468:324|478:392,2,100,0|0|0,3:0|3:0|3:0,0:0:0:0:
342,280,131698,1,0,3:0:0:0:
404,201,132031,5,0,3:0:0:0:
410,101,132364,1,0,3:0:0:0:
310,95,132698,1,0,3:0:0:0:
304,195,133031,1,0,3:0:0:0:
221,138,133364,6,0,L|115:131,1,100,0|0,3:0|3:0,0:0:0:0:
67,46,134031,2,0,L|173:39,1,100,0|0,3:0|3:0,0:0:0:0:
263,65,134698,6,0,P|297:100|300:162,1,100,12|8,3:2|0:0,0:0:0:0:
266,241,135364,2,0,L|372:256,1,100,8|8,0:0|0:0,0:0:0:0:
455,211,136031,2,0,P|421:176|418:114,1,100,8|8,0:0|0:0,0:0:0:0:
452,35,136697,2,0,L|346:20,1,100,8|8,0:0|0:0,0:0:0:0:
256,49,137364,5,8,0:0:0:0:
157,65,137698,1,8,0:0:0:0:
225,138,138031,1,8,0:0:0:0:
126,154,138365,1,8,0:0:0:0:
47,92,138698,6,0,P|26:147|43:205,1,100,8|8,0:0|0:0,0:0:0:0:
114,243,139364,2,0,B|162:257|162:257|219:241,1,100,8|8,0:0|0:0,0:0:0:0:
303,207,140031,6,0,L|326:260,2,50,8|8|8,3:1|0:0|0:0,0:0:0:0:
264,114,140698,2,0,L|211:137,2,50,8|8|8,0:0|0:0|0:0,0:0:0:0:
357,75,141364,2,0,L|334:22,2,50,8|8|8,0:0|0:0|0:0,0:0:0:0:
396,168,142031,2,0,L|449:145,2,50,8|8|8,0:0|0:0|0:0,0:0:0:0:
303,207,142698,5,0,3:0:0:0:
245,288,143031,1,0,1:0:0:0:
145,278,143364,1,0,1:0:0:0:
103,187,143698,1,0,1:0:0:0:
202,195,144031,6,0,P|200:147|163:100,1,100,0|0,0:0|0:0,0:0:0:0:
88,47,144698,2,0,L|67:106,1,50,8|8,0:3|0:3,0:0:0:0:
44,136,145031,2,0,L|65:195,1,50,4|4,0:3|0:3,0:0:0:0:
102,210,145364,6,0,P|120:252|112:320,1,100,2|8,3:1|0:0,0:0:0:0:
99,352,145864,1,2,0:0:0:0:
99,352,146031,2,0,L|-4:344,2,100,2|8|0,3:1|0:0|3:0,0:0:0:0:
187,305,147031,5,10,0:0:0:0:
273,354,147364,2,0,L|338:343,1,50,2|2,3:1|0:0,0:0:0:0:
372,351,147698,2,0,L|437:340,1,50,10|2,0:0|0:0,0:0:0:0:
469,357,148031,6,0,P|502:317|502:271,1,100,2|8,3:1|0:0,0:0:0:0:
474,228,148531,1,2,0:0:0:0:
474,228,148698,2,0,L|497:121,2,100,2|8|0,3:1|0:0|3:0,0:0:0:0:
376,250,149698,5,10,0:0:0:0:
376,250,149864,2,0,P|308:250|269:229,1,100,0|2,3:0|3:1,0:0:0:0:
240,206,150364,2,0,L|174:203,1,50,8|0,0:0|0:0,0:0:0:0:
143,222,150698,6,0,L|131:109,1,100,2|8,3:1|0:0,0:0:0:0:
127,72,151198,1,2,0:0:0:0:
127,72,151364,2,0,P|56:51|12:59,2,100,2|8|0,3:1|0:0|3:0,0:0:0:0:
217,115,152364,5,10,0:0:0:0:
293,50,152698,2,0,L|352:57,1,50,2|2,3:1|0:0,0:0:0:0:
388,36,153031,2,0,L|447:43,1,50,10|2,0:0|0:0,0:0:0:0:
482,63,153364,6,0,P|503:109|493:163,1,100,2|8,3:1|0:0,0:0:0:0:
449,174,153864,1,2,0:0:0:0:
449,174,154031,2,0,L|444:286,1,100,2|8,3:1|0:0,0:0:0:0:
358,325,154698,2,0,P|421:310|499:348,2,150
266,365,156031,6,0,B|236:372|236:372|159:334,1,100,2|0,3:1|0:0,0:0:0:0:
160,293,156531,1,2,0:0:0:0:
160,293,156698,2,0,L|53:306,2,100,2|8|0,3:1|0:0|3:0,0:0:0:0:
259,283,157698,5,10,0:0:0:0:
243,184,158031,2,0,L|233:127,1,50,2|2,3:1|0:0,0:0:0:0:
192,106,158364,2,0,L|182:49,1,50,10|2,0:0|0:0,0:0:0:0:
146,22,158698,6,0,P|94:18|48:56,1,100,2|8,3:1|0:0,0:0:0:0:
28,85,159198,1,2,0:0:0:0:
28,85,159364,2,0,L|15:187,2,100,2|8|0,3:1|0:0|3:0,0:0:0:0:
122,118,160364,5,10,0:0:0:0:
122,118,160531,2,0,P|174:149|224:142,1,100,0|2,3:0|3:1,0:0:0:0:
255,122,161031,2,0,L|315:118,1,50,8|0,0:0|0:0,0:0:0:0:
354,115,161364,5,2,3:1:0:0:
352,215,161698,2,0,L|353:323,2,100,4|12|4,0:1|0:1|0:1,0:0:0:0:
264,165,162698,5,0,3:0:0:0:
264,261,163031,2,0,L|263:373,2,100,4|4|4,0:1|0:1|0:1,0:0:0:0:
176,212,164031,6,0,P|160:155|176:114,1,100,0|0,3:0|1:0,0:0:0:0:
203,78,164531,1,0,1:0:0:0:
203,78,164698,2,0,L|316:65,2,100,2|0|0,1:0|1:0|0:0,0:0:0:0:
116,26,165698,5,0,0:0:0:0:
33,83,166031,2,0,P|23:119|24:138,1,50,2|2,0:0|0:0,0:0:0:0:
55,169,166364,2,0,P|65:205|64:224,1,50,2|2,0:0|0:0,0:0:0:0:
38,260,166698,6,0,L|152:274,1,100,2|8,3:1|0:0,0:0:0:0:
186,263,167198,1,0,0:0:0:0:
208,360,167531,1,0,3:0:0:0:
208,360,167698,2,0,P|256:337|284:283,1,100,8|0,0:0|3:0,0:0:0:0:
263,200,168364,6,0,L|277:97,1,100,10|2,0:0|0:0,0:0:0:0:
292,53,168864,1,2,3:1:0:0:
292,53,169031,2,0,L|361:41,1,50,10|2,0:0|0:0,0:0:0:0:
378,11,169364,6,0,P|429:22|461:67,1,100,2|8,3:1|0:0,0:0:0:0:
467,106,169864,1,2,0:0:0:0:
400,181,170198,1,0,3:0:0:0:
400,181,170364,2,0,L|412:285,1,100,8|0,0:0|3:0,0:0:0:0:
471,360,171031,5,10,0:0:0:0:
471,360,171198,2,0,P|414:384|363:363,1,100,0|2,3:0|3:1,0:0:0:0:
337,347,171698,2,0,L|275:356,1,50,8|0,0:0|0:0,0:0:0:0:
237,351,172031,6,0,L|127:322,1,100,2|8,3:1|0:0,0:0:0:0:
93,306,172531,1,0,0:0:0:0:
45,218,172864,1,0,3:0:0:0:
45,218,173031,2,0,B|66:174|66:174|57:102,1,100,8|0,0:0|3:0,0:0:0:0:
35,25,173698,6,0,L|139:9,1,100,10|2,0:0|0:0,0:0:0:0:
177,33,174198,1,2,3:1:0:0:
177,33,174364,2,0,L|235:40,1,50,10|2,0:0|0:0,0:0:0:0:
267,68,174698,6,0,P|262:120|288:168,1,100,2|8,3:1|0:0,0:0:0:0:
323,189,175198,1,2,0:0:0:0:
368,277,175531,1,0,3:0:0:0:
368,277,175698,2,0,L|472:264,1,100,8|0,0:0|3:0,0:0:0:0:
506,172,176364,6,0,L|513:118,1,50,10|0,0:0|3:0,0:0:0:0:
485,79,176698,2,0,P|448:75|428:84,1,50,2|2,0:0|3:1,0:0:0:0:
388,64,177031,2,0,P|351:68|331:59,1,50,10|2,0:0|0:0,0:0:0:0:
294,41,177364,6,0,L|184:54,1,100,2|8,3:1|0:0,0:0:0:0:
145,60,177864,1,2,0:0:0:0:
51,23,178198,1,0,3:0:0:0:
51,23,178364,2,0,P|42:70|64:123,1,100,8|0,0:0|3:0,0:0:0:0:
149,163,179031,6,0,L|156:265,1,100,10|2,0:0|0:0,0:0:0:0:
159,312,179531,1,2,3:1:0:0:
159,312,179698,2,0,L|104:330,1,50,10|2,0:0|0:0,0:0:0:0:
65,348,180031,6,0,P|16:321|11:269,1,100,2|8,3:1|0:0,0:0:0:0:
35,239,180531,1,2,0:0:0:0:
114,179,180864,1,0,3:0:0:0:
114,179,181031,2,0,B|154:191|154:191|220:177,1,100,8|0,0:0|3:0,0:0:0:0:
283,109,181698,5,10,0:0:0:0:
283,109,181864,2,0,L|384:114,1,100,0|2,3:0|3:1,0:0:0:0:
432,118,182364,2,0,L|445:178,1,50,8|0,0:0|0:0,0:0:0:0:
452,216,182698,5,2,3:1:0:0:
403,303,183031,2,0,P|454:322|499:309,2,100,4|12|4,0:1|0:1|0:1,0:0:0:0:
347,219,184031,5,0,3:0:0:0:
396,132,184364,2,0,P|345:113|300:126,2,100,4|12|4,0:1|0:1|0:1,0:0:0:0:
463,205,185364,6,0,L|436:301,1,100,0|0,3:0|1:0,0:0:0:0:
397,332,185864,1,0,1:0:0:0:
397,332,186031,2,0,P|452:344|486:378,2,100,2|0|0,1:0|1:0|0:0,0:0:0:0:
304,369,187031,5,0,0:0:0:0:
233,297,187364,2,0,L|180:285,1,50,2|2,0:0|0:0,0:0:0:0:
137,304,187698,2,0,L|84:316,1,50,2|2,0:0|0:0,0:0:0:0:
41,332,188031,6,0,P|14:297|16:227,1,100,4|8,3:2|0:0,0:0:0:0:
65,159,188698,2,0,L|2:145,2,50,2|0|8,0:0|3:0|0:0,0:0:0:0:
145,218,189364,1,0,3:0:0:0:
214,145,189698,2,0,P|262:124|314:135,1,100,8|2,0:0|0:0,0:0:0:0:
349,159,190198,1,0,3:0:0:0:
349,159,190364,1,8,0:0:0:0:
268,218,190698,6,0,L|285:324,1,100,0|8,3:0|0:0,0:0:0:0:
392,333,191364,2,0,L|389:382,2,50,2|0|8,0:0|3:0|0:0,0:0:0:0:
485,274,192031,1,0,3:0:0:0:
399,201,192364,1,8,0:0:0:0:
399,201,192531,2,0,B|389:153|389:153|412:89,1,100,0|0,3:0|3:0,0:0:0:0:
430,61,193031,1,8,0:0:0:0:
337,23,193364,6,0,L|219:36,1,100,0|8,3:0|0:0,0:0:0:0:
145,72,194031,2,0,P|137:44|138:11,2,50,2|0|8,0:0|3:0|0:0,0:0:0:0:
232,121,194698,1,0,3:0:0:0:
143,167,195031,2,0,P|103:165|43:190,1,100,8|2,0:0|0:0,0:0:0:0:
17,226,195531,1,0,3:0:0:0:
17,226,195698,1,8,0:0:0:0:
58,316,196031,6,0,L|159:312,1,100,2|10,3:1|0:1,0:0:0:0:
253,280,196698,2,0,L|269:341,2,50,2|0|8,0:1|3:0|0:0,0:0:0:0:
295,189,197364,1,2,3:1:0:0:
385,232,197698,1,10,0:1:0:0:
385,232,197864,2,0,L|382:334,1,100,0|0,3:0|3:0,0:0:0:0:
379,381,198364,1,8,0:0:0:0:
475,353,198698,6,0,P|496:299|482:241,1,100,4|8,3:2|0:0,0:0:0:0:
457,163,199364,2,0,L|523:168,2,50,2|0|8,0:0|3:0|0:0,0:0:0:0:
380,98,200031,1,0,3:0:0:0:
301,160,200364,2,0,L|197:172,1,100,8|2,0:0|0:0,0:0:0:0:
152,179,200864,1,0,3:0:0:0:
152,179,201031,1,8,0:0:0:0:
71,238,201364,6,0,P|49:185|59:138,1,100,0|8,3:0|0:0,0:0:0:0:
120,67,202031,2,0,L|63:58,2,50,2|0|8,0:0|3:0|0:0,0:0:0:0:
214,101,202698,1,0,3:0:0:0:
288,34,203031,1,8,0:0:0:0:
288,34,203198,2,0,B|327:46|327:46|392:33,1,100,0|0,3:0|3:0,0:0:0:0:
433,22,203698,1,8,0:0:0:0:
504,92,204031,6,0,L|496:199,1,100,0|8,3:0|0:0,0:0:0:0:
436,272,204698,2,0,L|480:306,2,50,2|0|8,0:0|3:0|0:0,0:0:0:0:
397,179,205364,1,0,3:0:0:0:
338,260,205698,2,0,P|288:266|236:233,1,100,8|2,0:0|0:0,0:0:0:0:
216,202,206198,1,0,3:0:0:0:
216,202,206364,1,8,0:0:0:0:
157,283,206698,6,0,L|34:282,1,100,2|10,3:1|0:1,0:0:0:0:
17,190,207364,2,0,L|-2:136,2,50,2|0|8,0:1|3:0|0:0,0:0:0:0:
111,155,208031,1,2,3:1:0:0:
198,204,208364,1,10,0:1:0:0:
198,204,208531,2,0,P|249:209|293:174,1,100,0|0,3:0|3:0,0:0:0:0:
321,145,209031,1,8,0:0:0:0:
327,45,209364,6,0,L|431:53,1,100,6|0,3:2|0:0,0:0:0:0:
476,58,209864,1,2,0:0:0:0:
476,58,210031,2,0,L|485:119,1,50,8|0,0:0|0:0,0:0:0:0:
473,207,210531,1,0,0:0:0:0:
473,207,210698,2,0,L|417:195,1,50,2|0,3:2|0:0,0:0:0:0:
376,212,211031,2,0,L|320:224,1,50,0|2,0:0|0:0,0:0:0:0:
285,193,211364,2,0,P|229:185|173:210,1,100,8|2,0:0|0:0,0:0:0:0:
90,215,212031,6,0,L|94:318,1,100,2|0,3:2|0:0,0:0:0:0:
137,340,212531,1,2,0:0:0:0:
137,340,212698,2,0,B|183:351|183:351|250:335,1,100,8|0,0:0|0:0,0:0:0:0:
323,292,213364,1,2,3:2:0:0:
401,353,213698,2,0,L|463:363,1,50,0|2,0:0|0:0,0:0:0:0:
498,346,214031,2,0,P|512:308|499:247,1,100,8|2,0:0|0:0,0:0:0:0:
412,204,214698,5,2,3:2:0:0:
412,204,214864,2,0,L|418:97,1,100,0|2,0:0|0:0,0:0:0:0:
420,54,215364,1,8,0:0:0:0:
325,19,215698,1,2,0:0:0:0:
238,68,216031,2,0,P|193:45|130:47,2,100,2|0|8,3:2|0:0|0:0,0:0:0:0:
168,140,217031,1,2,0:1:0:0:
72,112,217364,6,0,L|39:210,1,100,2|2,3:1|0:1,0:0:0:0:
11,302,218031,2,0,L|109:335,1,100,10|2,0:1|0:0,0:0:0:0:
201,363,218698,2,0,L|234:265,1,100,2|2,3:1|0:1,0:0:0:0:
262,173,219364,2,0,L|164:140,1,100,10|2,0:1|0:0,0:0:0:0:
72,112,220031,6,0,P|91:74|149:42,1,100,0|0,3:0|0:0,0:0:0:0:
184,23,220531,1,2,0:0:0:0:
184,23,220698,2,0,L|245:25,1,50,8|0,0:0|0:0,0:0:0:0:
312,86,221198,1,0,0:0:0:0:
312,86,221364,2,0,L|376:85,1,50,2|0,3:2|0:0,0:0:0:0:
403,113,221698,2,0,L|452:113,1,50,0|2,0:0|0:0,0:0:0:0:
499,131,222031,2,0,P|515:174|506:229,1,100,8|2,0:0|0:0,0:0:0:0:
421,277,222698,6,0,L|311:272,1,100,2|0,3:2|0:0,0:0:0:0:
274,290,223198,1,2,0:0:0:0:
274,290,223364,2,0,P|236:267|228:197,1,100,8|2,0:0|0:0,0:0:0:0:
275,130,224031,1,2,3:2:0:0:
223,44,224364,2,0,L|155:39,1,50,0|2,0:0|0:0,0:0:0:0:
125,23,224698,2,0,P|74:17|18:36,1,100,8|2,0:3|0:0,0:0:0:0:
21,130,225364,5,2,3:2:0:0:
21,130,225531,2,0,L|15:237,1,100,0|2,0:0|0:0,0:0:0:0:
12,279,226031,1,8,0:0:0:0:
102,321,226364,1,2,0:0:0:0:
187,269,226698,2,0,P|159:236|104:222,2,100,2|0|10,3:2|0:0|0:0,0:0:0:0:
189,369,227698,1,2,0:1:0:0:
274,317,228031,6,0,L|376:308,1,100,2|2,3:1|0:1,0:0:0:0:
421,220,228698,2,0,L|321:228,1,100,10|2,0:1|0:0,0:0:0:0:
263,147,229364,2,0,L|365:138,1,100,2|2,3:1|0:1,0:0:0:0:
410,50,230031,2,0,L|310:58,1,100,10|2,0:1|0:0,0:0:0:0:
210,64,230698,6,0,L|8:48,1,200,6|2,3:2|0:0,0:0:0:0:
40,195,231864,2,0,L|247:175,1,200,2|0,0:0|0:0,0:0:0:0:
337,156,232864,2,0,L|337:219,1,50,2|0,0:0|0:0,0:0:0:0:
303,300,233364,6,0,L|505:316,1,200,2|2,0:0|0:0,0:0:0:0:
473,169,234531,2,0,L|266:189,1,200,2|0,0:0|0:0,0:0:0:0:
176,208,235531,2,0,L|176:145,1,50,0|0,0:0|0:0,0:0:0:0:
202,61,236031,6,0,P|132:51|51:152,1,200,2|2,0:0|0:0,0:0:0:0:
90,284,237198,2,0,B|154:321|220:240|291:286,1,200,2|0,0:0|0:0,0:0:0:0:
382,266,238198,2,0,L|401:210,1,50,2|0,0:0|0:0,0:0:0:0:
460,139,238698,6,0,P|406:60|310:61,1,200,2|2,0:0|0:0,0:0:0:0:
160,43,239865,2,0,B|197:107|116:173|162:244,1,200,2|0,0:0|0:0,0:0:0:0:
209,322,240865,2,0,L|275:290,1,50,0|0,0:0|0:0,0:0:0:0:
344,257,241364,6,0,B|350:178|350:178|377:133|377:133|382:48,1,200,6|2,0:0|0:0,0:0:0:0:
236,24,242531,2,0,L|31:44,1,200,2|0,0:0|0:0,0:0:0:0:
6,138,243531,2,0,L|76:128,1,50,2|0,0:0|0:0,0:0:0:0:
154,117,244031,6,0,B|148:196|148:196|121:241|121:241|116:326,1,200,2|2,0:0|0:0,0:0:0:0:
253,372,245198,2,0,P|321:376|369:261,1,200,2|0,0:0|0:0,0:0:0:0:
332,178,246198,2,0,L|386:163,1,50,0|0,0:0|0:0,0:0:0:0:
475,132,246698,6,0,B|440:39|440:39|321:50,1,200,2|2,0:0|0:0,0:0:0:0:
210,124,247864,2,0,P|155:154|60:67,1,200,0|0,0:0|0:0,0:0:0:0:
144,23,248864,2,0,L|200:16,1,50,2|0,0:0|0:0,0:0:0:0:
284,59,249364,6,0,B|312:130|312:130|266:255,1,200,2|2,0:0|0:0,0:0:0:0:
167,356,250531,2,0,P|86:359|83:256,1,200,2|0,0:0|0:0,0:0:0:0:
178,255,251531,2,0,L|290:261,1,100,0|0,0:0|0:0,0:0:0:0:
317,259,252031,6,0,P|376:217|367:135,1,160,6|2,0:0|0:0,0:0:0:0:
251,165,253198,2,0,L|273:44,2,120,2|2|2,0:0|0:0|0:0,0:0:0:0:
157,231,254698,6,0,P|198:290|281:281,1,160,2|2,0:0|0:0,0:0:0:0:
251,165,255865,2,0,L|372:187,2,120,2|2|2,0:0|0:0|0:0,0:0:0:0:
185,71,257364,6,0,P|125:112|135:195,1,160,6|2,0:0|0:0,0:0:0:0:
251,165,258531,2,0,L|229:286,2,120,2|2|2,0:0|0:0|0:0,0:0:0:0:
345,99,260031,6,0,P|303:39|221:49,1,160,2|2,0:0|0:0,0:0:0:0:
251,165,261198,2,0,L|130:143,2,120,2|2|2,0:0|0:0|0:0,0:0:0:0:
339,183,262698,6,0,P|419:297|472:131,1,389.9999880982,6|0,0:0|0:0,0:0:0:0:
425,207,265364,2,0,P|415:272|207:192,1,389.9999880982,2|0,0:0|0:0,0:0:0:0:
266,135,268031,6,0,B|103:62|103:62|5:250,1,389.9999880982,2|0,0:0|0:0,0:0:0:0:
35,334,270698,2,0,B|126:297|126:297|238:341|238:341|418:324,1,389.9999880982,2|0,0:0|0:0,0:0:0:0:
474,263,273364,5,0,0:0:0:0:
