osu file format v14

[General]
AudioFilename: Sample Text.mp3
AudioLeadIn: 0
PreviewTime: 145364
Countdown: 0
SampleSet: Normal
StackLeniency: 0.3
Mode: 0
LetterboxInBreaks: 0
WidescreenStoryboard: 0

[Editor]
Bookmarks: 1365,12031,22698,44031,49364,70698,92031,113364,124031,134698,145364,161364,166698,182698,188031,209364
DistanceSpacing: 1.2
BeatDivisor: 4
GridSize: 8
TimelineZoom: 3.699999

[Metadata]
Title:Flashes (Extended)
TitleUnicode:Flashes (Extended)
Artist:Dollscythe
ArtistUnicode:Dollscythe
Creator:handsome
Version:N/A's Insane
Source:beatmania IIDX 22 PENDUAL
Tags:dnb drum n bass and nerova riuz gx hommarju dubstep electro atsuro side rohit6 n/a nrg
BeatmapID:825243
BeatmapSetID:358350

[Difficulty]
HPDrainRate:7
CircleSize:4
OverallDifficulty:8
ApproachRate:9.3
SliderMultiplier:1.6
SliderTickRate:1

[Events]
//Background and Video events
0,0,"Sample-Text.jpg",0,0
//Break Periods
//Storyboard Layer 0 (Background)
//Storyboard Layer 1 (Fail)
//Storyboard Layer 2 (Pass)
//Storyboard Layer 3 (Foreground)
//Storyboard Sound Samples

[TimingPoints]
1365,333.3333333333,4,2,1,30,1,0
1365,-133.3333333333,4,2,1,30,0,0
4031,-133.3333333333,4,2,1,35,0,0
6698,-133.3333333333,4,2,1,40,0,0
9364,-133.3333333333,4,2,1,45,0,0
12031,-133.3333333333,4,2,1,50,0,0
17364,-133.3333333333,4,2,1,55,0,0
20031,-133.3333333333,4,2,1,60,0,0
20531,-133.3333333333,4,2,1,30,0,0
21364,-133.3333333333,4,2,1,50,0,0
22031,-100,4,2,0,55,0,0
22698,-100,4,2,2,60,0,0
46698,-100,4,2,2,40,0,0
48031,-100,4,2,2,60,0,0
48698,-100,4,2,0,65,0,0
49364,-71.42857142857,4,1,2,65,0,0
53364,-71.42857142857,4,2,2,65,0,0
54698,-71.42857142857,4,1,2,65,0,0
58864,-71.42857142857,4,1,0,65,0,0
59031,-71.42857142857,4,1,2,65,0,0
59364,-71.42857142857,4,1,0,65,0,0
59531,-71.42857142857,4,1,2,65,0,0
64031,-71.42857142857,4,2,2,65,0,0
65364,-71.42857142857,4,1,2,65,0,0
69364,-71.42857142857,4,1,2,40,0,0
70031,-100,4,2,0,60,0,0
70698,-71.42857142857,4,1,2,65,0,0
74698,-71.42857142857,4,2,2,65,0,0
76031,-71.42857142857,4,1,2,65,0,0
80198,-71.42857142857,4,1,0,65,0,0
80364,-71.42857142857,4,1,2,65,0,0
80698,-71.42857142857,4,1,0,65,0,0
80864,-71.42857142857,4,1,2,65,0,0
85364,-71.42857142857,4,2,2,65,0,0
86698,-71.42857142857,4,1,2,65,0,0
89698,-71.42857142857,4,2,2,65,0,0
90698,-71.42857142857,4,2,2,40,0,0
91364,-100,4,2,0,65,0,0
92031,-125,4,2,2,45,0,0
113364,-200,4,2,2,40,0,0
124031,-125,4,2,2,40,0,0
129364,-125,4,2,2,45,0,0
134698,-100,4,2,2,50,0,0
137364,-100,4,2,2,55,0,0
138698,-100,4,2,2,60,0,0
140031,-100,4,2,2,65,0,0
141364,-100,4,2,2,70,0,0
142698,-83.33333333333,4,2,2,55,0,0
144031,-100,4,2,0,65,0,0
145364,-71.42857142857,4,1,2,70,0,1
161364,-83.33333333333,4,2,2,50,0,0
164031,-100,4,2,2,55,0,0
165364,-100,4,2,2,70,0,0
166031,-100,4,1,2,70,0,0
166698,-71.42857142857,4,1,2,70,0,1
181364,-71.42857142857,4,1,2,70,0,1
182698,-83.33333333333,4,2,2,50,0,0
185364,-100,4,1,2,55,0,0
186698,-100,4,2,2,70,0,0
187364,-100,4,1,2,70,0,0
188031,-83.33333333333,4,2,2,70,0,0
209364,-100,4,2,2,60,0,0
230698,-200,4,2,2,60,0,0
230781,-200,4,2,2,50,0,0
241364,-200,4,2,2,45,0,0
252031,-250,4,2,3,25,0,0
262698,-350,4,2,3,15,0,0
268031,-350,4,2,3,10,0,0

[Colours]
Combo1 : 100,173,255
Combo2 : 185,185,185
Combo3 : 163,221,250

[HitObjects]
243,50,1365,6,0,L|364:66,1,120.0000045776,6|8,0:0|0:0,0:0:0:0:
423,29,1864,2,0,B|391:59|391:59|378:148,1,120.0000045776,2|0,0:0|0:0,0:0:0:0:
394,204,2364,1,10,0:0:0:0:
394,204,2698,1,2,0:0:0:0:
393,203,3031,6,0,P|398:233|396:263,1,60.00000228882,8|2,0:0|0:0,0:0:0:0:
270,291,3364,2,0,P|293:271|320:259,1,60.00000228882,0|0,0:0|0:0,0:0:0:0:
407,354,3698,2,0,P|379:344|355:327,1,60.00000228882,10|0,0:0|0:0,0:0:0:0:
322,186,4031,6,0,B|278:191|278:191|249:182|249:182|204:188,1,120.0000045776,6|8,0:0|0:0,0:0:0:0:
183,258,4531,2,0,P|180:199|140:155,1,120.0000045776,2|0,0:0|0:0,0:0:0:0:
68,161,5031,1,10,0:0:0:0:
68,161,5364,1,2,0:0:0:0:
68,161,5698,6,0,L|74:229,1,60.00000228882,8|2,0:0|0:0,0:0:0:0:
107,345,6031,2,0,L|112:285,1,60.00000228882,0|0,0:0|0:0,0:0:0:0:
146,161,6364,2,0,L|151:220,1,60.00000228882,10|0,0:0|0:0,0:0:0:0:
197,348,6698,6,0,P|200:308|270:261,1,120.0000045776,6|8,0:0|0:0,0:0:0:0:
322,296,7198,2,0,B|365:308|365:308|451:297,1,120.0000045776,2|0,0:0|0:0,0:0:0:0:
463,230,7698,1,10,0:0:0:0:
463,230,8031,1,2,0:0:0:0:
463,230,8364,6,0,L|407:163,1,60.00000228882,8|2,0:0|0:0,0:0:0:0:
491,71,8698,2,0,L|460:152,1,60.00000228882,0|0,0:0|0:0,0:0:0:0:
340,127,9031,2,0,L|426:112,1,60.00000228882,10|0,0:0|0:0,0:0:0:0:
325,224,9364,6,0,L|205:206,1,120.0000045776,6|8,0:0|0:0,0:0:0:0:
133,215,9864,2,0,P|106:163|117:105,1,120.0000045776,2|0,0:0|0:0,0:0:0:0:
164,51,10364,1,10,0:0:0:0:
164,51,10698,1,2,0:0:0:0:
164,51,11031,6,0,L|226:57,1,60.00000228882,8|2,0:0|0:0,0:0:0:0:
352,80,11364,2,0,L|291:96,1,60.00000228882,0|0,0:0|0:0,0:0:0:0:
171,141,11698,2,0,L|233:147,1,60.00000228882,10|0,0:0|0:0,0:0:0:0:
368,168,12031,6,0,P|423:148|488:178,1,120.0000045776,6|8,0:0|0:0,0:0:0:0:
504,254,12531,1,2,0:0:0:0:
502,268,12614,1,0,0:0:0:0:
500,283,12697,1,0,0:0:0:0:
498,298,12781,1,0,0:0:0:0:
496,313,12864,1,0,0:0:0:0:
415,294,13031,2,0,L|423:235,1,60.00000228882,10|0,0:0|0:0,0:0:0:0:
478,168,13364,1,2,0:0:0:0:
367,25,13698,6,0,L|372:106,1,60.00000228882,8|2,0:0|0:0,0:0:0:0:
295,134,14031,2,0,L|291:74,1,60.00000228882,0|0,0:0|0:0,0:0:0:0:
210,33,14364,2,0,L|215:114,1,60.00000228882,10|0,0:0|0:0,0:0:0:0:
141,201,14698,6,0,L|133:81,1,120.0000045776,6|8,0:0|0:0,0:0:0:0:
56,34,15198,1,2,0:0:0:0:
46,45,15281,1,0,0:0:0:0:
38,58,15364,1,0,0:0:0:0:
33,72,15448,1,0,0:0:0:0:
31,87,15531,1,0,0:0:0:0:
57,173,15698,2,0,P|62:219|49:255,1,60.00000228882,10|0,0:0|0:0,0:0:0:0:
30,317,16031,1,2,0:0:0:0:
210,351,16364,6,0,L|213:291,1,60.00000228882,8|2,0:0|0:0,0:0:0:0:
295,250,16697,2,0,L|291:309,1,60.00000228882,0|0,0:0|0:0,0:0:0:0:
367,359,17031,2,0,L|370:299,1,60.00000228882,10|0,0:0|0:0,0:0:0:0:
332,176,17364,6,0,B|412:189|412:189|461:178,1,120.0000045776,6|8,0:0|0:0,0:0:0:0:
470,92,17864,1,2,0:0:0:0:
455,95,17947,1,0,0:0:0:0:
440,98,18030,1,0,0:0:0:0:
426,101,18113,1,0,0:0:0:0:
411,105,18197,1,0,0:0:0:0:
267,115,18364,2,0,P|263:82|268:43,1,60.00000228882,10|0,0:0|0:0,0:0:0:0:
332,176,18698,1,2,0:0:0:0:
159,112,19031,6,0,P|173:138|176:167,1,60.00000228882,8|2,0:0|0:0,0:0:0:0:
26,188,19364,2,0,P|52:174|81:171,1,60.00000228882,0|0,0:0|0:0,0:0:0:0:
102,321,19698,2,0,P|88:295|85:266,1,60.00000228882,10|0,0:0|0:0,0:0:0:0:
235,245,20031,6,0,L|223:322,1,60.00000228882,6|0,0:0|0:0,0:0:0:0:
176,167,20364,1,8,0:0:0:0:
314,211,20531,1,2,1:2:0:0:
328,213,20614,1,0,1:0:0:0:
343,215,20698,2,0,L|385:210,3,30.00000114441,0|0|0|0,1:0|1:0|1:0|1:0,0:0:0:0:
434,145,21031,2,0,L|392:140,3,30.00000114441,10|0|0|0,1:2|1:0|1:0|1:0,0:0:0:0:
360,128,21364,5,0,0:0:0:0:
353,114,21447,1,0,0:0:0:0:
348,100,21530,1,0,0:0:0:0:
347,85,21613,1,0,0:0:0:0:
347,70,21697,1,8,0:0:0:0:
351,55,21780,1,0,0:0:0:0:
356,42,21863,1,0,0:0:0:0:
365,29,21947,1,0,0:0:0:0:
375,18,22031,5,8,0:3:0:0:
343,41,22114,1,8,0:3:0:0:
304,52,22197,1,8,0:3:0:0:
265,49,22280,1,8,0:3:0:0:
229,32,22364,5,4,0:3:0:0:
179,29,22448,1,4,0:3:0:0:
133,49,22531,1,4,0:3:0:0:
101,86,22614,1,4,0:3:0:0:
88,134,22698,6,0,B|101:188|101:188|77:315,1,160,6|0,3:2|0:0,0:0:0:0:
13,194,23198,1,2,0:0:0:0:
217,240,23364,1,8,0:0:0:0:
149,334,23531,1,0,0:0:0:0:
170,152,23698,2,0,B|249:166|249:166|291:158,1,120,2|0,0:0|0:0,0:0:0:0:
326,130,24031,6,0,B|321:171|321:171|334:223,1,80,2|0,3:2|0:0,0:0:0:0:
327,240,24281,1,0,0:0:0:0:
335,270,24364,2,0,P|345:314|330:352,1,80,0|2,0:0|0:0,0:0:0:0:
225,264,24698,1,8,0:0:0:0:
415,220,24864,1,0,0:0:0:0:
262,131,25031,2,0,P|254:78|289:15,1,120,2|0,0:0|0:0,0:0:0:0:
315,55,25364,6,0,B|310:152|310:152|297:182|297:182|304:211,1,160,2|0,3:2|0:0,0:0:0:0:
145,153,25864,1,2,0:0:0:0:
28,258,26031,2,0,L|118:251,1,80,8|0,0:0|0:1,0:0:0:0:
139,258,26281,1,0,0:0:0:0:
162,279,26364,2,0,L|252:272,1,80,2|0,0:0|0:0,0:0:0:0:
435,335,26698,6,0,P|412:284|416:236,1,80,2|0,3:2|0:0,0:0:0:0:
349,140,27031,6,0,L|361:201,1,40,0|0,0:0|0:0,0:0:0:0:
478,216,27198,2,0,L|490:277,1,40,2|0,0:0|0:0,0:0:0:0:
331,292,27364,6,0,L|338:252,1,40,8|0,0:0|0:0,0:0:0:0:
430,157,27531,2,0,L|437:117,1,40,0|0,0:0|0:0,0:0:0:0:
323,42,27698,6,0,B|288:71|288:71|279:144,1,120,2|0,0:0|0:0,0:0:0:0:
279,144,28031,5,2,3:2:0:0:
149,301,28198,2,0,P|133:238|183:153,1,160,0|2,0:0|0:0,0:0:0:0:
327,225,28698,5,8,0:0:0:0:
373,306,28864,2,0,L|365:374,1,40,0|0,0:0|0:0,0:0:0:0:
279,144,29031,1,2,0:0:0:0:
233,225,29198,1,0,0:0:0:0:
397,190,29364,6,0,L|499:193,1,80,2|2,3:2|0:1,0:0:0:0:
461,114,29614,1,0,0:0:0:0:
461,114,29697,2,0,L|381:111,1,80,0|2,0:0|0:0,0:0:0:0:
245,17,30031,1,8,0:0:0:0:
233,191,30198,1,0,0:0:0:0:
233,191,30281,1,0,0:0:0:0:
233,191,30364,2,0,P|233:232|248:272,1,80,2|0,0:1|0:0,0:0:0:0:
292,108,30698,6,0,B|230:113|230:113|169:95,1,120,2|0,3:1|0:0,0:0:0:0:
174,96,31031,1,2,0:1:0:0:
105,241,31198,1,2,0:0:0:0:
103,261,31281,1,0,0:0:0:0:
113,278,31364,6,0,B|118:216|118:216|100:155,1,120,10|2,0:1|0:1,0:0:0:0:
101,160,31697,1,2,0:0:0:0:
234,298,31864,1,2,0:1:0:0:
252,291,31947,1,0,0:0:0:0:
271,284,32031,6,0,L|405:294,1,120,2|0,3:1|0:0,0:0:0:0:
390,292,32364,1,2,0:1:0:0:
493,168,32531,1,2,0:0:0:0:
474,161,32614,1,0,0:0:0:0:
456,154,32698,6,0,L|322:164,1,120,10|2,0:1|0:1,0:0:0:0:
336,162,33031,1,2,0:0:0:0:
144,189,33198,2,0,P|139:157|143:133,1,40,2|0,0:1|0:0,0:0:0:0:
186,73,33364,6,0,L|168:250,1,160,6|0,3:2|0:0,0:0:0:0:
154,349,33864,1,2,0:0:0:0:
45,280,34031,1,8,0:0:0:0:
249,237,34198,1,0,0:0:0:0:
61,165,34364,2,0,P|74:100|134:64,1,120,2|0,0:0|0:0,0:0:0:0:
159,90,34698,6,0,L|251:83,1,80,2|0,3:2|0:0,0:0:0:0:
269,73,34948,1,0,0:0:0:0:
300,77,35031,2,0,B|296:120|296:120|306:169,1,80,0|2,0:0|0:0,0:0:0:0:
346,329,35364,1,8,0:0:0:0:
396,183,35531,1,0,0:0:0:0:
220,232,35698,2,0,B|257:247|257:247|337:245,1,120,2|0,0:0|0:0,0:0:0:0:
384,232,36031,6,0,P|349:263|372:369,1,160,2|0,3:2|0:0,0:0:0:0:
485,239,36531,1,2,0:0:0:0:
318,146,36698,2,0,L|410:142,1,80,8|0,0:0|0:0,0:0:0:0:
429,147,36948,1,0,0:0:0:0:
457,133,37031,2,0,P|466:88|450:44,1,80,2|0,0:0|0:0,0:0:0:0:
286,32,37364,6,0,L|206:35,1,80,2|0,3:2|0:0,0:0:0:0:
164,249,37698,6,0,L|160:189,1,40,0|0,0:0|0:0,0:0:0:0:
99,118,37864,2,0,L|96:157,1,40,2|0,0:0|0:0,0:0:0:0:
46,229,38031,6,0,L|101:237,1,40,8|0,0:0|0:0,0:0:0:0:
178,136,38198,2,0,L|217:130,1,40,0|0,0:0|0:0,0:0:0:0:
249,269,38364,6,0,P|298:251|362:271,1,120,2|0,0:0|0:0,0:0:0:0:
360,270,38698,5,2,3:2:0:0:
268,171,38864,2,0,B|263:70|263:70|298:0,1,160,0|2,0:0|0:0,0:0:0:0:
360,150,39364,5,8,0:0:0:0:
468,140,39531,2,0,L|523:160,1,40,0|0,0:0|0:0,0:0:0:0:
332,239,39698,1,2,0:0:0:0:
440,229,39864,1,0,0:0:0:0:
337,331,40031,6,0,L|233:316,1,80,2|2,3:2|0:1,0:0:0:0:
180,339,40281,1,0,0:0:0:0:
180,339,40364,2,0,L|76:324,1,80,0|2,0:0|0:0,0:0:0:0:
13,211,40698,1,8,0:0:0:0:
177,168,40864,1,0,0:0:0:0:
177,168,40948,1,0,0:0:0:0:
177,168,41031,2,0,P|188:122|175:83,1,80,2|0,0:1|0:0,0:0:0:0:
94,211,41364,6,0,P|84:255|104:333,1,120,2|0,3:1|0:0,0:0:0:0:
100,326,41698,1,2,0:1:0:0:
237,236,41864,1,2,0:2:0:0:
255,242,41947,1,0,0:0:0:0:
274,248,42031,6,0,L|407:240,1,120,10|2,0:1|0:1,0:0:0:0:
393,240,42364,1,2,0:0:0:0:
463,81,42531,1,2,0:1:0:0:
465,61,42614,1,0,0:0:0:0:
476,44,42698,6,0,P|486:88|466:166,1,120,2|0,3:1|0:0,0:0:0:0:
469,159,43032,1,2,0:1:0:0:
333,69,43198,1,2,0:0:0:0:
314,75,43281,1,0,0:0:0:0:
296,81,43365,6,0,L|163:73,1,120,10|2,0:1|0:1,0:0:0:0:
176,73,43698,1,2,0:0:0:0:
28,175,43864,1,2,0:1:0:0:
47,181,43947,1,0,0:0:0:0:
65,187,44031,6,0,L|172:181,1,80,12|0,3:2|0:0,0:0:0:0:
276,319,44364,2,0,B|236:324|236:324|192:314,1,80,8|0,0:0|0:0,0:0:0:0:
248,140,44698,2,0,L|254:247,1,80,8|0,0:0|0:0,0:0:0:0:
116,351,45031,2,0,B|111:311|111:311|121:267,1,80,8|0,0:0|0:0,0:0:0:0:
94,108,45364,6,0,L|201:102,1,80,8|0,0:0|0:0,0:0:0:0:
347,58,45698,2,0,P|296:40|254:42,1,80,8|0,0:0|0:0,0:0:0:0:
264,220,46031,2,0,P|289:181|294:130,1,80,8|0,0:0|0:0,0:0:0:0:
161,193,46364,2,0,L|162:289,1,80,8|0,0:0|0:0,0:0:0:0:
310,342,46698,6,0,L|361:338,3,40,0|0|0|0,1:0|1:0|1:0|1:0,0:0:0:0:
440,252,47031,2,0,L|389:248,3,40,0|0|0|0,1:0|1:0|1:0|1:0,0:0:0:0:
300,175,47364,2,0,L|296:226,3,40,0|0|0|0,1:0|1:0|1:0|1:0,0:0:0:0:
210,305,47697,2,0,L|206:254,3,40,0|0|0|0,1:0|1:0|1:0|1:0,0:0:0:0:
184,231,48031,5,0,3:0:0:0:
165,222,48114,1,0,0:0:0:0:
146,218,48197,1,0,0:0:0:0:
126,218,48281,1,0,0:0:0:0:
106,222,48364,1,0,0:0:0:0:
88,230,48447,1,0,0:0:0:0:
71,241,48531,1,0,0:0:0:0:
58,255,48614,1,0,0:0:0:0:
47,272,48698,5,8,0:3:0:0:
61,235,48781,1,8,0:3:0:0:
59,195,48864,1,8,0:3:0:0:
41,160,48948,1,8,0:3:0:0:
10,135,49031,5,4,0:3:0:0:
24,87,49114,1,4,0:3:0:0:
59,53,49197,1,4,0:3:0:0:
107,41,49281,1,4,0:3:0:0:
155,54,49364,6,0,B|195:62|227:46|227:46|267:62|267:62|294:50|316:54,1,167.9999948731,4|0,3:2|2:0,0:0:0:0:
343,61,49698,1,8,0:0:0:0:
461,133,49864,6,0,L|469:192,1,55.99999829102,6|0,0:0|2:0,0:0:0:0:
406,280,50031,2,0,L|398:224,1,55.99999829102,6|0,0:0|2:0,0:0:0:0:
314,152,50198,2,0,L|322:211,1,55.99999829102,2|0,3:1|2:0,0:0:0:0:
243,298,50364,2,0,P|226:245|244:193,1,111.999996582,10|6,0:0|0:0,0:0:0:0:
323,361,50698,6,0,B|257:362|257:362|228:346|228:346|159:346,1,167.9999948731,0|0,3:0|2:0,0:0:0:0:
131,339,51031,1,8,0:0:0:0:
21,236,51198,6,0,B|43:218|43:218|80:209,1,55.99999829102,6|0,0:0|2:0,0:0:0:0:
136,111,51364,2,0,B|140:139|140:139|129:175,1,55.99999829102,6|0,0:0|2:0,0:0:0:0:
186,273,51531,2,0,B|159:262|159:262|133:235,1,55.99999829102,2|0,3:1|2:0,0:0:0:0:
54,139,51698,2,0,L|72:7,1,111.999996582,10|4,0:0|0:1,0:0:0:0:
281,159,52031,6,0,P|346:113|333:35,1,167.9999948731,0|0,3:0|2:0,0:0:0:0:
348,19,52364,2,0,L|418:15,1,55.99999829102,10|0,0:3|2:0,0:0:0:0:
279,85,52531,2,0,L|223:88,1,55.99999829102,2|0,0:3|2:0,0:0:0:0:
252,228,52698,5,2,0:3:0:0:
256,255,52781,1,2,0:3:0:0:
260,283,52864,1,2,3:0:0:0:
264,311,52948,1,2,0:3:0:0:
268,338,53031,2,0,P|305:290|300:227,1,111.999996582,10|2,0:3|0:3,0:0:0:0:
147,172,53364,6,0,L|35:187,1,111.999996582,2|2,3:1|0:2,0:0:0:0:
23,205,53614,1,0,0:0:0:0:
12,224,53697,1,8,0:0:0:0:
203,273,53864,1,2,0:1:0:0:
245,169,54031,5,2,0:2:0:0:
234,149,54114,1,0,0:0:0:0:
224,129,54197,1,0,3:0:0:0:
214,109,54281,1,0,2:0:0:0:
204,89,54364,1,10,0:1:0:0:
88,271,54531,1,0,0:0:0:0:
304,281,54698,6,0,B|361:291|361:291|390:276|423:275|423:275|475:290,1,167.9999948731,0|0,3:0|2:0,0:0:0:0:
482,310,55031,1,8,0:0:0:0:
344,196,55198,6,0,P|333:169|332:142,1,55.99999829102,6|0,0:0|2:0,0:0:0:0:
337,41,55364,2,0,P|364:45|389:57,1,55.99999829102,6|0,0:0|2:0,0:0:0:0:
474,112,55531,2,0,P|456:133|433:148,1,55.99999829102,2|0,3:1|2:0,0:0:0:0:
271,88,55698,2,0,L|148:92,1,111.999996582,10|6,0:0|0:0,0:0:0:0:
9,202,56031,6,0,P|77:148|151:186,1,167.9999948731,0|0,3:0|2:0,0:0:0:0:
158,200,56364,1,8,0:0:0:0:
209,340,56531,6,0,L|263:278,1,55.99999829102,6|0,0:0|2:0,0:0:0:0:
277,178,56698,2,0,L|331:240,1,55.99999829102,6|0,0:0|2:0,0:0:0:0:
345,340,56864,2,0,L|399:278,1,55.99999829102,2|0,3:1|2:0,0:0:0:0:
480,191,57031,2,0,P|488:242|429:298,1,111.999996582,10|4,0:0|0:0,0:0:0:0:
270,96,57364,6,0,B|324:109|324:109|445:97,1,167.9999948731,0|0,3:0|2:0,0:0:0:0:
456,106,57698,2,0,L|516:99,1,55.99999829102,10|0,0:3|2:0,0:0:0:0:
385,23,57864,2,0,L|330:30,1,55.99999829102,2|0,0:3|2:0,0:0:0:0:
184,70,58031,5,2,0:3:0:0:
193,96,58114,1,2,0:3:0:0:
196,124,58197,1,2,0:3:0:0:
194,151,58281,1,2,0:3:0:0:
185,178,58364,2,0,L|68:198,1,111.999996582,8|2,0:3|0:3,0:0:0:0:
34,362,58698,6,0,P|53:304|106:281,1,111.999996582,2|2,3:1|0:3,0:0:0:0:
116,290,58948,2,0,L|178:286,1,55.99999829102,0|8,0:0|0:0,0:0:0:0:
296,362,59198,6,0,L|409:354,1,111.999996582,2|2,0:0|0:3,0:0:0:0:
407,354,59448,1,0,0:0:0:0:
407,354,59531,1,0,3:0:0:0:
297,125,59698,6,0,L|291:236,1,111.999996582,10|0,3:1|0:0,0:0:0:0:
366,275,59948,1,0,0:0:0:0:
366,275,60031,6,0,L|375:107,1,167.9999948731,4|0,3:2|2:0,0:0:0:0:
378,79,60364,1,8,0:0:0:0:
210,17,60531,6,0,P|204:44|191:69,1,55.99999829102,6|0,0:0|2:0,0:0:0:0:
220,189,60698,2,0,P|199:170|183:147,1,55.99999829102,6|0,0:0|2:0,0:0:0:0:
65,111,60865,2,0,P|91:102|119:100,1,55.99999829102,2|0,3:1|2:0,0:0:0:0:
252,116,61031,2,0,L|246:227,1,111.999996582,10|6,0:0|0:0,0:0:0:0:
144,371,61364,6,0,P|132:288|203:234,1,167.9999948731,0|0,3:0|2:0,0:0:0:0:
217,232,61698,1,8,0:0:0:0:
290,360,61864,6,0,L|360:356,1,55.99999829102,6|0,0:0|2:0,0:0:0:0:
366,236,62031,2,0,L|436:232,1,55.99999829102,6|0,0:0|2:0,0:0:0:0:
428,354,62198,2,0,L|498:350,1,55.99999829102,2|0,3:1|2:0,0:0:0:0:
506,208,62364,2,0,B|496:175|507:146|507:146|508:124|496:98,1,111.999996582,10|4,0:0|0:0,0:0:0:0:
275,185,62698,6,0,B|139:190|139:190|184:155,1,167.9999948731,0|0,3:0|2:0,0:0:0:0:
175,151,63031,2,0,L|186:82,1,55.99999829102,10|0,0:3|2:0,0:0:0:0:
283,55,63198,2,0,L|274:110,1,55.99999829102,2|0,0:3|2:0,0:0:0:0:
238,246,63364,5,2,0:3:0:0:
244,273,63447,1,2,0:3:0:0:
251,300,63530,1,2,3:0:0:0:
257,327,63614,1,2,0:3:0:0:
264,354,63698,2,0,B|303:344|303:344|377:357,1,111.999996582,10|2,0:3|0:3,0:0:0:0:
409,131,64031,6,0,P|430:187|406:242,1,111.999996582,2|2,3:1|0:2,0:0:0:0:
396,246,64281,1,0,0:0:0:0:
378,259,64364,1,8,0:0:0:0:
317,99,64531,1,2,0:1:0:0:
410,36,64698,5,2,0:2:0:0:
435,49,64781,1,0,0:0:0:0:
460,61,64864,1,0,3:0:0:0:
487,74,64948,1,0,2:0:0:0:
512,86,65031,1,10,0:1:0:0:
332,185,65198,1,0,0:0:0:0:
231,3,65364,6,0,B|242:37|242:37|230:105|230:105|241:131|239:166,1,167.9999948731,0|0,3:0|2:0,0:0:0:0:
233,194,65698,1,8,0:0:0:0:
113,336,65864,6,0,P|122:302|136:282,1,55.99999829102,6|0,0:0|2:0,0:0:0:0:
261,266,66031,2,0,P|227:275|203:272,1,55.99999829102,6|0,0:0|2:0,0:0:0:0:
126,171,66198,2,0,P|150:195|160:218,1,55.99999829102,2|0,3:1|2:0,0:0:0:0:
195,352,66364,2,0,L|48:350,1,111.999996582,10|6,0:0|0:0,0:0:0:0:
12,163,66698,6,0,B|49:176|86:157|86:157|113:174|113:174|179:168,1,167.9999948731,0|0,3:0|0:2,0:0:0:0:
200,167,67031,1,8,0:0:0:0:
315,44,67198,6,0,P|347:35|393:40,1,55.99999829102,6|0,0:0|2:0,0:0:0:0:
461,115,67364,2,0,P|429:106|383:111,1,55.99999829102,6|0,0:0|2:0,0:0:0:0:
315,186,67531,2,0,P|347:177|393:182,1,55.99999829102,2|0,3:1|2:0,0:0:0:0:
487,224,67698,2,0,B|470:289|470:289|483:353,1,111.999996582,10|4,0:0|0:0,0:0:0:0:
275,252,68031,6,0,P|206:246|143:318,1,167.9999948731,0|0,3:0|2:0,0:0:0:0:
154,334,68364,2,0,L|211:349,1,55.99999829102,10|0,0:3|2:0,0:0:0:0:
314,331,68531,2,0,L|368:316,1,55.99999829102,2|0,0:3|2:0,0:0:0:0:
313,177,68698,5,2,0:3:0:0:
309,149,68781,1,2,0:3:0:0:
305,121,68864,1,2,3:0:0:0:
301,93,68947,1,2,0:3:0:0:
297,66,69031,2,0,L|234:58,1,55.99999829102,10|0,0:3|2:0,0:0:0:0:
129,73,69198,2,0,L|73:80,1,55.99999829102,2|0,0:3|2:0,0:0:0:0:
33,268,69364,5,0,3:0:0:0:
25,227,69447,1,0,0:0:0:0:
39,187,69530,1,0,0:0:0:0:
69,159,69613,1,0,0:0:0:0:
110,150,69697,5,0,0:0:0:0:
137,156,69781,1,0,0:0:0:0:
160,172,69864,1,0,0:0:0:0:
175,195,69947,1,0,0:0:0:0:
182,222,70031,6,0,L|179:262,3,40,8|8|8|8,0:3|0:3|0:3|0:3,0:0:0:0:
247,312,70364,2,0,L|244:351,3,40,4|4|4|4,0:3|0:3|0:3|0:3,0:0:0:0:
332,269,70698,6,0,P|412:257|481:331,1,167.9999948731,4|0,3:2|2:0,0:0:0:0:
472,338,71031,1,8,0:0:0:0:
377,213,71198,6,0,L|385:143,1,55.99999829102,6|0,0:0|2:0,0:0:0:0:
429,47,71364,2,0,L|435:102,1,55.99999829102,6|0,0:0|2:0,0:0:0:0:
462,225,71531,2,0,L|470:155,1,55.99999829102,2|0,3:1|2:0,0:0:0:0:
359,86,71698,2,0,B|299:94|299:94|218:81,1,111.999996582,10|6,0:0|0:0,0:0:0:0:
81,27,72031,6,0,B|97:55|125:62|125:62|99:89|91:133|107:176,1,167.9999948731,0|0,3:0|2:0,0:0:0:0:
110,192,72364,1,8,0:0:0:0:
143,353,72531,6,0,L|192:305,1,55.99999829102,6|0,0:0|2:0,0:0:0:0:
248,229,72698,2,0,L|264:295,1,55.99999829102,6|0,0:0|2:0,0:0:0:0:
302,382,72864,2,0,L|236:362,1,55.99999829102,2|0,3:1|2:0,0:0:0:0:
169,239,73031,2,0,P|180:186|224:153,1,111.999996582,10|4,0:0|0:0,0:0:0:0:
345,290,73364,6,0,P|385:329|364:262,1,167.9999948731,2|0,3:1|2:0,0:0:0:0:
369,241,73698,2,0,L|370:173,1,55.99999829102,10|0,0:3|2:0,0:0:0:0:
471,207,73864,2,0,L|472:139,1,55.99999829102,2|0,0:3|2:0,0:0:0:0:
385,12,74031,5,2,0:3:0:0:
379,39,74114,1,2,0:3:0:0:
382,67,74197,1,2,3:0:0:0:
393,92,74280,1,2,0:3:0:0:
411,113,74364,2,0,P|457:66|466:8,1,111.999996582,10|2,0:3|0:3,0:0:0:0:
327,170,74698,6,0,L|312:282,1,111.999996582,2|2,3:1|0:2,0:0:0:0:
295,294,74948,1,0,0:0:0:0:
276,304,75031,1,8,0:0:0:0:
227,114,75198,1,2,0:1:0:0:
331,72,75365,5,2,0:2:0:0:
351,83,75448,1,0,0:0:0:0:
371,93,75531,1,0,3:0:0:0:
391,103,75615,1,0,2:0:0:0:
411,113,75698,1,10,0:1:0:0:
229,229,75865,1,0,0:0:0:0:
164,41,76031,6,0,P|97:21|9:107,1,167.9999948731,0|0,3:0|2:0,0:0:0:0:
18,99,76364,1,8,0:0:0:0:
269,154,76531,6,0,B|247:172|247:172|210:181,1,55.99999829102,6|0,0:0|2:0,0:0:0:0:
154,279,76697,2,0,B|150:251|150:251|161:215,1,55.99999829102,6|0,0:0|2:0,0:0:0:0:
104,117,76864,2,0,B|131:128|131:128|157:155,1,55.99999829102,2|0,3:1|2:0,0:0:0:0:
236,251,77031,2,0,L|218:383,1,111.999996582,10|6,0:0|0:0,0:0:0:0:
34,358,77364,6,0,B|21:297|21:297|33:268|33:268|17:238|28:195,1,167.9999948731,0|0,3:0|2:0,0:0:0:0:
32,167,77698,1,8,0:0:0:0:
113,24,77864,6,0,L|105:83,1,55.99999829102,6|0,0:0|2:0,0:0:0:0:
168,171,78031,2,0,L|176:115,1,55.99999829102,6|0,0:0|2:0,0:0:0:0:
260,43,78198,2,0,L|252:102,1,55.99999829102,2|0,3:1|2:0,0:0:0:0:
331,189,78364,2,0,P|348:136|330:84,1,111.999996582,10|4,0:0|0:0,0:0:0:0:
252,224,78698,6,0,B|238:278|238:278|258:359|258:359|269:326,1,167.9999948731,2|0,3:1|2:0,0:0:0:0:
288,339,79031,2,0,L|302:284,1,55.99999829102,10|0,0:3|2:0,0:0:0:0:
385,350,79198,2,0,L|399:295,1,55.99999829102,2|0,0:3|2:0,0:0:0:0:
377,181,79364,5,2,0:3:0:0:
404,175,79447,1,2,0:3:0:0:
431,170,79530,1,2,3:0:0:0:
459,165,79613,1,2,0:3:0:0:
486,159,79698,2,0,P|500:95|464:30,1,111.999996582,10|2,0:3|0:3,0:0:0:0:
288,91,80031,6,0,L|156:102,1,111.999996582,2|2,3:1|0:3,0:0:0:0:
157,85,80281,2,0,P|152:58|156:31,1,55.99999829102,0|8,0:0|0:0,0:0:0:0:
239,174,80531,6,0,L|226:291,1,111.999996582,2|2,0:0|0:3,0:0:0:0:
226,285,80781,1,0,0:0:0:0:
226,285,80864,1,0,3:0:0:0:
45,222,81031,6,0,P|29:161|59:106,1,111.999996582,10|0,0:0|0:0,0:0:0:0:
110,171,81281,1,0,0:0:0:0:
110,171,81364,6,0,B|92:237|92:237|107:351,1,167.9999948731,4|0,3:2|2:0,0:0:0:0:
113,362,81698,1,8,0:0:0:0:
301,328,81864,6,0,P|312:301|313:274,1,55.99999829102,6|0,0:0|2:0,0:0:0:0:
308,173,82030,2,0,P|281:177|256:189,1,55.99999829102,6|0,0:0|2:0,0:0:0:0:
171,244,82197,2,0,P|189:265|212:280,1,55.99999829102,2|0,3:1|2:0,0:0:0:0:
371,224,82364,2,0,L|497:235,1,111.999996582,10|6,0:0|0:0,0:0:0:0:
350,109,82698,6,0,P|367:49|469:17,1,167.9999948731,0|0,3:0|2:0,0:0:0:0:
485,22,83031,1,8,0:0:0:0:
502,171,83198,6,0,L|499:243,1,55.99999829102,6|0,0:0|2:0,0:0:0:0:
386,225,83364,2,0,L|383:297,1,55.99999829102,6|0,0:0|2:0,0:0:0:0:
496,302,83531,2,0,L|493:374,1,55.99999829102,2|0,3:1|2:0,0:0:0:0:
342,344,83698,2,0,B|310:306|310:306|314:218,1,111.999996582,10|4,0:0|0:0,0:0:0:0:
324,34,84031,6,0,P|322:96|224:135,1,167.9999948731,2|0,3:1|2:0,0:0:0:0:
213,143,84364,2,0,L|219:213,1,55.99999829102,10|0,0:3|2:0,0:0:0:0:
254,63,84531,2,0,L|248:-7,1,55.99999829102,2|0,0:3|0:0,0:0:0:0:
105,28,84698,5,2,0:3:0:0:
78,36,84781,1,2,0:3:0:0:
55,51,84864,1,2,3:0:0:0:
37,73,84947,1,2,0:3:0:0:
27,99,85031,2,0,L|40:221,1,111.999996582,10|2,0:3|0:3,0:0:0:0:
125,351,85364,6,0,P|176:326|241:322,1,111.999996582,2|2,3:1|0:2,0:0:0:0:
252,303,85615,1,0,0:0:0:0:
275,287,85698,1,8,0:0:0:0:
306,143,85864,1,2,0:1:0:0:
203,188,86031,5,2,0:2:0:0:
206,216,86114,1,0,0:0:0:0:
210,243,86197,1,0,3:0:0:0:
213,271,86281,1,0,2:0:0:0:
217,298,86364,1,10,0:1:0:0:
410,307,86531,1,0,0:0:0:0:
306,143,86698,6,0,B|331:21|331:21|352:72,1,167.9999948731,0|0,3:0|2:0,0:0:0:0:
355,88,87031,1,8,0:0:0:0:
377,258,87198,6,0,P|350:266|322:267,1,55.99999829102,6|0,0:0|2:0,0:0:0:0:
232,351,87365,2,0,P|237:323|249:297,1,55.99999829102,6|0,0:0|2:0,0:0:0:0:
223,178,87532,2,0,P|243:196|259:219,1,55.99999829102,2|0,3:1|2:0,0:0:0:0:
321,351,87698,2,0,L|455:347,1,111.999996582,10|6,0:0|0:0,0:0:0:0:
451,109,88031,6,0,B|446:131|461:161|461:161|453:187|453:187|478:230|437:230|456:270,1,167.9999948731,0|0,3:0|2:0,0:0:0:0:
471,293,88364,1,8,0:0:0:0:
349,158,88531,6,0,L|270:147,1,55.99999829102,6|0,0:0|2:0,0:0:0:0:
266,255,88698,2,0,L|210:262,1,55.99999829102,6|0,0:0|2:0,0:0:0:0:
209,138,88864,2,0,L|130:127,1,55.99999829102,2|0,3:1|2:0,0:0:0:0:
126,273,89031,2,0,B|70:282|70:282|39:261|26:218,1,111.999996582,10|4,0:0|0:0,0:0:0:0:
152,44,89364,6,0,P|148:107|56:152,1,167.9999948731,0|0,3:0|2:0,0:0:0:0:
44,166,89698,2,0,L|5:125,1,55.99999829102,2|0,0:3|2:0,0:0:0:0:
34,29,89864,2,0,L|81:78,1,55.99999829102,2|0,0:3|2:0,0:0:0:0:
183,188,90031,5,10,0:3:0:0:
180,215,90114,1,2,0:3:0:0:
177,243,90197,1,2,0:3:0:0:
175,271,90280,1,2,0:3:0:0:
172,299,90364,2,0,L|158:353,1,55.9999982910157,2|0,0:3|2:0,0:0:0:0:
46,366,90531,2,0,L|59:311,1,55.9999982910157,2|0,0:3|2:0,0:0:0:0:
104,206,90698,5,0,3:0:0:0:
141,188,90781,1,0,1:0:0:0:
183,188,90864,1,0,1:0:0:0:
221,205,90947,1,0,1:0:0:0:
249,236,91031,5,0,1:0:0:0:
270,253,91114,1,0,1:0:0:0:
296,263,91197,1,0,1:0:0:0:
324,262,91280,1,0,1:0:0:0:
350,252,91364,6,0,L|370:289,3,40,8|8|8|8,0:3|0:3|0:3|0:3,0:0:0:0:
424,352,91698,2,0,L|442:316,3,40,4|4|4|4,0:3|0:3|0:3|0:3,0:0:0:0:
432,241,92031,6,0,P|411:198|434:116,1,128,6|0,3:2|0:0,0:0:0:0:
498,180,92531,1,2,0:0:0:0:
426,31,92698,1,8,0:0:0:0:
512,89,92864,1,0,0:0:0:0:
343,58,93031,2,0,P|345:121|319:159,1,96,2|0,0:0|0:0,0:0:0:0:
298,171,93364,6,0,L|224:166,1,64,2|0,3:2|0:0,0:0:0:0:
209,175,93614,1,0,0:0:0:0:
191,193,93698,2,0,P|170:236|172:268,1,64,0|2,0:0|0:0,0:0:0:0:
163,361,94031,2,0,P|126:315|37:313,1,128,8|2,0:0|0:0,0:0:0:0:
36,299,94698,6,0,P|56:241|24:174,1,128,2|0,3:2|0:0,0:0:0:0:
36,44,95198,1,2,0:0:0:0:
113,152,95364,2,0,P|153:149|191:162,1,64,8|0,0:0|0:0,0:0:0:0:
199,166,95614,1,0,0:0:0:0:
224,167,95698,2,0,P|255:173|286:169,1,64,2|0,0:0|0:0,0:0:0:0:
372,81,96031,6,0,L|464:80,1,64,2|0,3:2|0:0,0:0:0:0:
510,178,96364,6,0,L|478:178,1,32,0|0,0:0|0:0,0:0:0:0:
489,251,96531,2,0,L|458:252,1,32,2|0,0:0|0:0,0:0:0:0:
371,157,96698,6,0,L|403:158,1,32,8|0,0:0|0:0,0:0:0:0:
352,233,96864,2,0,L|383:232,1,32,0|0,0:0|0:0,0:0:0:0:
404,306,97031,6,0,B|342:306|342:306|308:316,1,96,2|0,0:0|0:0,0:0:0:0:
309,315,97364,5,2,3:2:0:0:
197,223,97531,2,0,B|204:296|204:296|180:357,1,128,0|2,0:0|0:0,0:0:0:0:
60,299,98031,5,8,0:0:0:0:
50,276,98198,1,0,0:0:0:0:
41,254,98364,1,2,0:0:0:0:
32,232,98531,1,0,0:0:0:0:
23,210,98698,6,0,P|15:138|54:95,1,128,2|0,3:2|0:0,0:0:0:0:
162,36,99364,2,0,L|307:46,1,128,8|2,0:0|0:0,0:0:0:0:
367,234,100031,6,0,P|447:230|485:181,1,128,2|0,3:2|0:0,0:0:0:0:
419,33,100698,2,0,B|419:77|419:77|405:110|405:110|405:158,1,128,8|2,0:0|0:0,0:0:0:0:
226,257,101364,6,0,P|276:294|295:354,1,128,2|0,3:2|0:0,0:0:0:0:
172,319,102031,2,0,L|184:160,1,128,8|2,0:0|0:0,0:0:0:0:
304,27,102698,6,0,P|285:69|323:161,1,128,6|0,3:2|0:0,0:0:0:0:
380,84,103198,1,2,0:0:0:0:
382,232,103364,1,8,0:0:0:0:
450,166,103531,1,0,0:0:0:0:
304,172,103698,2,0,L|203:162,1,96,2|0,0:0|0:0,0:0:0:0:
171,151,104031,6,0,P|169:196|156:233,1,64,2|0,3:2|0:0,0:0:0:0:
147,234,104281,1,0,0:0:0:0:
145,259,104364,2,0,L|148:335,1,64,0|2,0:0|0:0,0:0:0:0:
255,371,104698,2,0,B|298:376|298:376|330:349|330:349|372:354,1,128,8|2,0:0|0:0,0:0:0:0:
392,338,105364,6,0,L|255:325,1,128,2|0,3:2|0:0,0:0:0:0:
235,212,105864,1,2,0:0:0:0:
352,260,106031,2,0,P|361:218|354:184,1,64,8|0,0:0|0:0,0:0:0:0:
356,171,106281,1,0,0:0:0:0:
345,147,106364,2,0,L|279:122,1,64,2|0,0:0|0:0,0:0:0:0:
181,40,106698,6,0,B|186:70|179:107,1,64,2|0,3:2|0:0,0:0:0:0:
88,178,107031,6,0,L|90:217,1,32,0|0,0:0|0:0,0:0:0:0:
168,188,107198,2,0,L|166:219,1,32,2|0,0:0|0:0,0:0:0:0:
119,310,107364,6,0,L|117:278,1,32,8|0,0:0|0:0,0:0:0:0:
195,320,107531,2,0,L|196:288,1,32,0|0,0:0|0:0,0:0:0:0:
243,229,107698,6,0,L|345:235,1,96,2|0,0:0|0:0,0:0:0:0:
338,234,108031,5,2,3:2:0:0:
392,104,108198,2,0,P|387:160|440:219,1,128,0|2,0:0|0:0,0:0:0:0:
503,106,108698,5,8,0:0:0:0:
493,83,108864,1,0,0:0:0:0:
484,61,109031,1,2,0:0:0:0:
475,39,109198,1,0,0:0:0:0:
466,17,109364,6,0,L|332:25,1,128,2|0,3:2|0:0,0:0:0:0:
213,54,110031,2,0,P|256:70|281:160,1,128,8|2,0:0|0:0,0:0:0:0:
214,334,110698,6,0,L|225:195,1,128,2|0,3:2|0:0,0:0:0:0:
100,240,111364,2,0,L|89:367,1,128,8|2,0:0|0:0,0:0:0:0:
24,173,112031,6,0,P|45:117|110:83,1,128,2|0,3:2|0:0,0:0:0:0:
223,123,112698,2,0,L|372:120,1,128,8|2,0:0|0:0,0:0:0:0:
423,24,113364,6,0,P|414:77|483:164,1,160,4|2,0:0|0:0,0:0:0:0:
472,159,114531,1,2,0:0:0:0:
381,316,116031,6,0,B|293:323|293:323|270:341|270:341|227:345,1,160,0|2,0:0|0:0,0:0:0:0:
227,345,117198,1,2,0:0:0:0:
52,32,118698,6,0,B|62:72|62:72|53:102|53:102|70:130|69:164|44:194,1,160,0|2,0:0|0:0,0:0:0:0:
50,184,119864,1,2,0:0:0:0:
195,290,121364,6,0,P|159:264|175:147,1,160,0|2,0:0|0:0,0:0:0:0:
162,158,122531,1,2,0:0:0:0:
493,16,124031,6,0,L|482:151,1,128,4|0,3:2|0:0,0:0:0:0:
451,214,124531,1,0,0:0:0:0:
378,240,124698,2,0,P|324:203|314:135,1,128,0|0,3:0|0:0,0:0:0:0:
216,24,125364,6,0,B|228:78|228:78|213:158,1,128,0|0,3:0|0:0,0:0:0:0:
157,200,125864,1,0,0:0:0:0:
221,241,126031,2,0,B|207:312|207:312|219:366,1,128,0|0,3:0|0:0,0:0:0:0:
358,300,126698,6,0,P|336:231|274:206,1,128,0|0,3:0|0:0,0:0:0:0:
221,241,127198,1,0,0:0:0:0:
157,200,127364,2,0,L|8:189,1,128,0|0,3:0|0:0,0:0:0:0:
1,39,128031,6,0,L|128:48,1,128,0|0,3:0|0:0,0:0:0:0:
188,97,128531,1,0,0:0:0:0:
260,70,128698,2,0,B|292:75|292:75|352:69,1,64,0|0,3:0|0:0,0:0:0:0:
314,148,129031,2,0,B|309:180|309:180|315:240,1,64,0|0,0:0|0:0,0:0:0:0:
377,360,129364,6,0,L|384:279,1,64,0|0,3:0|0:0,0:0:0:0:
469,252,129698,2,0,L|461:332,1,64,0|0,3:0|0:0,0:0:0:0:
310,266,130031,2,0,L|317:185,1,64,0|0,3:0|0:0,0:0:0:0:
402,158,130365,2,0,L|394:238,1,64,0|0,3:0|0:0,0:0:0:0:
225,333,130698,6,0,B|235:302|235:302|230:270,1,64,0|0,3:0|0:0,0:0:0:0:
177,190,131031,2,0,L|94:179,1,64,0|0,3:0|0:0,0:0:0:0:
20,305,131364,2,0,B|15:336|15:336|25:367,1,64,0|0,3:0|0:0,0:0:0:0:
111,324,131698,2,0,L|105:238,1,64,0|0,3:0|0:0,0:0:0:0:
221,89,132031,6,0,B|252:79|252:79|283:83,1,64,0|0,3:0|0:0,0:0:0:0:
364,137,132364,2,0,L|375:220,1,64,0|0,3:0|0:0,0:0:0:0:
249,294,132697,2,0,B|217:298|217:298|186:288,1,64,0|0,3:0|0:0,0:0:0:0:
230,203,133031,2,0,L|316:209,1,64,0|0,3:0|0:0,0:0:0:0:
89,233,133364,6,0,L|25:228,1,64,0|0,3:0|0:0,0:0:0:0:
70,142,133698,2,0,B|101:137|101:137|132:147,1,64,0|0,3:0|0:0,0:0:0:0:
203,290,134031,2,0,B|193:259|193:259|197:227,1,64,0|0,3:0|0:0,0:0:0:0:
251,147,134364,2,0,L|334:136,1,64,0|0,3:0|0:0,0:0:0:0:
484,202,134698,6,0,L|372:194,1,80,12|0,3:2|0:0,0:0:0:0:
255,257,135031,2,0,B|294:250|294:250|351:262,1,80,8|0,0:0|0:0,0:0:0:0:
464,345,135364,2,0,B|457:306|457:306|465:266,1,80,8|0,0:0|0:0,0:0:0:0:
409,116,135698,2,0,L|403:195,1,80,8|0,0:0|0:0,0:0:0:0:
328,337,136031,6,0,P|284:296|276:246,1,80,8|0,0:0|0:0,0:0:0:0:
339,130,136364,2,0,P|325:188|285:219,1,80,8|0,0:0|0:0,0:0:0:0:
154,224,136698,2,0,P|211:206|258:224,1,80,8|0,0:0|0:0,0:0:0:0:
71,232,137031,2,0,P|27:191|19:141,1,80,8|0,0:0|0:0,0:0:0:0:
120,300,137364,6,0,P|106:358|66:389,1,80,8|0,0:0|0:0,0:0:0:0:
31,224,137698,2,0,L|37:131,1,80,8|0,0:0|0:0,0:0:0:0:
134,17,138031,2,0,P|121:54|127:93,1,80,8|0,0:0|0:0,0:0:0:0:
189,241,138364,2,0,L|204:162,1,80,8|0,0:0|0:0,0:0:0:0:
378,17,138698,6,0,P|390:54|384:93,1,80,8|0,0:0|0:0,0:0:0:0:
323,241,139031,2,0,L|307:162,1,80,8|0,0:0|0:0,0:0:0:0:
475,144,139364,2,0,L|481:224,1,80,8|0,0:0|0:0,0:0:0:0:
417,372,139698,2,0,P|396:339|392:300,1,80,8|0,0:0|0:0,0:0:0:0:
295,122,140031,5,8,3:1:0:0:
176,192,140198,1,8,0:0:0:0:
295,260,140364,1,8,0:0:0:0:
216,122,140531,1,8,0:0:0:0:
216,260,140697,5,8,0:0:0:0:
335,192,140864,1,8,0:0:0:0:
176,192,141031,1,8,0:0:0:0:
256,329,141198,1,8,0:0:0:0:
256,193,141364,5,8,0:0:0:0:
137,261,141531,1,8,0:0:0:0:
295,260,141698,1,8,0:0:0:0:
295,122,141864,1,8,0:0:0:0:
176,192,142031,5,8,0:0:0:0:
335,192,142198,1,8,0:0:0:0:
256,54,142364,1,8,0:0:0:0:
256,193,142531,1,8,0:0:0:0:
374,122,142698,6,0,L|421:124,3,47.99999853516,0|0|0|0,3:0|1:0|1:0|1:0,0:0:0:0:
512,125,143031,2,0,L|486:164,3,47.99999853516,0|0|0|0,1:0|1:0|1:0|1:0,0:0:0:0:
440,243,143364,2,0,L|418:201,3,47.99999853516,0|0|0|0,1:0|1:0|1:0|1:0,0:0:0:0:
330,200,143698,2,0,L|283:202,3,47.99999853516,0|0|0|0,1:0|1:0|1:0|1:0,0:0:0:0:
239,180,144031,5,0,0:0:0:0:
221,188,144114,1,0,0:0:0:0:
205,201,144197,1,0,0:0:0:0:
192,216,144281,1,0,0:0:0:0:
182,233,144364,1,0,0:0:0:0:
177,253,144447,1,0,0:0:0:0:
175,272,144531,1,0,0:0:0:0:
177,292,144614,1,0,0:0:0:0:
184,311,144698,5,8,0:3:0:0:
145,300,144781,1,8,0:3:0:0:
106,308,144864,1,8,0:3:0:0:
74,331,144948,1,8,0:3:0:0:
54,365,145031,5,4,0:3:0:0:
20,329,145114,1,4,0:3:0:0:
5,282,145197,1,4,0:3:0:0:
12,233,145281,1,4,0:3:0:0:
39,191,145364,6,0,L|54:126,1,55.99999829102,2|2,3:1|0:0,0:0:0:0:
50,52,145531,2,0,P|88:113|155:123,1,111.999996582,2|8,0:0|0:0,0:0:0:0:
241,39,145864,1,2,0:0:0:0:
186,198,146031,6,0,L|195:320,1,111.999996582,2|0,3:1|0:0,0:0:0:0:
234,324,146281,1,2,0:0:0:0:
274,337,146364,2,0,L|266:225,1,111.999996582,8|2,0:0|0:0,0:0:0:0:
302,92,146698,6,0,B|347:101|347:101|437:87,1,111.999996582,0|0,3:0|0:0,0:0:0:0:
439,85,146948,1,0,0:0:0:0:
439,85,147031,1,10,0:0:0:0:
313,11,147198,1,0,0:0:0:0:
278,174,147364,6,0,L|298:249,1,55.99999829102,2|0,3:1|2:0,0:0:0:0:
354,322,147531,2,0,L|279:301,1,55.99999829102,2|0,0:0|2:0,0:0:0:0:
187,313,147698,2,0,L|241:258,1,55.99999829102,10|0,0:0|0:0,0:0:0:0:
367,245,147864,1,2,0:0:0:0:
319,26,148031,6,0,L|299:101,1,55.99999829102,2|2,3:1|0:0,0:0:0:0:
243,139,148198,2,0,P|255:71|234:30,1,111.999996582,2|8,0:0|0:0,0:0:0:0:
166,161,148531,1,2,0:0:0:0:
69,22,148698,6,0,B|75:61|75:61|55:134,1,111.999996582,2|0,3:1|0:0,0:0:0:0:
31,165,148948,1,2,0:0:0:0:
11,202,149031,2,0,B|5:241|5:241|24:310,1,111.999996582,8|2,0:0|0:0,0:0:0:0:
186,265,149364,6,0,L|300:273,1,111.999996582,0|2,3:0|0:0,0:0:0:0:
325,274,149614,1,0,2:0:0:0:
325,274,149698,1,10,0:0:0:0:
186,180,149864,6,0,L|300:188,1,111.999996582,0|2,3:0|0:0,0:0:0:0:
325,189,150114,1,0,2:0:0:0:
325,189,150198,1,2,3:1:0:0:
186,95,150364,6,0,B|139:69|77:69|77:69|126:46,1,167.9999948731,8|0,0:0|2:0,0:0:0:0:
207,19,150698,6,0,P|228:29|256:57,1,55.99999829102,2|2,3:1|0:0,0:0:0:0:
270,132,150864,2,0,B|312:111|312:111|411:111,1,111.999996582,2|8,0:0|0:0,0:0:0:0:
494,23,151198,1,2,0:0:0:0:
452,185,151364,6,0,P|491:183|450:158,1,111.999996582,2|0,3:1|0:0,0:0:0:0:
380,189,151614,1,2,0:0:0:0:
380,189,151698,2,0,L|368:330,1,111.999996582,8|2,0:0|0:0,0:0:0:0:
186,351,152031,6,0,P|218:297|266:277,1,111.999996582,0|0,3:0|0:0,0:0:0:0:
289,282,152281,1,0,0:0:0:0:
289,282,152364,1,10,0:0:0:0:
135,267,152531,1,0,0:0:0:0:
233,135,152698,6,0,L|302:146,1,55.99999829102,2|0,3:1|2:0,0:0:0:0:
381,204,152864,2,0,L|312:215,1,55.99999829102,2|0,0:0|2:0,0:0:0:0:
233,273,153031,2,0,L|302:284,1,55.99999829102,10|0,0:0|2:0,0:0:0:0:
364,130,153198,1,2,0:0:0:0:
178,29,153364,6,0,B|181:58|181:58|176:84,1,55.99999829102,2|2,3:1|0:0,0:0:0:0:
138,160,153531,2,0,B|132:102|132:102|141:50,1,111.999996582,2|8,0:0|0:0,0:0:0:0:
284,19,153864,1,2,0:0:0:0:
223,176,154031,6,0,L|212:313,1,111.999996582,2|0,3:1|0:0,0:0:0:0:
184,318,154281,1,2,0:0:0:0:
149,342,154364,2,0,P|208:334|267:358,1,111.999996582,8|2,0:0|0:0,0:0:0:0:
360,217,154698,6,0,B|360:274|360:274|380:291|388:321,1,111.999996582,0|0,3:0|2:0,0:0:0:0:
421,165,154948,2,0,B|371:136|371:136|346:145|316:137,1,111.999996582,8|0,0:0|2:0,0:0:0:0:
435,243,155198,2,0,B|484:214|484:214|489:188|511:166,1,111.999996582,0|0,3:0|2:0,0:0:0:0:
393,61,155448,2,0,B|401:91|392:115|392:115|420:165,1,111.999996582,0|0,3:0|2:0,0:0:0:0:
473,15,155698,5,10,0:0:0:0:
431,18,155781,1,2,0:0:0:0:
389,22,155864,1,0,2:0:0:0:
347,25,155948,1,0,0:0:0:0:
305,29,156031,6,0,L|236:35,1,55.99999829102,2|2,3:1|0:0,0:0:0:0:
164,31,156198,2,0,P|210:59|223:113,1,111.999996582,2|8,0:0|0:0,0:0:0:0:
163,246,156531,1,2,0:0:0:0:
25,149,156698,6,0,L|141:157,1,111.999996582,2|0,3:1|0:0,0:0:0:0:
177,171,156948,1,2,0:0:0:0:
215,187,157031,2,0,L|326:179,1,111.999996582,8|2,0:0|0:0,0:0:0:0:
384,21,157364,6,0,P|374:59|405:130,1,111.999996582,0|0,3:0|0:0,0:0:0:0:
411,150,157614,1,0,0:0:0:0:
411,150,157698,1,10,0:0:0:0:
394,294,157864,1,0,0:0:0:0:
306,150,158031,6,0,L|298:229,1,55.99999829102,2|0,3:1|2:0,0:0:0:0:
312,317,158198,2,0,L|247:270,1,55.99999829102,2|0,0:0|2:0,0:0:0:0:
165,239,158364,2,0,L|237:206,1,55.99999829102,10|0,0:0|0:0,0:0:0:0:
360,256,158531,1,2,0:0:0:0:
195,332,158698,6,0,L|124:323,1,55.99999829102,2|2,3:1|0:0,0:0:0:0:
63,360,158864,2,0,P|93:304|77:242,1,111.999996582,2|8,0:0|0:0,0:0:0:0:
29,123,159198,1,2,0:0:0:0:
195,139,159364,2,0,P|250:128|310:145,1,111.999996582,2|0,3:1|0:0,0:0:0:0:
344,152,159614,1,2,0:0:0:0:
382,171,159698,2,0,L|377:49,1,111.999996582,8|2,0:0|0:0,0:0:0:0:
313,215,160031,6,0,P|299:268|314:322,1,111.999996582,0|2,3:0|0:0,0:0:0:0:
329,345,160281,1,0,2:0:0:0:
329,345,160364,1,10,0:0:0:0:
214,221,160531,6,0,P|160:206|106:221,1,111.999996582,0|2,3:0|0:0,0:0:0:0:
84,236,160781,1,0,2:0:0:0:
84,236,160864,1,2,3:1:0:0:
258,129,161031,6,0,B|271:75|264:44|232:11|232:11|226:33|233:49,1,167.9999948731,8|0,0:0|2:0,0:0:0:0:
295,86,161364,6,0,P|387:102|470:56,1,191.9999941406,2|4,3:1|0:1,0:0:0:0:
349,22,161864,1,4,0:1:0:0:
336,175,162031,2,0,B|331:233|331:233|340:272,1,95.99999707031,12|4,0:1|0:1,0:0:0:0:
493,272,162364,2,0,B|445:238|445:238|406:226,1,95.99999707031,4|4,0:1|0:1,0:0:0:0:
263,281,162698,6,0,B|227:274|199:288|199:288|136:262|133:304|72:275,1,191.9999941406,0|4,3:0|0:1,0:0:0:0:
159,367,163198,1,4,0:1:0:0:
200,210,163364,2,0,P|208:158|194:113,1,95.99999707031,12|4,0:1|0:1,0:0:0:0:
73,23,163698,2,0,P|65:75|79:120,1,95.99999707031,4|4,0:1|0:1,0:0:0:0:
258,161,164031,6,0,L|306:153,3,40,0|0|0|0,3:0|1:0|1:0|1:0,0:0:0:0:
355,210,164364,2,0,L|394:216,3,40,0|0|0|0,1:0|1:0|1:0|1:0,0:0:0:0:
472,192,164698,2,0,L|480:240,3,40,2|0|0|2,1:0|1:0|1:0|1:0,0:0:0:0:
423,289,165031,2,0,L|416:328,3,40,0|0|2|0,1:0|1:0|1:0|1:0,0:0:0:0:
382,350,165364,5,0,0:0:0:0:
365,338,165447,1,0,0:0:0:0:
347,329,165530,1,0,0:0:0:0:
328,324,165614,1,0,0:0:0:0:
308,321,165697,1,0,0:0:0:0:
288,322,165780,1,0,0:0:0:0:
269,327,165864,1,0,0:0:0:0:
250,334,165947,1,0,0:0:0:0:
233,345,166031,5,2,0:0:0:0:
193,340,166114,1,2,0:0:0:0:
162,316,166197,1,2,0:0:0:0:
146,280,166281,1,0,0:0:0:0:
151,240,166364,5,2,0:0:0:0:
176,198,166448,1,2,0:0:0:0:
218,172,166531,1,2,0:0:0:0:
267,169,166615,1,0,0:0:0:0:
312,189,166698,6,0,L|383:186,1,55.99999829102,2|2,3:1|0:0,0:0:0:0:
432,132,166864,2,0,P|417:207|436:267,1,111.999996582,2|8,0:0|0:0,0:0:0:0:
508,120,167198,1,0,0:0:0:0:
354,54,167364,6,0,B|310:64|310:64|243:57,1,111.999996582,2|0,0:0|3:0,0:0:0:0:
202,48,167614,1,2,0:0:0:0:
160,39,167698,2,0,P|176:98|140:171,1,111.999996582,8|2,0:0|0:0,0:0:0:0:
28,205,168031,5,0,3:0:0:0:
185,226,168198,1,0,0:0:0:0:
185,226,168281,1,0,0:0:0:0:
185,226,168364,1,10,0:0:0:0:
67,139,168531,1,0,0:0:0:0:
96,295,168698,5,2,0:0:0:0:
96,295,168781,1,0,2:0:0:0:
96,295,168864,2,0,L|166:291,1,55.99999829102,2|0,3:1|2:0,0:0:0:0:
220,341,169031,2,0,L|275:344,1,55.99999829102,10|0,0:0|0:0,0:0:0:0:
348,300,169198,1,2,0:0:0:0:
259,158,169364,6,0,P|270:124|272:80,1,55.99999829102,2|2,3:1|0:0,0:0:0:0:
308,28,169531,2,0,B|305:94|305:94|329:155,1,111.999996582,2|8,0:0|0:0,0:0:0:0:
437,225,169864,1,2,0:0:0:0:
443,54,170031,6,0,P|487:38|459:76,1,111.999996582,2|0,0:0|3:0,0:0:0:0:
414,122,170281,1,2,0:0:0:0:
414,122,170364,2,0,L|292:117,1,111.999996582,8|2,0:0|0:0,0:0:0:0:
156,165,170698,5,0,3:0:0:0:
241,21,170864,1,2,0:0:0:0:
241,21,170948,1,0,0:0:0:0:
241,21,171031,1,10,0:0:0:0:
114,92,171198,5,0,3:0:0:0:
199,236,171364,1,2,0:0:0:0:
199,236,171448,1,0,0:0:0:0:
199,236,171531,1,2,3:1:0:0:
397,197,171698,6,0,B|510:215|510:215|460:236,1,167.9999948731,8|0,0:0|2:0,0:0:0:0:
384,271,172031,6,0,P|381:298|389:334,1,55.99999829102,2|2,3:1|0:0,0:0:0:0:
461,364,172198,2,0,L|305:365,1,111.999996582,2|8,0:0|0:0,0:0:0:0:
203,372,172531,1,0,0:0:0:0:
286,225,172698,6,0,P|297:168|265:89,1,111.999996582,2|0,0:0|3:0,0:0:0:0:
246,96,172948,1,2,0:0:0:0:
206,82,173031,2,0,L|67:85,1,111.999996582,8|2,0:0|0:0,0:0:0:0:
11,230,173364,6,0,P|45:183|106:168,1,111.999996582,0|0,3:0|0:0,0:0:0:0:
122,172,173614,1,0,0:0:0:0:
122,172,173698,1,10,0:0:0:0:
265,189,173864,1,0,0:0:0:0:
314,28,174031,5,2,0:0:0:0:
314,28,174114,1,0,2:0:0:0:
314,28,174198,2,0,L|320:98,1,55.99999829102,2|0,3:1|2:0,0:0:0:0:
370,149,174364,2,0,L|364:219,1,55.99999829102,10|0,0:0|2:0,0:0:0:0:
324,279,174531,1,2,0:0:0:0:
155,268,174698,6,0,P|166:286|174:322,1,55.99999829102,2|2,3:1|0:0,0:0:0:0:
129,248,174864,2,0,L|127:124,1,111.999996582,2|8,0:0|0:0,0:0:0:0:
4,56,175198,1,2,0:0:0:0:
170,35,175364,6,0,B|210:43|210:43|295:37,1,111.999996582,2|0,0:0|3:0,0:0:0:0:
322,48,175614,1,2,0:0:0:0:
364,44,175698,2,0,P|418:40|459:76,1,111.999996582,8|2,0:0|0:0,0:0:0:0:
428,219,176031,5,0,3:0:0:0:
286,128,176198,1,2,0:0:0:0:
286,128,176281,1,0,0:0:0:0:
286,128,176364,1,10,0:0:0:0:
430,144,176531,5,0,3:0:0:0:
422,313,176698,1,2,0:0:0:0:
422,313,176781,1,2,0:0:0:0:
422,313,176864,1,2,3:1:0:0:
189,228,177031,5,10,0:0:0:0:
216,196,177114,1,2,0:0:0:0:
255,181,177197,1,2,0:0:0:0:
296,183,177281,1,0,0:0:0:0:
332,204,177364,6,0,L|337:266,1,55.99999829102,2|2,3:1|0:0,0:0:0:0:
377,334,177531,2,0,L|384:222,1,111.999996582,2|8,0:0|0:0,0:0:0:0:
277,122,177864,1,2,0:0:0:0:
438,75,178031,6,0,P|481:86|463:45,1,111.999996582,2|0,0:0|3:0,0:0:0:0:
382,20,178281,1,2,0:0:0:0:
382,20,178364,2,0,L|250:31,1,111.999996582,8|2,0:0|0:0,0:0:0:0:
201,183,178698,6,0,P|219:126|207:74,1,111.999996582,0|0,3:0|0:0,0:0:0:0:
191,53,178948,1,0,0:0:0:0:
191,53,179031,1,10,0:0:0:0:
50,90,179198,1,0,0:0:0:0:
132,235,179364,5,2,0:0:0:0:
132,235,179448,1,0,2:0:0:0:
132,235,179531,2,0,L|208:228,1,55.99999829102,2|0,3:1|2:0,0:0:0:0:
178,331,179698,2,0,L|233:336,1,55.99999829102,10|0,0:0|0:0,0:0:0:0:
270,221,179864,1,2,0:0:0:0:
200,68,180031,6,0,L|255:62,1,55.99999829102,2|2,3:1|0:0,0:0:0:0:
320,7,180198,2,0,P|306:72|337:126,1,111.999996582,2|8,0:0|0:0,0:0:0:0:
458,165,180531,1,2,0:0:0:0:
381,315,180698,6,0,P|363:254|388:200,1,111.999996582,2|0,0:0|3:0,0:0:0:0:
403,175,180948,1,2,0:0:0:0:
376,142,181031,2,0,L|249:135,1,111.999996582,8|2,0:0|0:0,0:0:0:0:
194,264,181364,5,0,3:0:0:0:
116,114,181531,1,2,0:0:0:0:
116,114,181614,1,0,0:0:0:0:
116,114,181698,1,10,0:0:0:0:
231,201,181864,5,0,3:0:0:0:
309,51,182031,1,2,0:0:0:0:
309,51,182114,1,0,0:0:0:0:
309,51,182198,1,2,3:1:0:0:
141,44,182364,6,0,P|74:83|17:19,1,167.9999948731,8|0,0:0|2:0,0:0:0:0:
45,94,182698,6,0,B|56:128|48:175|48:175|26:198|26:198|19:237|31:274,1,191.9999941406,2|4,3:1|0:1,0:0:0:0:
83,355,183198,1,4,0:1:0:0:
166,238,183364,2,0,L|267:246,1,95.99999707031,12|4,0:1|0:1,0:0:0:0:
169,357,183698,2,0,L|264:349,1,95.99999707031,4|4,0:1|0:1,0:0:0:0:
344,229,184031,6,0,P|423:229|480:336,1,191.9999941406,0|4,3:0|0:1,0:0:0:0:
385,319,184531,1,4,0:1:0:0:
323,188,184698,2,0,B|328:141|328:141|312:71,1,95.99999707031,12|4,0:1|0:1,0:0:0:0:
431,5,185031,2,0,B|426:52|426:52|442:122,1,95.99999707031,4|4,0:1|0:1,0:0:0:0:
403,214,185364,6,0,L|400:270,3,40,0|0|0|0,3:0|1:0|1:0|1:0,0:0:0:0:
328,325,185698,2,0,L|326:286,3,40,0|0|0|0,1:0|0:0|1:0|1:0,0:0:0:0:
255,247,186031,2,0,L|257:207,3,40,2|0|0|2,1:0|1:0|1:0|1:0,0:0:0:0:
181,279,186365,2,0,L|183:318,3,40,0|0|0|0,1:0|0:0|0:0|1:0,0:0:0:0:
159,242,186698,5,0,0:0:0:0:
170,225,186781,1,0,0:0:0:0:
179,207,186864,1,0,0:0:0:0:
184,188,186948,1,0,0:0:0:0:
185,168,187031,1,0,0:0:0:0:
182,148,187114,1,0,0:0:0:0:
175,130,187198,1,0,0:0:0:0:
164,113,187281,1,0,0:0:0:0:
151,98,187365,5,2,0:0:0:0:
186,116,187448,1,2,0:0:0:0:
226,120,187531,1,2,0:0:0:0:
264,108,187615,1,0,0:0:0:0:
294,83,187698,5,2,0:0:0:0:
337,58,187781,1,2,0:0:0:0:
387,54,187864,1,2,0:0:0:0:
433,72,187948,1,0,0:0:0:0:
467,107,188031,6,0,P|456:153|467:199,1,95.99999707031,4|2,3:2|0:0,0:0:0:0:
470,324,188364,1,8,0:0:0:0:
470,324,188448,1,2,0:0:0:0:
470,324,188531,1,0,0:0:0:0:
358,232,188698,2,0,L|255:241,1,95.99999707031,2|0,0:0|3:0,0:0:0:0:
262,240,188948,1,2,0:0:0:0:
262,240,189031,1,8,0:0:0:0:
194,135,189198,1,2,0:0:0:0:
60,187,189364,6,0,P|30:138|48:79,1,95.99999707031,0|2,3:0|0:0,0:0:0:0:
102,128,189614,1,0,0:0:0:0:
102,128,189698,2,0,L|94:260,1,95.99999707031,8|0,0:0|0:0,0:0:0:0:
72,346,190031,1,2,0:0:0:0:
192,266,190198,1,0,3:0:0:0:
192,266,190281,1,2,0:0:0:0:
192,266,190364,1,8,0:0:0:0:
312,346,190531,1,2,0:0:0:0:
281,204,190698,6,0,L|294:82,1,95.99999707031,0|2,3:0|0:0,0:0:0:0:
384,25,191031,1,8,0:0:0:0:
384,25,191114,1,2,0:0:0:0:
384,25,191198,1,0,0:0:0:0:
474,136,191364,2,0,B|481:185|481:185|468:229,1,95.99999707031,2|0,0:0|3:0,0:0:0:0:
468,229,191614,1,2,0:0:0:0:
468,229,191698,1,8,0:0:0:0:
349,265,191864,1,2,0:0:0:0:
229,182,192031,6,0,L|230:82,1,95.99999707031,0|2,3:0|0:0,0:0:0:0:
170,46,192281,1,0,0:0:0:0:
170,46,192364,2,0,L|95:56,1,47.99999853516,8|2,0:0|0:0,0:0:0:0:
6,118,192531,6,0,P|13:179|125:148,1,191.9999941406,0|0,3:0|3:0,0:0:0:0:
95,238,192948,1,2,0:0:0:0:
95,238,193031,2,0,L|102:344,1,95.99999707031,8|2,0:0|0:0,0:0:0:0:
234,279,193364,6,0,P|294:271|336:285,1,95.99999707031,0|2,3:0|0:0,0:0:0:0:
425,359,193698,1,8,0:0:0:0:
425,359,193781,1,2,0:0:0:0:
425,359,193864,1,0,0:0:0:0:
385,220,194031,2,0,L|391:97,1,95.99999707031,2|0,0:0|3:0,0:0:0:0:
389,124,194281,1,2,0:0:0:0:
389,124,194364,1,8,0:0:0:0:
462,22,194531,1,2,0:0:0:0:
318,38,194698,6,0,L|207:25,1,95.99999707031,0|2,3:0|0:0,0:0:0:0:
210,98,194948,1,0,0:0:0:0:
210,98,195031,2,0,L|305:109,1,95.99999707031,8|0,0:0|0:0,0:0:0:0:
385,220,195364,1,2,0:0:0:0:
319,326,195531,1,0,3:0:0:0:
319,326,195614,1,2,0:0:0:0:
319,326,195698,1,8,0:0:0:0:
200,245,195864,1,2,0:0:0:0:
281,125,196031,6,0,P|288:180|275:231,1,95.99999707031,2|2,3:1|0:0,0:0:0:0:
163,172,196364,1,10,0:1:0:0:
163,172,196448,1,2,0:0:0:0:
163,172,196531,1,0,0:0:0:0:
300,129,196698,2,0,L|421:143,1,95.99999707031,2|0,0:1|3:0,0:0:0:0:
395,140,196948,1,2,0:1:0:0:
395,140,197031,1,8,0:0:0:0:
483,229,197198,1,2,0:1:0:0:
404,349,197364,6,0,P|381:303|383:247,1,95.99999707031,2|2,3:1|0:0,0:0:0:0:
420,198,197614,1,0,0:0:0:0:
420,198,197698,2,0,L|420:137,1,47.99999853516,10|2,0:1|0:0,0:0:0:0:
381,35,197864,6,0,P|377:88|247:94,1,191.9999941406,0|0,3:0|3:0,0:0:0:0:
197,75,198281,1,2,0:1:0:0:
197,75,198364,2,0,B|210:116|210:116|205:169,1,95.99999707031,8|2,0:0|0:1,0:0:0:0:
172,233,198614,1,0,0:0:0:0:
172,233,198698,6,0,P|163:289|185:336,1,95.99999707031,4|2,3:2|0:0,0:0:0:0:
254,226,199031,1,8,0:0:0:0:
254,226,199114,1,2,0:0:0:0:
254,226,199198,1,0,0:0:0:0:
120,174,199364,2,0,L|8:178,1,95.99999707031,2|0,0:0|3:0,0:0:0:0:
24,177,199614,1,2,0:0:0:0:
24,177,199698,1,8,0:0:0:0:
65,59,199864,1,2,0:0:0:0:
188,134,200031,6,0,P|201:82|180:29,1,95.99999707031,0|2,3:0|0:0,0:0:0:0:
253,8,200281,1,0,0:0:0:0:
253,8,200364,2,0,L|360:17,1,95.99999707031,8|0,0:0|0:0,0:0:0:0:
478,80,200698,1,2,0:0:0:0:
359,160,200864,1,0,3:0:0:0:
359,160,200948,1,2,0:0:0:0:
359,160,201031,1,8,0:0:0:0:
414,47,201198,1,2,0:0:0:0:
452,185,201364,6,0,L|443:280,1,95.99999707031,0|2,3:0|0:0,0:0:0:0:
356,371,201698,1,8,0:0:0:0:
356,371,201781,1,2,0:0:0:0:
356,371,201864,1,0,0:0:0:0:
264,235,202031,2,0,P|272:286|261:331,1,95.99999707031,2|0,0:0|3:0,0:0:0:0:
262,328,202281,1,2,0:0:0:0:
262,328,202364,1,8,0:0:0:0:
118,315,202531,1,2,0:0:0:0:
195,191,202698,6,0,L|198:81,1,95.99999707031,0|2,3:0|0:0,0:0:0:0:
145,44,202948,1,0,0:0:0:0:
145,44,203031,2,0,P|114:43|74:51,1,47.99999853516,8|2,0:0|0:0,0:0:0:0:
3,135,203198,6,0,P|91:148|102:237,1,191.9999941406,0|0,3:0|3:0,0:0:0:0:
50,286,203614,1,2,0:0:0:0:
50,286,203698,2,0,L|164:295,1,95.99999707031,8|2,0:0|0:0,0:0:0:0:
272,362,204031,6,0,L|367:354,1,95.99999707031,0|2,3:0|0:0,0:0:0:0:
480,299,204364,1,8,0:0:0:0:
480,299,204448,1,2,0:0:0:0:
480,299,204531,1,0,0:0:0:0:
341,212,204698,2,0,P|386:226|432:213,1,95.99999707031,2|0,0:0|3:0,0:0:0:0:
432,213,204948,1,2,0:0:0:0:
432,213,205031,1,8,0:0:0:0:
498,85,205198,1,2,0:0:0:0:
356,102,205364,6,0,L|260:106,1,95.99999707031,0|2,3:0|0:0,0:0:0:0:
194,72,205614,1,0,0:0:0:0:
194,72,205698,2,0,P|148:63|101:73,1,95.99999707031,8|0,0:0|0:0,0:0:0:0:
16,165,206031,1,2,0:0:0:0:
121,290,206198,1,0,3:0:0:0:
121,290,206281,1,2,0:0:0:0:
121,290,206364,1,8,0:0:0:0:
0,259,206531,1,2,0:0:0:0:
151,197,206698,6,0,B|198:191|198:191|245:199,1,95.99999707031,2|2,3:1|0:0,0:0:0:0:
317,186,206948,1,0,0:0:0:0:
317,186,207031,2,0,P|341:187|368:192,1,47.99999853516,10|2,0:1|0:0,0:0:0:0:
394,308,207198,5,0,0:0:0:0:
394,308,207281,1,0,0:0:0:0:
394,308,207364,2,0,P|429:270|439:211,1,95.99999707031,2|0,0:1|3:0,0:0:0:0:
440,154,207614,1,2,0:1:0:0:
440,154,207698,2,0,P|430:133|424:110,1,47.99999853516,8|0,0:0|0:0,0:0:0:0:
341,24,207864,5,2,0:1:0:0:
341,24,207948,1,0,0:0:0:0:
341,24,208031,2,0,P|297:40|250:33,1,95.99999707031,2|2,3:1|0:0,0:0:0:0:
179,51,208281,1,0,0:0:0:0:
179,51,208364,2,0,L|106:44,1,47.99999853516,10|2,0:1|0:0,0:0:0:0:
12,23,208531,6,0,P|45:70|18:177,1,143.9999956055,0|0,3:0|0:0,0:0:0:0:
42,225,208864,1,0,3:0:0:0:
160,138,209031,2,0,L|292:142,1,95.99999707031,8|2,0:0|0:1,0:0:0:0:
325,119,209281,1,0,0:0:0:0:
325,119,209364,6,0,B|306:147|314:182|314:182|328:195|328:195|343:231|326:269,1,160,6|0,3:2|0:0,0:0:0:0:
247,234,209864,1,2,0:0:0:0:
328,356,210031,1,8,0:0:0:0:
412,290,210198,1,0,0:0:0:0:
237,308,210364,2,0,P|174:298|119:319,1,120,2|0,0:0|0:0,0:0:0:0:
76,331,210698,6,0,P|85:269|74:236,1,80,2|0,3:2|0:0,0:0:0:0:
64,225,210948,1,0,0:0:0:0:
63,193,211031,2,0,B|55:152|55:152|62:114,1,80,0|2,0:0|0:0,0:0:0:0:
135,152,211364,1,8,0:0:0:0:
93,29,211531,1,0,0:0:0:0:
220,85,211698,2,0,B|262:97|262:97|345:86,1,120,2|0,0:0|0:0,0:0:0:0:
378,60,212031,6,0,P|375:143|436:196,1,160,2|0,3:2|0:0,0:0:0:0:
464,104,212531,1,2,0:0:0:0:
475,266,212698,2,0,P|438:278|398:274,1,80,8|0,0:0|0:0,0:0:0:0:
367,281,212948,1,0,0:0:0:0:
336,290,213031,2,0,L|222:288,1,80,2|0,0:0|0:0,0:0:0:0:
166,208,213364,6,0,B|177:253|177:253|166:311,1,80,2|0,3:2|0:0,0:0:0:0:
217,127,213698,6,0,L|272:112,1,40,0|0,0:0|0:0,0:0:0:0:
342,116,213864,2,0,L|397:131,1,40,2|0,0:0|0:0,0:0:0:0:
291,197,214031,6,0,L|236:212,1,40,8|0,0:0|0:0,0:0:0:0:
166,208,214197,2,0,L|111:193,1,40,0|0,0:0|0:0,0:0:0:0:
131,84,214364,6,0,P|92:130|19:130,1,120,2|0,0:0|0:0,0:0:0:0:
35,136,214698,5,2,3:2:0:0:
80,25,214864,2,0,B|129:40|129:40|239:29,1,160,0|2,0:0|0:0,0:0:0:0:
399,44,215364,5,8,0:0:0:0:
418,138,215531,2,0,L|417:186,1,40,0|0,0:0|0:0,0:0:0:0:
314,94,215698,1,2,0:0:0:0:
295,188,215865,1,0,0:0:0:0:
202,127,216031,6,0,L|214:214,1,80,2|2,3:2|0:1,0:0:0:0:
178,279,216281,1,0,0:0:0:0:
178,279,216364,2,0,L|190:366,1,80,0|2,0:0|0:0,0:0:0:0:
303,320,216698,1,8,0:0:0:0:
416,358,216864,1,0,0:0:0:0:
416,358,216948,1,0,0:0:0:0:
416,358,217031,2,0,P|429:308|414:257,1,80,2|2,0:1|0:0,0:0:0:0:
355,136,217364,6,0,B|347:161|348:182|348:182|360:212|360:212|349:260,1,120,2|0,3:1|0:0,0:0:0:0:
350,251,217698,1,2,0:1:0:0:
240,136,217864,1,2,0:0:0:0:
228,125,217947,1,0,0:0:0:0:
217,114,218031,6,0,B|183:124|155:118|155:118|129:108|92:117,1,120,10|2,0:1|0:1,0:0:0:0:
98,116,218364,1,2,0:0:0:0:
106,309,218531,1,2,0:1:0:0:
116,320,218614,1,0,0:0:0:0:
127,332,218698,6,0,P|152:281|128:208,1,120,2|0,3:1|0:0,0:0:0:0:
138,221,219031,1,2,0:1:0:0:
22,111,219198,1,2,0:0:0:0:
18,95,219281,1,0,0:0:0:0:
14,80,219364,6,0,P|44:39|134:40,1,120,10|2,0:1|0:1,0:0:0:0:
109,28,219698,1,2,0:0:0:0:
235,125,219864,2,0,P|270:120|301:126,1,40,2|0,0:1|0:0,0:0:0:0:
370,157,220031,6,0,B|288:168|288:168|211:154,1,160,0|0,3:0|0:0,0:0:0:0:
182,229,220531,1,2,0:0:0:0:
59,151,220698,1,8,0:0:0:0:
143,84,220864,1,0,0:0:0:0:
101,239,221031,2,0,P|83:289|115:351,1,120,2|0,0:0|0:0,0:0:0:0:
157,337,221364,6,0,P|201:333|235:340,1,80,2|0,3:2|0:0,0:0:0:0:
266,330,221614,1,0,0:0:0:0:
296,341,221698,2,0,P|333:348|388:333,1,80,0|2,0:0|0:0,0:0:0:0:
465,306,222031,1,8,0:0:0:0:
385,213,222198,1,0,0:0:0:0:
489,139,222364,2,0,P|501:174|459:148,1,120,2|0,0:0|0:0,0:0:0:0:
463,116,222698,6,0,B|421:129|421:129|390:117|382:130|351:117|351:117|307:126,1,160,2|0,3:2|0:0,0:0:0:0:
253,59,223198,1,2,0:0:0:0:
275,209,223364,2,0,P|263:254|269:301,1,80,8|0,0:0|0:0,0:0:0:0:
255,317,223614,1,0,0:0:0:0:
224,328,223698,2,0,L|126:341,1,80,2|0,0:0|0:0,0:0:0:0:
18,250,224031,6,0,L|116:263,1,80,2|0,3:2|0:0,0:0:0:0:
210,142,224364,6,0,L|159:147,1,40,0|0,0:0|0:0,0:0:0:0:
205,222,224531,2,0,L|154:227,1,40,2|0,0:0|0:0,0:0:0:0:
306,178,224698,6,0,L|357:183,1,40,8|0,0:3|0:0,0:0:0:0:
301,98,224864,2,0,L|352:103,1,40,0|0,0:0|0:0,0:0:0:0:
439,169,225031,6,0,P|419:220|453:295,1,120,2|0,0:0|0:0,0:0:0:0:
437,279,225364,5,2,3:2:0:0:
317,263,225531,2,0,B|295:297|299:345|330:362|330:362|350:340|338:317,1,160,0|2,0:0|0:0,0:0:0:0:
225,277,226031,5,8,0:0:0:0:
133,262,226198,2,0,L|91:266,1,40,0|0,0:0|0:0,0:0:0:0:
196,352,226364,1,2,0:0:0:0:
104,367,226531,1,0,0:0:0:0:
20,266,226698,6,0,P|14:227|25:190,1,80,2|2,3:2|0:1,0:0:0:0:
28,157,226948,1,0,0:0:0:0:
58,146,227031,2,0,L|163:155,1,80,0|0,0:0|0:0,0:0:0:0:
224,68,227364,1,10,0:0:0:0:
237,220,227531,1,0,0:0:0:0:
237,220,227614,1,0,0:0:0:0:
237,220,227698,2,0,P|275:228|315:223,1,80,2|0,0:1|0:0,0:0:0:0:
406,101,228031,6,0,B|400:150|400:150|411:238,1,120,2|0,3:1|0:0,0:0:0:0:
408,220,228364,1,2,0:1:0:0:
332,79,228531,1,2,0:0:0:0:
329,94,228614,1,0,0:0:0:0:
327,111,228698,6,0,P|265:98|204:112,1,120,10|2,0:1|0:1,0:0:0:0:
210,109,229031,1,2,0:0:0:0:
56,160,229198,1,2,0:1:0:0:
42,168,229281,1,0,0:0:0:0:
28,176,229364,6,0,B|77:170|77:170|165:181,1,120,2|0,3:1|0:0,0:0:0:0:
147,178,229698,1,2,0:1:0:0:
260,336,229864,1,2,0:0:0:0:
244,338,229947,1,0,0:0:0:0:
227,340,230031,6,0,P|240:278|226:217,1,120,10|2,0:1|0:1,0:0:0:0:
228,224,230364,1,2,0:0:0:0:
314,88,230531,1,2,0:1:0:0:
315,107,230614,1,0,0:0:0:0:
317,127,230698,6,0,B|345:131|361:146|361:146|390:123|434:118|470:140,1,160,6|2,3:2|0:0,0:0:0:0:
419,223,231864,1,2,0:0:0:0:
204,206,232864,6,0,L|209:246,1,40,2|0,0:0|0:0,0:0:0:0:
195,127,233364,6,0,B|167:131|151:146|151:146|122:123|78:118|42:140,1,160,2|2,0:0|0:0,0:0:0:0:
93,223,234530,1,2,0:0:0:0:
256,204,235531,5,0,0:0:0:0:
357,353,236031,6,0,P|408:330|402:223,1,160,2|2,0:0|0:0,0:0:0:0:
413,235,237198,1,2,0:0:0:0:
158,279,238198,6,0,L|177:240,1,40,2|0,0:0|0:0,0:0:0:0:
155,353,238698,6,0,P|104:330|110:223,1,160,2|2,0:0|0:0,0:0:0:0:
98,235,239865,1,2,0:0:0:0:
256,56,240864,5,0,0:0:0:0:
311,227,241364,6,0,B|350:223|388:235|388:235|417:204|417:204|456:198,1,160,6|2,0:0|0:0,0:0:0:0:
456,197,242531,1,2,0:0:0:0:
157,146,243531,6,0,L|165:91,1,40,2|0,0:0|0:0,0:0:0:0:
201,227,244031,6,0,B|162:223|124:235|124:235|95:204|95:204|56:198,1,160,2|2,0:0|0:0,0:0:0:0:
56,197,245198,1,2,0:0:0:0:
256,192,246198,5,0,0:0:0:0:
318,23,246698,6,0,B|304:56|314:81|314:81|346:105|346:105|352:138|340:164,1,160,2|2,0:0|0:0,0:0:0:0:
340,164,247864,1,0,0:0:0:0:
105,58,248864,6,0,L|62:49,1,40,2|0,0:0|0:0,0:0:0:0:
194,23,249364,6,0,B|208:56|198:81|198:81|166:105|166:105|160:138|171:164,1,160,2|2,0:0|0:0,0:0:0:0:
172,164,250530,1,0,0:0:0:0:
321,122,252031,6,0,L|461:107,1,128,6|2,0:0|0:0,0:0:0:0:
393,29,253198,2,0,L|297:39,2,96,2|2|2,0:0|0:0|0:0,0:0:0:0:
296,249,254698,6,0,P|297:292|353:353,1,128,2|2,0:0|0:0,0:0:0:0:
390,264,255864,2,0,B|450:243|450:243|486:258,2,96,2|2|2,0:0|0:0|0:0,0:0:0:0:
216,249,257365,6,0,P|215:292|159:353,1,128,6|2,0:0|0:0,0:0:0:0:
122,264,258531,2,0,B|62:243|62:243|26:258,2,96,2|2|2,0:0|0:0|0:0,0:0:0:0:
191,122,260032,6,0,L|51:107,1,128,2|2,0:0|0:0,0:0:0:0:
119,29,261199,2,0,L|214:39,2,96,2|2|2,0:0|0:0|0:0,0:0:0:0:
83,194,262698,6,0,B|49:231|67:279|67:279|88:271|124:279|124:279|125:317|168:336|168:336|168:298|192:269,1,297.1428571429,6|0,0:0|0:0,0:0:0:0:
429,194,265364,6,0,B|463:231|445:279|445:279|424:271|388:279|388:279|387:317|344:336|344:336|344:298|320:269,1,297.1428571429,2|0,0:0|0:0,0:0:0:0:
192,40,268031,6,0,B|195:65|178:86|178:86|200:118|201:162|171:190|171:190|132:164|86:164|45:192,1,297.1428571429,2|0,0:0|0:0,0:0:0:0:
320,40,270698,6,0,B|317:65|334:86|334:86|312:118|311:162|341:190|341:190|380:164|426:164|466:192,1,297.1428571429,2|0,0:0|0:0,0:0:0:0:
256,208,273364,5,0,0:0:0:0:
