osu file format v14

[General]
AudioFilename: Sample Text.mp3
AudioLeadIn: 0
PreviewTime: 145364
Countdown: 0
SampleSet: Normal
StackLeniency: 0.3
Mode: 0
LetterboxInBreaks: 0
WidescreenStoryboard: 0

[Editor]
Bookmarks: 80531,136031,140614,141364,142031,144364,144698,158364,183698,187031,228031
DistanceSpacing: 1
BeatDivisor: 8
GridSize: 4
TimelineZoom: 2.4

[Metadata]
Title:Flashes (Extended)
TitleUnicode:Flashes (Extended)
Artist:Dollscythe
ArtistUnicode:Dollscythe
Creator:handsome
Version:Atsuro's Insane
Source:beatmania IIDX 22 PENDUAL
Tags:dnb drum n bass and nerova riuz gx hommarju dubstep electro atsuro side rohit6 n/a nrg
BeatmapID:899859
BeatmapSetID:358350

[Difficulty]
HPDrainRate:6
CircleSize:4
OverallDifficulty:7.5
ApproachRate:9
SliderMultiplier:1.4
SliderTickRate:1

[Events]
//Background and Video events
0,0,"Sample-Text.jpg",0,0
//Break Periods
2,113564,123431
//Storyboard Layer 0 (Background)
//Storyboard Layer 1 (Fail)
//Storyboard Layer 2 (Pass)
//Storyboard Layer 3 (Foreground)
//Storyboard Sound Samples

[TimingPoints]
1365,333.3333333333,4,2,1,30,1,0
1365,-111.1111111111,4,2,1,30,0,0
4031,-111.1111111111,4,2,1,35,0,0
6698,-111.1111111111,4,2,1,40,0,0
9364,-111.1111111111,4,2,1,45,0,0
12031,-111.1111111111,4,2,1,50,0,0
17364,-111.1111111111,4,2,1,55,0,0
20031,-111.1111111111,4,2,1,60,0,0
20531,-111.1111111111,4,2,1,30,0,0
21364,-100,4,2,1,50,0,0
22031,-100,4,2,0,55,0,0
22698,-83.33333333333,4,2,2,60,0,0
46698,-83.33333333333,4,2,2,40,0,0
48031,-83.33333333333,4,2,2,60,0,0
48698,-83.33333333333,4,2,0,65,0,0
49364,-71.42857142857,4,1,2,65,0,0
52031,-62.5,4,1,2,65,0,0
53364,-71.42857142857,4,2,2,65,0,0
54698,-71.42857142857,4,1,2,65,0,0
57364,-62.5,4,1,2,65,0,0
58864,-62.5,4,1,0,65,0,0
59031,-62.5,4,1,2,65,0,0
59364,-62.5,4,1,0,65,0,0
59531,-62.5,4,1,2,65,0,0
60031,-71.42857142857,4,1,2,65,0,0
62698,-62.5,4,1,2,65,0,0
64031,-71.42857142857,4,2,2,65,0,0
65364,-71.42857142857,4,1,2,65,0,0
68031,-62.5,4,1,2,65,0,0
69364,-62.5,4,1,2,40,0,0
70031,-71.42857142857,4,2,0,60,0,0
70698,-71.42857142857,4,1,2,65,0,0
73364,-62.5,4,1,2,65,0,0
74698,-71.42857142857,4,2,2,65,0,0
76031,-71.42857142857,4,1,2,65,0,0
78698,-62.5,4,1,2,65,0,0
80198,-62.5,4,1,0,65,0,0
80364,-62.5,4,1,2,65,0,0
80698,-62.5,4,1,0,65,0,0
80864,-62.5,4,1,2,65,0,0
81364,-71.42857142857,4,1,2,65,0,0
84031,-62.5,4,1,2,65,0,0
85364,-71.42857142857,4,2,2,65,0,0
86698,-71.42857142857,4,1,2,65,0,0
89364,-62.5,4,1,2,65,0,0
89698,-62.5,4,2,2,65,0,0
90698,-71.42857142857,4,2,2,40,0,0
91364,-71.42857142857,4,2,0,65,0,0
92031,-83.33333333333,4,2,2,45,0,0
113364,-83.33333333333,4,2,2,40,0,0
129364,-83.33333333333,4,2,2,45,0,0
134698,-100,4,2,2,50,0,0
137364,-100,4,2,2,55,0,0
138698,-100,4,2,2,60,0,0
140031,-100,4,2,2,65,0,0
141364,-90.90909090909,4,2,2,70,0,0
142698,-100,4,2,2,55,0,0
144031,-100,4,2,0,65,0,0
145364,-66.66666666667,4,1,2,70,0,1
154698,-58.82352941177,4,1,2,70,0,1
155698,-66.66666666667,4,1,2,70,0,1
161364,-66.66666666667,4,2,2,50,0,1
161698,-76.92307692308,4,2,2,50,0,1
164031,-76.92307692308,4,2,2,55,0,1
165364,-76.92307692308,4,2,2,70,0,1
166031,-76.92307692308,4,1,2,70,0,1
166698,-66.66666666667,4,1,2,70,0,1
182698,-66.66666666667,4,2,2,50,0,1
185364,-66.66666666667,4,1,2,55,0,1
186698,-66.66666666667,4,2,2,70,0,1
187364,-66.66666666667,4,1,2,70,0,1
188031,-76.92307692308,4,2,2,70,0,0
209364,-83.33333333333,4,2,2,60,0,0
230698,-111.1111111111,4,2,2,50,0,0
241364,-125,4,2,2,45,0,0
252031,-142.8571428571,4,2,3,25,0,0
262698,-166.6666666667,4,2,3,15,0,0
268031,-166.6666666667,4,2,3,10,0,0

[Colours]
Combo1 : 100,173,255
Combo2 : 185,185,185
Combo3 : 163,221,250

[HitObjects]
256,213,1365,6,0,P|286:161|256:108,1,125.9999961548,6|8,0:0|0:0,0:0:0:0:
135,109,1864,2,0,P|105:161|135:213,1,125.9999961548,2|0,0:0|0:0,0:0:0:0:
232,308,2364,2,0,L|302:280,1,62.99999807739,10|0,0:0|0:0,0:0:0:0:
147,333,2698,5,2,0:0:0:0:
78,122,3031,2,0,L|98:188,1,62.99999807739,8|2,0:0|0:0,0:0:0:0:
166,60,3364,2,0,L|166:128,1,62.99999807739,0|0,0:0|0:0,0:0:0:0:
273,39,3698,2,0,L|253:105,1,62.99999807739,10|0,0:0|0:0,0:0:0:0:
331,272,4031,6,0,P|384:240|401:171,1,125.9999961548,6|8,0:0|0:0,0:0:0:0:
249,243,4531,2,0,P|250:304|301:354,1,125.9999961548,2|0,0:0|0:0,0:0:0:0:
309,183,5031,2,0,L|250:139,1,62.99999807739,10|0,0:0|0:0,0:0:0:0:
375,233,5364,5,2,0:0:0:0:
196,100,5698,2,0,P|182:157|195:187,1,62.99999807739,8|2,0:0|0:0,0:0:0:0:
273,64,6031,2,0,P|230:23|198:19,1,62.99999807739,0|0,0:0|0:0,0:0:0:0:
266,146,6364,2,0,P|322:129|341:103,1,62.99999807739,10|0,0:0|0:0,0:0:0:0:
452,2,6698,6,0,P|431:60|458:125,1,125.9999961548,6|8,0:0|0:0,0:0:0:0:
363,236,7198,2,0,P|384:178|357:113,1,125.9999961548,2|0,0:0|0:0,0:0:0:0:
236,164,7698,2,0,L|298:177,1,62.99999807739,10|0,0:0|0:0,0:0:0:0:
151,145,8031,5,2,0:0:0:0:
240,347,8364,2,0,P|271:323|288:286,1,62.99999807739,8|2,0:0|0:0,0:0:0:0:
135,260,8698,2,0,P|140:298|163:332,1,62.99999807739,0|0,0:0|0:0,0:0:0:0:
261,211,9031,2,0,P|224:196|184:199,1,62.99999807739,10|0,0:0|0:0,0:0:0:0:
342,251,9364,6,0,P|407:261|488:243,1,125.9999961548,6|8,0:0|0:0,0:0:0:0:
344,107,9864,2,0,P|279:97|198:115,1,125.9999961548,2|0,0:0|0:0,0:0:0:0:
154,260,10364,2,0,L|219:224,1,62.99999807739,10|0,0:0|0:0,0:0:0:0:
82,301,10698,5,2,0:0:0:0:
152,78,11031,2,0,L|170:143,1,62.99999807739,8|2,0:0|0:0,0:0:0:0:
256,8,11364,2,0,L|256:88,1,62.99999807739,0|0,0:0|0:0,0:0:0:0:
360,78,11698,2,0,L|342:143,1,62.99999807739,10|0,0:0|0:0,0:0:0:0:
280,328,12031,6,0,P|212:276|212:212,1,125.9999961548,6|8,0:0|0:0,0:0:0:0:
321,217,12531,1,2,0:0:0:0:
321,217,12614,1,0,0:0:0:0:
321,217,12698,2,0,L|299:240,2,31.4999990387,0|0|0,0:0|0:0|0:0,0:0:0:0:
435,104,13031,1,10,0:0:0:0:
417,200,13198,1,0,0:0:0:0:
339,123,13364,6,0,L|292:79,1,62.99999807739,2|0,0:0|0:0,0:0:0:0:
145,220,13698,2,0,P|157:248|182:269,1,62.99999807739,8|2,0:0|0:0,0:0:0:0:
190,78,14031,2,0,P|161:90|140:115,1,62.99999807739,0|0,0:0|0:0,0:0:0:0:
287,272,14365,2,0,P|315:259|336:234,1,62.99999807739,10|0,0:0|0:0,0:0:0:0:
267,75,14698,6,0,P|250:134|268:194,1,125.9999961548,6|8,0:0|0:0,0:0:0:0:
408,132,15198,1,2,0:0:0:0:
408,132,15281,1,0,0:0:0:0:
408,132,15364,2,0,L|361:132,2,31.4999990387,0|0|0,0:0|0:0|0:0,0:0:0:0:
503,22,15698,1,10,0:0:0:0:
503,132,15864,1,0,0:0:0:0:
502,245,16031,6,0,L|502:311,1,62.99999807739,2|0,0:0|0:0,0:0:0:0:
374,185,16364,2,0,B|373:215|373:215|377:223|377:223|377:255,1,62.99999807739,8|2,0:0|0:0,0:0:0:0:
247,125,16698,2,0,B|246:155|246:155|250:163|250:163|250:195,1,62.99999807739,0|0,0:0|0:0,0:0:0:0:
121,65,17031,2,0,B|120:95|120:95|124:103|124:103|124:127,1,62.99999807739,10|0,0:0|0:0,0:0:0:0:
137,333,17364,6,0,P|197:293|201:225,1,125.9999961548,6|8,0:0|0:0,0:0:0:0:
129,155,17864,1,2,0:0:0:0:
129,180,17948,1,0,0:0:0:0:
129,205,18031,1,0,0:0:0:0:
129,230,18114,1,0,0:0:0:0:
129,256,18197,1,0,0:0:0:0:
267,194,18364,2,0,P|239:170|209:162,1,62.99999807739,10|0,0:0|0:0,0:0:0:0:
137,333,18698,6,0,L|215:352,1,62.99999807739,2|0,0:0|0:0,0:0:0:0:
352,256,19031,2,0,B|324:260|324:260|316:268|316:268|290:270,1,62.99999807739,8|2,0:0|0:0,0:0:0:0:
134,187,19364,2,0,B|162:192|162:192|170:200|170:200|193:201,1,62.99999807739,0|0,0:0|0:0,0:0:0:0:
349,111,19698,2,0,B|321:115|321:115|313:123|313:123|287:125,1,62.99999807739,10|0,0:0|0:0,0:0:0:0:
352,256,20031,6,0,P|399:226|400:139,1,125.9999961548,6|8,0:0|0:0,0:0:0:0:
271,258,20531,1,2,1:2:0:0:
271,258,20614,1,0,1:0:0:0:
271,258,20698,2,0,L|228:279,3,31.4999990387,0|0|0|0,1:0|1:0|1:0|1:0,0:0:0:0:
154,271,21031,2,0,L|125:257,3,31.4999990387,10|0|0|0,1:2|1:0|1:0|1:0,0:0:0:0:
60,209,21364,5,0,0:0:0:0:
53,186,21447,1,0,0:0:0:0:
53,162,21530,1,0,0:0:0:0:
59,140,21613,1,0,0:0:0:0:
72,120,21698,2,0,L|132:104,3,35,8|0|0|0,0:0|0:0|0:0|0:0,0:0:0:0:
200,164,22031,2,0,L|248:164,3,35,8|8|8|8,0:3|0:3|0:3|0:3,0:0:0:0:
300,248,22364,2,0,L|351:262,3,35,4|4|4|4,0:3|0:3|0:3|0:3,0:0:0:0:
412,320,22698,6,0,B|452:331|452:331|504:283|477:208,1,167.9999948731,6|0,3:2|0:0,0:0:0:0:
407,108,23198,1,2,0:0:0:0:
265,258,23364,2,0,B|307:267|307:267|352:256,1,83.99999743652,8|0,0:0|0:0,0:0:0:0:
137,172,23698,2,0,B|95:163|95:163|49:174,1,83.99999743652,2|0,0:0|0:0,0:0:0:0:
102,337,24031,5,2,3:2:0:0:
133,348,24114,1,0,0:0:0:0:
163,356,24197,1,0,0:0:0:0:
265,258,24364,2,0,P|221:263|186:282,1,83.99999743652,0|2,0:0|0:0,0:0:0:0:
337,367,24698,2,0,P|359:297|339:196,1,167.9999948731,8|2,0:0|0:0,0:0:0:0:
282,130,25198,1,0,0:0:0:0:
222,367,25364,6,0,P|199:286|215:205,1,167.9999948731,2|0,3:2|0:0,0:0:0:0:
282,130,25864,1,2,0:0:0:0:
125,255,26031,2,0,P|84:263|30:251,1,83.99999743652,8|0,0:0|0:1,0:0:0:0:
27,239,26281,1,0,0:0:0:0:
19,223,26364,2,0,P|45:190|58:151,1,83.99999743652,2|0,0:0|0:0,0:0:0:0:
0,1,26698,6,0,P|16:51|126:65,1,167.9999948731,2|0,3:2|0:0,0:0:0:0:
199,28,27198,1,2,0:0:0:0:
222,168,27364,1,8,0:0:0:0:
136,158,27531,1,0,0:0:0:0:
266,88,27698,2,0,P|321:72|360:70,1,83.99999743652,2|0,0:0|0:0,0:0:0:0:
288,279,28031,6,0,P|235:223|288:167,1,167.9999948731,2|0,3:2|0:0,0:0:0:0:
380,222,28531,1,2,0:0:0:0:
211,330,28698,2,0,L|133:374,1,83.99999743652,8|0,0:0|0:0,0:0:0:0:
131,377,28948,1,0,0:0:0:0:
124,383,29031,1,2,0:0:0:0:
127,266,29198,1,0,0:0:0:0:
291,329,29364,6,0,P|351:356|449:342,1,167.9999948731,2|0,3:2|0:0,0:0:0:0:
509,252,29864,1,2,0:0:0:0:
399,135,30031,2,0,L|380:218,1,83.99999743652,8|0,0:0|0:0,0:0:0:0:
389,226,30281,1,0,0:0:0:0:
398,235,30364,1,2,0:1:0:0:
289,49,30531,1,0,0:0:0:0:
289,49,30614,1,0,0:0:0:0:
288,49,30698,6,0,B|270:111|270:111|279:150|279:150|262:214,1,167.9999948731,2|2,3:1|0:1,0:0:0:0:
369,362,31198,1,2,0:0:0:0:
369,362,31281,1,0,0:0:0:0:
369,362,31364,2,0,L|392:278,1,83.99999743652,10|0,0:1|0:0,0:0:0:0:
429,125,31698,1,2,0:0:0:0:
493,226,31864,1,2,0:1:0:0:
493,226,31948,1,0,0:0:0:0:
493,226,32031,6,0,L|409:203,1,83.99999743652,2|0,3:1|0:0,0:0:0:0:
233,143,32364,1,2,0:1:0:0:
397,94,32531,1,2,0:0:0:0:
397,94,32615,1,0,0:0:0:0:
397,94,32698,2,0,L|313:117,1,83.99999743652,10|0,0:1|0:0,0:0:0:0:
147,169,33031,1,2,0:0:0:0:
202,0,33198,1,2,0:1:0:0:
202,0,33281,1,0,0:0:0:0:
202,0,33364,6,0,P|250:33|268:54,1,83.99999743652,6|0,3:2|0:0,0:0:0:0:
334,251,33698,2,0,P|286:218|268:197,1,83.99999743652,0|2,0:0|0:0,0:0:0:0:
426,98,34031,2,0,B|394:126|394:126|266:126,1,167.9999948731,8|2,0:0|0:0,0:0:0:0:
202,50,34531,1,0,0:0:0:0:
269,199,34698,5,2,3:2:0:0:
228,191,34781,1,0,0:0:0:0:
202,158,34864,1,0,0:0:0:0:
364,170,35031,2,0,P|394:222|400:250,1,83.99999743652,0|2,0:0|0:0,0:0:0:0:
270,85,35364,2,0,P|300:33|321:13,1,83.99999743652,8|0,0:0|0:0,0:0:0:0:
244,214,35698,2,0,P|183:213|156:205,1,83.99999743652,2|0,0:0|0:0,0:0:0:0:
130,27,36031,6,0,P|182:79|125:137,1,167.9999948731,2|0,3:2|0:0,0:0:0:0:
42,86,36531,1,2,0:0:0:0:
244,20,36698,2,0,P|289:12|333:23,1,83.99999743652,8|0,0:0|0:0,0:0:0:0:
334,33,36948,1,0,0:0:0:0:
345,46,37031,2,0,P|390:54|434:43,1,83.99999743652,2|0,0:0|0:0,0:0:0:0:
281,108,37364,6,0,P|234:168|237:269,1,167.9999948731,2|0,3:2|0:0,0:0:0:0:
282,361,37864,1,2,0:0:0:0:
127,296,38031,1,8,0:0:0:0:
232,256,38198,1,0,0:0:0:0:
95,186,38364,2,0,P|76:148|83:82,1,83.99999743652,2|0,0:0|0:0,0:0:0:0:
250,14,38698,6,0,P|231:93|157:127,1,167.9999948731,2|0,3:2|0:0,0:0:0:0:
158,35,39198,1,2,0:0:0:0:
265,163,39364,2,0,P|309:170|357:157,1,83.99999743652,8|0,0:0|0:0,0:0:0:0:
355,151,39614,1,0,0:0:0:0:
363,139,39698,1,2,0:0:0:0:
306,257,39864,1,0,0:0:0:0:
204,111,40031,6,0,P|124:92|43:112,1,167.9999948731,2|0,3:2|0:0,0:0:0:0:
121,276,40531,1,2,0:0:0:0:
121,276,40614,1,0,0:0:0:0:
121,276,40698,2,0,L|214:238,1,83.99999743652,8|0,0:0|0:0,0:0:0:0:
349,189,41031,2,0,L|256:151,1,83.99999743652,2|0,0:1|0:0,0:0:0:0:
121,106,41364,6,0,B|206:71|206:71|226:32|204:-4,1,167.9999948731,2|2,3:1|0:1,0:0:0:0:
42,76,41864,1,2,0:2:0:0:
42,76,41948,1,0,0:0:0:0:
42,76,42031,2,0,L|120:105,1,83.99999743652,10|0,0:1|0:0,0:0:0:0:
147,253,42364,2,0,P|198:234|239:192,1,83.99999743652,2|2,0:0|0:1,0:0:0:0:
406,81,42698,6,0,P|328:94|258:145,1,167.9999948731,2|2,3:1|0:1,0:0:0:0:
333,246,43198,1,2,0:0:0:0:
184,249,43364,2,0,P|146:232|117:190,1,83.99999743652,10|0,0:1|0:0,0:0:0:0:
60,59,43698,2,0,P|98:76|127:118,1,83.99999743652,2|2,0:0|0:1,0:0:0:0:
75,261,44031,5,12,3:2:0:0:
194,168,44364,1,8,0:0:0:0:
437,261,44698,1,8,0:0:0:0:
318,168,45031,1,8,0:0:0:0:
88,155,45364,5,8,0:0:0:0:
181,274,45697,1,8,0:0:0:0:
424,155,46031,1,8,0:0:0:0:
331,274,46364,1,8,0:0:0:0:
200,28,46698,5,0,1:0:0:0:
197,48,46781,1,0,1:0:0:0:
195,69,46864,1,0,1:0:0:0:
193,90,46948,1,0,1:0:0:0:
192,112,47031,2,0,L|187:153,3,41.99999871826,0|0|0|0,1:0|1:0|1:0|1:0,0:0:0:0:
268,136,47364,1,0,1:0:0:0:
266,156,47447,1,0,1:0:0:0:
264,177,47530,1,0,1:0:0:0:
262,198,47614,1,0,1:0:0:0:
260,220,47697,2,0,L|255:261,3,41.99999871826,0|0|0|0,1:0|1:0|1:0|1:0,0:0:0:0:
167,246,48031,6,0,L|111:223,3,41.99999871826,0|0|0|0,3:0|0:0|0:0|0:0,0:0:0:0:
209,164,48364,2,0,L|191:122,3,41.99999871826
303,164,48698,2,0,L|321:122,3,41.99999871826,8|8|8|8,0:3|0:3|0:3|0:3,0:0:0:0:
345,246,49031,1,4,0:3:0:0:
364,237,49114,1,4,0:3:0:0:
383,229,49197,1,4,0:3:0:0:
402,220,49281,1,4,0:3:0:0:
424,212,49364,6,0,B|464:176|464:108|412:72|412:72|376:92,1,195.9999940186,4|8,3:2|0:0,0:0:0:0:
244,192,49864,1,6,0:0:0:0:
128,80,50031,1,6,0:0:0:0:
280,80,50198,1,2,3:1:0:0:
164,192,50364,1,10,0:0:0:0:
52,80,50531,1,6,0:0:0:0:
160,272,50698,6,0,B|212:272|240:212|240:212|264:160|308:160,1,195.9999940186,0|8,3:0|0:0,0:0:0:0:
496,224,51198,1,6,0:0:0:0:
348,344,51364,1,6,0:0:0:0:
464,344,51531,1,2,3:1:0:0:
300,224,51698,2,0,L|412:224,1,97.99999700928,10|4,0:0|0:1,0:0:0:0:
224,344,52031,6,0,P|152:312|156:232,1,168,0|0,3:0|2:0,0:0:0:0:
204,172,52364,2,0,P|240:112|240:40,1,112,10|2,0:3|0:3,0:0:0:0:
88,68,52698,1,2,0:3:0:0:
88,68,52781,1,2,0:3:0:0:
88,68,52864,1,2,3:0:0:0:
132,216,53031,1,10,0:3:0:0:
28,168,53198,1,2,0:3:0:0:
220,104,53364,6,0,P|283:105|324:133,1,97.99999700928,2|2,3:1|0:2,0:0:0:0:
324,132,53614,1,0,0:0:0:0:
336,144,53698,2,0,B|368:180|368:180|432:196,1,97.99999700928,8|2,0:0|0:1,0:0:0:0:
440,64,54031,1,2,0:2:0:0:
440,64,54114,1,0,0:0:0:0:
440,64,54198,1,0,3:0:0:0:
324,244,54364,2,0,B|292:280|292:280|228:296,1,97.99999700928,10|0,0:1|0:0,0:0:0:0:
156,280,54614,1,0,2:0:0:0:
156,280,54698,6,0,P|191:223|163:95,1,195.9999940186,0|8,3:0|0:0,0:0:0:0:
36,32,55198,1,6,0:0:0:0:
111,191,55364,1,6,0:0:0:0:
17,119,55531,1,2,3:1:0:0:
193,133,55697,1,10,0:0:0:0:
17,206,55864,1,6,0:0:0:0:
140,43,56031,6,0,P|234:36|293:109,1,195.9999940186,0|8,3:0|0:0,0:0:0:0:
304,300,56531,1,6,0:0:0:0:
180,176,56698,1,6,0:0:0:0:
320,176,56864,1,2,3:1:0:0:
192,300,57031,2,0,P|140:286|98:242,1,97.99999700928,10|4,0:0|0:0,0:0:0:0:
304,300,57364,6,0,B|352:300|388:216|380:160|348:136|316:136|308:176|320:176,1,224,0|10,3:0|0:3,0:0:0:0:
424,272,57864,1,2,0:3:0:0:
260,232,58031,1,2,0:3:0:0:
260,232,58114,1,2,0:3:0:0:
260,232,58198,1,2,0:3:0:0:
308,372,58364,1,8,0:3:0:0:
352,216,58531,1,2,0:3:0:0:
212,324,58698,6,0,P|143:312|92:220,1,168,2|0,3:1|0:0,0:0:0:0:
90,157,59031,1,8,0:0:0:0:
272,260,59198,2,0,P|341:248|392:156,1,168,2|0,0:0|0:0,0:0:0:0:
388,93,59531,1,0,3:0:0:0:
176,160,59698,1,10,3:1:0:0:
331,336,59864,1,0,0:0:0:0:
331,336,59948,1,0,0:0:0:0:
331,336,60031,6,0,B|424:396|424:280|512:336,1,195.9999940186,4|8,3:2|0:0,0:0:0:0:
424,172,60531,1,6,0:0:0:0:
272,280,60698,1,6,0:0:0:0:
272,168,60864,1,2,3:1:0:0:
352,316,61031,1,10,0:0:0:0:
192,316,61198,1,6,0:0:0:0:
168,136,61364,6,0,P|200:184|100:232,1,195.9999940186,0|8,3:0|0:0,0:0:0:0:
140,48,61864,1,6,0:0:0:0:
268,164,62031,1,6,0:0:0:0:
92,160,62198,1,2,3:1:0:0:
224,48,62364,2,0,P|280:44|344:72,1,97.99999700928,10|4,0:0|0:0,0:0:0:0:
408,240,62698,6,0,B|320:164|320:164|319:50,1,224,0|10,3:0|0:3,0:0:0:0:
488,88,63198,1,2,0:3:0:0:
496,248,63364,1,2,0:3:0:0:
496,248,63448,1,2,0:3:0:0:
496,248,63531,1,2,3:0:0:0:
312,248,63698,1,10,0:3:0:0:
444,168,63864,1,2,0:3:0:0:
312,80,64031,6,0,P|232:64|204:64,1,97.99999700928,2|2,3:1|0:2,0:0:0:0:
200,80,64281,1,0,0:0:0:0:
184,96,64364,2,0,B|148:128|148:128|96:128,1,97.99999700928,8|2,0:0|0:1,0:0:0:0:
0,40,64698,1,2,0:2:0:0:
0,40,64781,1,0,0:0:0:0:
0,40,64864,1,0,3:0:0:0:
96,208,65031,2,0,B|132:240|132:240|184:240,1,97.99999700928,10|0,0:1|0:0,0:0:0:0:
164,164,65281,1,0,2:0:0:0:
164,164,65364,6,0,L|84:346,1,195.9999940186,0|8,3:0|0:0,0:0:0:0:
76,168,65864,1,6,0:0:0:0:
216,236,66031,1,6,0:0:0:0:
40,240,66198,1,2,3:1:0:0:
180,308,66365,1,10,0:0:0:0:
176,144,66531,1,6,0:0:0:0:
84,332,66698,6,0,P|40:272|104:168,1,195.9999940186,0|8,3:0|0:0,0:0:0:0:
180,308,67198,1,6,0:0:0:0:
256,200,67364,1,6,0:0:0:0:
332,308,67531,1,2,3:1:0:0:
422,173,67698,2,0,P|436:121|428:73,1,97.99999700928,10|4,0:0|0:0,0:0:0:0:
256,268,68031,6,0,B|372:308|372:216|472:268,1,224,0|10,3:0|0:3,0:0:0:0:
364,356,68531,1,2,0:3:0:0:
316,200,68698,1,2,0:3:0:0:
316,200,68781,1,2,0:3:0:0:
316,200,68864,1,2,3:0:0:0:
200,320,69031,1,10,0:3:0:0:
368,280,69198,1,2,0:3:0:0:
236,156,69364,5,0,3:0:0:0:
208,175,69447,1,0,0:0:0:0:
199,207,69531,1,0,0:0:0:0:
213,237,69614,1,0,0:0:0:0:
243,252,69697,1,0,0:0:0:0:
275,243,69781,1,0,0:0:0:0:
295,215,69864,1,0,0:0:0:0:
292,182,69947,1,0,0:0:0:0:
264,156,70031,2,0,L|224:128,3,48.99999850464,8|8|8|8,0:3|0:3|0:3|0:3,0:0:0:0:
144,128,70364,2,0,L|104:156,3,48.99999850464,4|4|4|4,0:3|0:3|0:3|0:3,0:0:0:0:
92,248,70698,6,0,P|180:276|280:240,1,195.9999940186,4|8,3:2|0:0,0:0:0:0:
380,128,71198,1,6,0:0:0:0:
430,268,71364,1,6,0:0:0:0:
290,160,71531,1,2,3:1:0:0:
340,300,71698,1,10,0:0:0:0:
445,186,71864,1,6,0:0:0:0:
275,243,72031,6,0,B|220:244|200:188|200:188|184:136|128:136,1,195.9999940186,0|8,3:0|0:0,0:0:0:0:
28,316,72531,1,6,0:0:0:0:
132,224,72698,1,6,0:0:0:0:
224,316,72864,1,2,3:1:0:0:
132,196,73031,1,10,0:0:0:0:
28,316,73198,1,4,0:0:0:0:
196,244,73364,6,0,P|244:180|188:120,1,168,2|0,3:1|2:0,0:0:0:0:
156,44,73698,2,0,P|116:84|112:140,1,112,10|2,0:3|0:3,0:0:0:0:
196,244,74031,1,2,0:3:0:0:
196,244,74114,1,2,0:3:0:0:
196,244,74198,1,2,3:0:0:0:
240,60,74364,1,10,0:3:0:0:
112,136,74531,1,2,0:3:0:0:
260,204,74698,6,0,P|314:184|348:157,1,97.99999700928,2|2,3:1|0:2,0:0:0:0:
356,148,74948,1,0,0:0:0:0:
364,136,75031,2,0,B|375:87|375:87|364:40,1,97.99999700928,8|2,0:0|0:1,0:0:0:0:
196,96,75364,1,2,0:2:0:0:
196,96,75448,1,0,0:0:0:0:
196,96,75531,1,0,3:0:0:0:
224,256,75698,2,0,B|272:241|272:241|308:208,1,97.99999700928,10|0,0:1|0:0,0:0:0:0:
232,168,75948,1,0,2:0:0:0:
232,168,76031,6,0,L|328:344,1,195.9999940186,0|8,3:0|0:0,0:0:0:0:
408,212,76531,1,6,0:0:0:0:
492,284,76698,1,6,0:0:0:0:
492,144,76864,1,2,3:1:0:0:
408,284,77031,1,10,0:0:0:0:
324,144,77198,1,6,0:0:0:0:
472,40,77364,6,0,P|412:100|340:32,1,195.9999940186,0|8,3:0|0:0,0:0:0:0:
512,120,77864,1,6,0:0:0:0:
406,217,78031,1,6,0:0:0:0:
299,120,78198,1,2,3:1:0:0:
235,291,78364,2,0,P|290:282|338:230,1,97.99999700928,10|4,0:0|0:0,0:0:0:0:
156,292,78698,6,0,P|101:283|84:164,1,168,2|0,3:1|2:0,0:0:0:0:
109,119,79031,2,0,P|146:160|143:214,1,112,10|2,0:3|0:3,0:0:0:0:
57,349,79364,1,2,0:3:0:0:
57,349,79448,1,2,0:3:0:0:
57,349,79531,1,2,3:0:0:0:
184,272,79698,1,10,0:3:0:0:
308,349,79864,1,2,0:3:0:0:
398,197,80031,6,0,P|310:193|275:257,1,168,2|0,3:1|0:0,0:0:0:0:
353,260,80364,1,8,0:0:0:0:
496,128,80531,2,0,P|469:43|397:32,1,168,2|0,0:0|0:0,0:0:0:0:
420,107,80864,1,0,3:0:0:0:
467,324,81031,2,0,L|491:213,1,112,10|0,0:0|0:0,0:0:0:0:
494,199,81281,1,0,0:0:0:0:
498,182,81364,6,0,B|404:232|404:140|312:184,1,195.9999940186,4|8,3:2|0:0,0:0:0:0:
196,340,81864,1,6,0:0:0:0:
308,340,82031,1,6,0:0:0:0:
144,240,82198,1,2,3:1:0:0:
256,240,82365,1,10,0:0:0:0:
84,340,82531,1,6,0:0:0:0:
264,340,82698,6,0,P|304:256|264:168,1,195.9999940186,0|8,3:0|0:0,0:0:0:0:
132,68,83198,1,6,0:0:0:0:
132,204,83364,1,6,0:0:0:0:
48,112,83531,1,2,3:1:0:0:
208,168,83698,2,0,P|256:175|304:168,1,97.99999700928,10|4,0:0|0:0,0:0:0:0:
256,41,84031,6,0,B|256:69|256:69|260:80|260:80|252:80|252:80|256:93|256:93|256:257,1,224,2|10,3:1|0:3,0:0:0:0:
332,136,84531,1,2,0:3:0:0:
180,136,84698,1,2,0:3:0:0:
180,136,84781,1,2,0:3:0:0:
180,136,84864,1,2,3:0:0:0:
256,254,85031,1,10,0:3:0:0:
103,253,85198,1,2,0:3:0:0:
188,116,85364,6,0,P|240:100|288:100,1,97.99999700928,2|2,3:1|0:2,0:0:0:0:
296,112,85614,1,0,0:0:0:0:
308,124,85698,2,0,L|388:212,1,97.99999700928,8|2,0:0|0:1,0:0:0:0:
440,68,86031,1,2,0:2:0:0:
440,68,86114,1,0,0:0:0:0:
440,68,86198,1,0,3:0:0:0:
504,232,86364,2,0,L|438:159,1,97.99999700928,10|0,0:1|0:0,0:0:0:0:
240,260,86698,6,0,P|328:296|416:259,1,195.9999940186,0|8,3:0|0:0,0:0:0:0:
248,116,87198,1,6,0:0:0:0:
328,224,87364,1,6,0:0:0:0:
412,120,87531,1,2,3:1:0:0:
248,200,87698,1,10,0:0:0:0:
412,200,87864,1,6,0:0:0:0:
328,40,88031,6,0,B|316:20|256:24|232:70|232:70|208:112|168:112,1,195.9999940186,0|8,3:0|0:0,0:0:0:0:
8,68,88531,1,6,0:0:0:0:
84,172,88698,1,6,0:0:0:0:
8,288,88864,1,2,3:1:0:0:
152,348,89031,2,0,P|208:312|228:268,1,97.99999700928,10|4,0:0|0:0,0:0:0:0:
184,100,89364,6,8,P|137:164|249:158,1,224,0|2,3:0|0:3,0:0:0:0:
292,96,89864,1,2,0:3:0:0:
380,164,90031,1,10,0:3:0:0:
380,164,90114,1,2,0:3:0:0:
380,164,90198,1,2,0:3:0:0:
412,44,90364,1,2,0:3:0:0:
496,128,90531,1,2,0:3:0:0:
412,224,90698,6,0,L|360:240,3,48.99999850464,0|0|0|0,3:0|1:0|1:0|1:0,0:0:0:0:
300,300,91031,2,0,L|252:284,3,48.99999850464,0|0|0|0,1:0|1:0|1:0|1:0,0:0:0:0:
220,264,91364,1,8,0:3:0:0:
194,238,91447,1,8,0:3:0:0:
183,203,91530,1,8,0:3:0:0:
192,168,91613,1,8,0:3:0:0:
217,141,91698,2,0,L|276:128,1,48.99999850464,4|4,0:3|0:3,0:0:0:0:
340,196,91864,2,0,L|292:206,1,48.99999850464,4|4,0:3|0:3,0:0:0:0:
260,300,92031,6,0,L|424:265,1,167.999994873047,6|0,3:2|0:0,0:0:0:0:
493,201,92531,1,2,0:0:0:0:
505,360,92698,2,0,P|463:359|423:345,1,83.99999743652,8|0,0:0|0:0,0:0:0:0:
332,174,93031,2,0,P|373:174|413:188,1,83.99999743652,2|0,0:0|0:0,0:0:0:0:
312,347,93365,5,2,3:2:0:0:
285,337,93448,1,0,0:0:0:0:
259,326,93531,1,0,0:0:0:0:
110,272,93698,2,0,P|152:250|182:226,1,83.99999743652,0|2,0:0|0:0,0:0:0:0:
218,67,94031,2,0,P|149:57|97:149,1,167.9999948731,8|2,0:0|0:0,0:0:0:0:
173,132,94531,1,0,0:0:0:0:
291,20,94698,6,0,P|359:10|411:102,1,167.9999948731,2|0,3:2|0:0,0:0:0:0:
410,184,95198,1,2,0:0:0:0:
245,285,95364,2,0,P|215:255|205:215,1,83.99999743652,8|0,0:0|0:0,0:0:0:0:
214,194,95614,1,0,0:0:0:0:
223,174,95698,2,0,P|212:133|183:104,1,83.99999743652,2|0,0:0|0:0,0:0:0:0:
9,150,96031,6,0,P|67:204|140:174,1,167.9999948731,2|0,3:2|0:0,0:0:0:0:
232,32,96531,1,2,0:0:0:0:
304,174,96698,1,8,0:0:0:0:
183,104,96864,1,0,0:0:0:0:
350,64,97031,2,0,P|394:59|453:56,1,83.99999743652,2|0,0:0|0:0,0:0:0:0:
304,174,97364,6,0,P|225:186|136:172,1,167.9999948731,2|0,3:2|0:0,0:0:0:0:
54,116,97864,1,2,0:0:0:0:
3,262,98031,1,8,0:0:0:0:
58,201,98198,1,0,0:0:0:0:
58,201,98281,1,0,0:0:0:0:
58,201,98364,1,2,0:0:0:0:
80,313,98531,1,0,0:0:0:0:
183,230,98698,6,0,P|264:214|346:231,1,167.9999948731,2|0,3:2|0:0,0:0:0:0:
421,289,99198,1,2,0:0:0:0:
503,148,99364,2,0,P|447:180|429:203,1,83.99999743652,8|0,0:0|0:0,0:0:0:0:
267,365,99698,2,0,P|323:333|341:310,1,83.99999743652,2|0,0:0|0:0,0:0:0:0:
254,136,100031,6,0,P|174:157|118:219,1,167.9999948731,2|0,3:2|0:0,0:0:0:0:
135,322,100531,1,2,0:0:0:0:
312,263,100698,2,0,L|222:233,1,83.99999743652,8|0,0:0|0:0,0:0:0:0:
408,160,101031,2,0,L|315:182,1,83.99999743652,2|0,0:0|0:0,0:0:0:0:
489,45,101364,6,0,P|427:79|328:73,1,167.9999948731,2|0,3:2|0:0,0:0:0:0:
256,8,101864,1,2,0:0:0:0:
99,111,102031,2,0,P|161:145|260:139,1,167.9999948731,8|2,0:0|0:0,0:0:0:0:
332,74,102531,1,0,0:0:0:0:
431,218,102698,6,0,P|374:187|348:148,1,83.99999743652,6|0,3:2|0:0,0:0:0:0:
512,290,103031,2,0,P|456:323|409:326,1,83.99999743652,0|2,0:0|0:0,0:0:0:0:
276,182,103364,2,0,P|213:163|167:172,1,83.99999743652,8|0,0:0|0:0,0:0:0:0:
252,358,103698,2,0,P|299:313|314:268,1,83.99999743652,2|0,0:0|0:0,0:0:0:0:
348,83,104031,5,2,3:2:0:0:
324,124,104114,1,0,0:0:0:0:
349,159,104198,1,0,0:0:0:0:
489,47,104364,2,0,L|391:12,1,83.99999743652,0|2,0:0|0:0,0:0:0:0:
185,102,104698,2,0,P|268:108|348:83,1,167.9999948731,8|2,0:0|0:0,0:0:0:0:
410,19,105198,1,0,0:0:0:0:
315,186,105364,6,0,P|303:268|328:367,1,167.9999948731,2|0,3:2|0:0,0:0:0:0:
388,263,105864,1,2,0:0:0:0:
211,330,106031,2,0,P|170:325|121:296,1,83.99999743652,8|0,0:0|0:0,0:0:0:0:
117,289,106281,1,0,0:0:0:0:
105,273,106364,2,0,P|65:285|22:322,1,83.99999743652,2|0,0:0|0:0,0:0:0:0:
189,247,106698,6,0,P|229:203|256:100,1,167.9999948731,2|0,3:2|0:0,0:0:0:0:
182,21,107198,1,2,0:0:0:0:
331,97,107364,1,8,0:0:0:0:
181,97,107531,1,0,0:0:0:0:
330,21,107698,2,0,P|374:14|416:12,1,83.99999743652,2|0,0:0|0:0,0:0:0:0:
486,233,108031,6,0,P|413:228|356:151,1,167.9999948731,2|0,3:2|0:0,0:0:0:0:
457,136,108531,1,2,0:0:0:0:
361,300,108698,2,0,L|256:280,1,83.99999743652,8|0,0:0|0:0,0:0:0:0:
262,280,108948,1,0,0:0:0:0:
247,277,109031,1,2,0:0:0:0:
360,218,109198,1,0,0:0:0:0:
237,356,109364,6,0,P|177:354|111:264,1,167.9999948731,2|0,3:2|0:0,0:0:0:0:
135,146,109864,1,2,0:0:0:0:
292,217,110031,2,0,L|216:252,1,83.99999743652,8|0,0:0|0:0,0:0:0:0:
294,46,110364,2,0,L|328:122,1,83.99999743652,2|0,0:0|0:0,0:0:0:0:
132,185,110698,6,0,P|137:102|191:40,1,167.9999948731,2|0,3:2|0:0,0:0:0:0:
254,149,111198,1,2,0:0:0:0:
162,276,111364,2,0,P|102:276|75:262,1,83.99999743652,8|0,0:0|0:0,0:0:0:0:
254,149,111698,2,0,P|314:149|341:163,1,83.99999743652,2|0,0:0|0:0,0:0:0:0:
508,318,112031,6,0,P|425:301|368:233,1,167.9999948731,2|0,3:2|0:0,0:0:0:0:
492,187,112531,1,2,0:0:0:0:
370,355,112698,2,0,P|325:369|274:371,1,83.99999743652,8|0,0:0|0:0,0:0:0:0:
116,278,113031,2,0,P|161:292|212:294,1,83.99999743652,2|0,0:0|0:0,0:0:0:0:
370,164,113364,5,4,0:0:0:0:
108,244,124031,5,4,3:2:0:0:
200,304,124698,1,0,3:0:0:0:
404,244,125364,5,0,3:0:0:0:
312,304,126031,1,0,3:0:0:0:
80,48,126698,5,0,3:0:0:0:
145,135,127365,1,0,3:0:0:0:
432,48,128031,5,0,3:0:0:0:
367,135,128698,1,0,3:0:0:0:
256,16,129364,5,0,3:0:0:0:
212,96,129698,1,0,3:0:0:0:
256,368,130031,5,0,3:0:0:0:
300,288,130365,1,0,3:0:0:0:
80,192,130698,5,0,3:0:0:0:
160,236,131032,1,0,3:0:0:0:
432,192,131365,5,0,3:0:0:0:
352,148,131699,1,0,3:0:0:0:
188,360,132031,5,0,3:0:0:0:
324,308,132364,1,0,3:0:0:0:
88,124,132698,5,0,3:0:0:0:
140,260,133031,1,0,3:0:0:0:
324,24,133364,5,0,3:0:0:0:
188,76,133697,1,0,3:0:0:0:
424,260,134031,5,0,3:0:0:0:
372,124,134364,1,0,3:0:0:0:
139,240,134698,6,0,L|66:276,1,70,12|0,3:2|0:0,0:0:0:0:
136,144,135031,2,0,L|58:117,1,70,8|0,0:0|0:0,0:0:0:0:
201,73,135364,2,0,L|165:0,1,70,8|0,0:0|0:0,0:0:0:0:
297,70,135697,2,0,L|323:-7,1,70,8|0,0:0|0:0,0:0:0:0:
445,216,136031,6,0,L|518:179,1,70,8|0,0:0|0:0,0:0:0:0:
375,150,136364,2,0,L|401:72,1,70,8|0,0:0|0:0,0:0:0:0:
279,154,136698,2,0,L|242:81,1,70,8|0,0:0|0:0,0:0:0:0:
214,225,137031,2,0,L|136:198,1,70,8|0,0:0|0:0,0:0:0:0:
330,343,137364,6,0,L|407:316,1,70,8|0,0:0|0:0,0:0:0:0:
473,170,137698,2,0,L|395:196,1,70,8|0,0:0|0:0,0:0:0:0:
226,258,138031,2,0,L|303:231,1,70,8|0,0:0|0:0,0:0:0:0:
369,85,138365,2,0,L|291:111,1,70,8|0,0:0|0:0,0:0:0:0:
83,237,138698,6,0,L|160:261,1,70,8|0,0:0|0:0,0:0:0:0:
302,184,139031,2,0,L|224:157,1,70,8|0,0:0|0:0,0:0:0:0:
52,106,139365,2,0,L|129:130,1,70,8|0,0:0|0:0,0:0:0:0:
270,53,139699,2,0,L|192:26,1,70,8|0,0:0|0:0,0:0:0:0:
37,294,140031,5,8,3:1:0:0:
157,256,140198,1,8,0:0:0:0:
275,214,140364,2,0,L|341:191,1,70,8|8,0:0|0:0,0:0:0:0:
122,164,140698,5,8,0:0:0:0:
242,126,140865,1,8,0:0:0:0:
360,84,141031,2,0,L|426:61,1,70,8|8,0:0|0:0,0:0:0:0:
450,260,141364,5,8,0:0:0:0:
318,218,141531,1,8,0:0:0:0:
188,171,141697,2,0,L|115:145,1,77.00000234985,8|8,0:0|0:0,0:0:0:0:
356,116,142031,5,8,0:0:0:0:
224,75,142198,1,8,0:0:0:0:
94,28,142364,2,0,L|21:2,1,77.00000234985,8|8,0:0|0:0,0:0:0:0:
22,181,142698,6,0,L|46:206,3,35,0|0|0|0,3:0|1:0|1:0|1:0,0:0:0:0:
79,286,143031,2,0,L|112:277,3,35,0|0|0|0,1:0|1:0|1:0|1:0,0:0:0:0:
190,318,143364,2,0,L|199:284,3,35,0|0|0|0,1:0|1:0|1:0|1:0,0:0:0:0:
252,216,143697,2,0,L|228:191,3,35,0|0|0|0,1:0|1:0|1:0|1:0,0:0:0:0:
163,129,144031,5,0,0:0:0:0:
162,103,144114,1,0,0:0:0:0:
170,79,144197,1,0,0:0:0:0:
186,58,144281,1,0,0:0:0:0:
211,45,144364,2,0,L|251:29,3,35,0|0|0|0,0:0|0:0|0:0|0:0,0:0:0:0:
314,58,144698,1,8,0:3:0:0:
318,89,144781,1,8,0:3:0:0:
323,120,144864,1,8,0:3:0:0:
328,151,144948,1,8,0:3:0:0:
333,182,145031,2,0,L|338:225,3,35,4|4|4|4,0:3|0:3|0:3|0:3,0:0:0:0:
352,300,145364,5,2,3:1:0:0:
352,300,145448,1,2,0:0:0:0:
352,300,145531,2,0,P|288:288|256:244,1,105.0000040054,2|8,0:0|0:0,0:0:0:0:
219,110,145864,1,2,0:0:0:0:
337,216,146031,2,0,L|437:185,1,105.0000040054,2|0,3:1|0:0,0:0:0:0:
422,105,146281,2,0,P|473:111|512:145,1,105.0000040054,2|0,0:0|0:0,0:0:0:0:
508,228,146531,1,2,0:0:0:0:
345,135,146698,5,0,3:0:0:0:
352,300,146864,1,0,0:0:0:0:
352,300,146948,1,0,0:0:0:0:
352,300,147031,2,0,L|251:330,1,105.0000040054,10|0,0:0|0:0,0:0:0:0:
106,368,147364,1,2,3:1:0:0:
147,240,147531,1,2,0:0:0:0:
31,368,147698,1,10,0:0:0:0:
84,201,147865,1,2,0:0:0:0:
203,331,148031,5,2,3:1:0:0:
203,331,148114,1,2,0:0:0:0:
203,331,148198,2,0,B|254:331|254:331|306:308,1,105.0000040054,2|8,0:0|0:0,0:0:0:0:
421,162,148531,1,2,0:0:0:0:
437,295,148698,2,0,L|349:228,1,105.0000040054,2|0,3:1|0:0,0:0:0:0:
289,186,148948,2,0,P|303:137|289:87,1,105.0000040054,2|0,0:0|0:0,0:0:0:0:
215,54,149198,1,2,0:0:0:0:
381,138,149364,5,0,3:0:0:0:
219,138,149531,1,2,0:0:0:0:
219,138,149614,1,0,2:0:0:0:
219,138,149698,2,0,B|186:138|186:138|153:151|153:151|117:151,1,105.0000040054,10|0,0:0|3:0,0:0:0:0:
289,186,150031,1,2,0:0:0:0:
303,137,150114,1,0,2:0:0:0:
289,87,150197,1,2,3:1:0:0:
116,51,150364,2,0,P|102:100|116:150,1,105.0000040054,8|0,0:0|0:0,0:0:0:0:
155,308,150698,5,2,3:1:0:0:
155,308,150781,1,2,0:0:0:0:
155,308,150864,2,0,B|197:275|197:275|249:275,1,105.0000040054,2|8,0:0|0:0,0:0:0:0:
384,309,151198,1,2,0:0:0:0:
418,174,151364,2,0,L|445:62,1,105.0000040054,2|0,3:1|0:0,0:0:0:0:
506,141,151614,2,0,P|469:176|417:173,1,105.0000040054,2|0,0:0|0:0,0:0:0:0:
356,104,151864,1,2,0:0:0:0:
312,263,152031,5,0,3:0:0:0:
169,153,152198,1,0,0:0:0:0:
169,153,152281,1,0,0:0:0:0:
169,153,152364,2,0,B|220:152|220:152|258:190,1,105.0000040054,10|0,0:0|0:0,0:0:0:0:
113,223,152698,1,2,3:1:0:0:
112,79,152864,1,2,0:0:0:0:
190,225,153031,1,10,0:0:0:0:
188,45,153197,1,2,0:0:0:0:
344,133,153364,5,2,3:1:0:0:
344,133,153448,1,2,0:0:0:0:
344,133,153531,2,0,L|237:133,1,105.0000040054,2|8,0:0|0:0,0:0:0:0:
287,46,153864,1,2,0:0:0:0:
397,207,154031,2,0,P|440:223|498:226,1,105.0000040054,2|0,3:1|0:0,0:0:0:0:
500,307,154281,2,0,P|447:308|398:325,1,105.0000040054,2|0,0:0|0:0,0:0:0:0:
348,269,154531,1,2,0:0:0:0:
194,359,154698,6,0,B|134:358|134:358|86:305,1,119.0000022698,0|0,3:0|2:0,0:0:0:0:
90,194,154948,2,0,L|168:283,1,119.0000022698,8|0,0:0|2:0,0:0:0:0:
165,165,155198,2,0,B|125:121|125:121|65:120,1,119.0000022698,4|0,3:0|2:0,0:0:0:0:
11,44,155448,2,0,L|129:46,1,119.0000022698,4|0,3:0|2:0,0:0:0:0:
207,77,155698,2,0,L|280:77,3,52.50000200272,10|2|2|0,0:0|0:0|0:0|0:0,0:0:0:0:
342,106,156031,5,2,3:1:0:0:
372,106,156114,1,10,0:0:0:0:
401,105,156198,2,0,B|453:105|453:105|508:73,1,105.0000040054,0|8,0:0|0:0,0:0:0:0:
355,20,156531,1,2,0:0:0:0:
298,178,156698,2,0,B|272:223|272:223|216:254,1,105.0000040054,2|0,3:1|0:0,0:0:0:0:
155,286,156948,2,0,P|115:224|62:187,1,105.0000040054,2|0,0:0|0:0,0:0:0:0:
16,179,157198,1,2,0:0:0:0:
187,180,157364,5,0,3:0:0:0:
233,337,157531,1,0,0:0:0:0:
233,337,157614,1,0,0:0:0:0:
233,337,157698,2,0,L|331:300,1,105.0000040054,10|0,0:0|0:0,0:0:0:0:
473,245,158031,1,2,3:1:0:0:
332,191,158198,1,2,0:0:0:0:
494,127,158364,1,10,0:0:0:0:
310,56,158531,1,2,0:0:0:0:
239,240,158698,5,2,3:1:0:0:
239,240,158781,1,2,0:0:0:0:
239,240,158864,2,0,B|187:224|187:256|136:240,1,105.0000040054,2|8,0:0|0:0,0:0:0:0:
3,172,159198,1,2,0:0:0:0:
131,80,159364,2,0,P|157:121|130:163,1,105.0000040054,2|0,3:1|0:0,0:0:0:0:
70,209,159614,2,0,P|65:261|97:303,1,105.0000040054,2|0,0:0|0:0,0:0:0:0:
136,240,159864,1,2,0:0:0:0:
256,337,160031,5,0,3:0:0:0:
313,216,160198,1,2,0:0:0:0:
313,216,160281,1,0,2:0:0:0:
313,216,160364,2,0,L|357:100,1,105.0000040054,10|0,0:0|3:0,0:0:0:0:
194,58,160698,1,2,0:0:0:0:
212,107,160781,1,0,2:0:0:0:
231,156,160864,1,2,3:1:0:0:
403,228,161031,2,0,L|513:171,1,105.0000040054,8|0,0:0|0:0,0:0:0:0:
372,42,161364,5,2,3:1:0:0:
372,42,161448,1,2,0:1:0:0:
372,42,161531,1,2,0:1:0:0:
309,162,161698,1,4,0:1:0:0:
292,82,161864,1,4,0:1:0:0:
233,201,162031,1,12,0:1:0:0:
216,121,162197,1,4,0:1:0:0:
157,240,162365,1,4,0:1:0:0:
140,160,162531,1,4,0:1:0:0:
310,256,162698,5,0,3:0:0:0:
310,256,162864,1,0,0:0:0:0:
395,117,163031,1,4,0:1:0:0:
352,187,163198,1,4,0:1:0:0:
475,265,163364,1,12,0:1:0:0:
435,192,163531,1,4,0:1:0:0:
310,256,163698,1,4,0:1:0:0:
394,258,163865,1,4,0:1:0:0:
269,185,164031,5,0,3:0:0:0:
237,172,164114,1,0,1:0:0:0:
203,168,164197,1,0,1:0:0:0:
169,171,164281,1,0,1:0:0:0:
137,183,164364,2,0,L|96:207,3,45.49999791718,0|0|0|0,1:0|1:0|1:0|1:0,0:0:0:0:
69,282,164698,1,2,1:0:0:0:
100,294,164781,1,0,1:0:0:0:
134,298,164864,1,0,1:0:0:0:
168,295,164948,1,2,1:0:0:0:
200,283,165031,2,0,L|241:259,3,45.49999791718,0|0|2|0,1:0|1:0|1:0|1:0,0:0:0:0:
269,185,165364,6,0,L|310:208,3,45.49999791718,0|0|0|0,0:0|0:0|0:0|0:0,0:0:0:0:
369,262,165698,2,0,L|410:238,3,45.49999791718,0|0|0|0,0:0|0:0|0:0|0:0,0:0:0:0:
442,161,166031,5,2,0:0:0:0:
442,161,166114,1,2,0:0:0:0:
442,161,166198,2,0,L|483:184,1,45.49999791718,2|0,0:0|0:0,0:0:0:0:
368,111,166364,1,2,0:0:0:0:
368,111,166447,1,2,0:0:0:0:
368,111,166531,2,0,L|326:134,1,45.49999791718,2|0,0:0|0:0,0:0:0:0:
269,185,166698,5,2,3:1:0:0:
269,185,166781,1,2,0:0:0:0:
269,185,166864,2,0,L|155:165,1,105.0000040054,2|8,0:0|0:0,0:0:0:0:
280,68,167198,1,0,0:0:0:0:
344,212,167364,2,0,P|376:256|424:300,1,105.0000040054,2|0,0:0|3:0,0:0:0:0:
466,341,167614,2,0,L|339:341,1,105.0000040054,2|0,0:0|0:0,0:0:0:0:
286,342,167864,1,2,0:0:0:0:
432,201,168031,5,0,3:0:0:0:
284,139,168198,1,0,0:0:0:0:
284,139,168281,1,0,0:0:0:0:
284,139,168364,2,0,P|335:132|380:106,1,105.0000040054,10|0,0:0|0:0,0:0:0:0:
238,45,168698,1,2,0:0:0:0:
199,188,168864,1,2,3:1:0:0:
69,11,169031,1,10,0:0:0:0:
117,189,169197,1,2,0:0:0:0:
283,137,169364,5,2,3:1:0:0:
283,137,169448,1,2,0:0:0:0:
283,137,169531,2,0,P|334:143|379:169,1,105.0000040054,2|8,0:0|0:0,0:0:0:0:
512,105,169864,1,2,0:0:0:0:
503,252,170031,2,0,B|478:299|478:299|435:329,1,105.0000040054,2|0,0:0|3:0,0:0:0:0:
356,330,170281,2,0,B|304:317|304:317|253:329,1,105.0000040054,2|0,0:0|0:0,0:0:0:0:
178,353,170531,1,2,0:0:0:0:
305,239,170698,5,0,3:0:0:0:
143,187,170864,1,2,0:0:0:0:
143,187,170948,1,0,0:0:0:0:
143,187,171031,2,0,L|60:264,1,105.0000040054,10|0,0:0|3:0,0:0:0:0:
71,110,171364,1,2,0:0:0:0:
106,148,171447,1,0,0:0:0:0:
142,186,171530,1,2,3:1:0:0:
280,66,171698,2,0,L|197:143,1,105.0000040054,8|0,0:0|0:0,0:0:0:0:
312,256,172031,5,2,3:1:0:0:
312,256,172114,1,2,0:0:0:0:
312,256,172198,2,0,B|276:220|276:220|216:220,1,105.0000040054,2|8,0:0|0:0,0:0:0:0:
312,336,172531,1,0,0:0:0:0:
348,184,172698,2,0,B|384:148|384:148|438:148,1,105.0000040054,2|0,0:0|3:0,0:0:0:0:
465,73,172948,2,0,L|353:73,1,105.0000040054,2|0,0:0|0:0,0:0:0:0:
280,74,173198,1,2,0:0:0:0:
414,222,173364,5,0,3:0:0:0:
280,222,173531,1,0,0:0:0:0:
280,222,173614,1,0,0:0:0:0:
280,222,173698,2,0,B|231:195|231:195|168:195,1,105.0000040054,10|0,0:0|0:0,0:0:0:0:
46,262,174031,1,2,0:0:0:0:
58,115,174198,1,2,3:1:0:0:
123,283,174364,1,10,0:0:0:0:
137,106,174531,1,2,0:0:0:0:
283,206,174698,5,2,3:1:0:0:
283,206,174781,1,2,0:0:0:0:
283,206,174864,2,0,B|332:184|332:184|383:184,1,105.0000040054,2|8,0:0|0:0,0:0:0:0:
509,263,175198,1,2,0:0:0:0:
512,117,175364,2,0,P|486:82|430:55,1,105.0000040054,2|0,0:0|3:0,0:0:0:0:
358,85,175614,2,0,P|310:63|277:23,1,105.0000040054,2|0,0:0|0:0,0:0:0:0:
203,51,175864,1,2,0:0:0:0:
351,165,176031,5,0,3:0:0:0:
208,197,176198,1,2,0:0:0:0:
208,197,176281,1,0,0:0:0:0:
208,197,176364,2,0,L|106:225,1,105.0000040054,10|0,0:0|3:0,0:0:0:0:
108,77,176698,1,2,0:0:0:0:
158,91,176781,1,2,0:0:0:0:
209,105,176864,1,2,3:1:0:0:
209,278,177031,1,10,0:0:0:0:
158,292,177114,1,2,0:0:0:0:
108,307,177197,1,2,0:0:0:0:
0,192,177364,5,2,3:1:0:0:
0,192,177448,1,2,0:0:0:0:
0,192,177531,2,0,L|108:192,1,105.0000040054,2|8,0:0|0:0,0:0:0:0:
253,192,177864,1,2,0:0:0:0:
142,105,178031,2,0,P|121:58|140:11,1,105.0000040054,2|0,0:0|3:0,0:0:0:0:
220,12,178281,2,0,P|239:59|218:105,1,105.0000040054,2|0,0:0|0:0,0:0:0:0:
178,174,178531,1,2,0:0:0:0:
312,60,178698,5,0,3:0:0:0:
446,174,178864,1,0,0:0:0:0:
446,174,178948,1,0,0:0:0:0:
446,174,179031,2,0,P|388:198|348:238,1,105.0000040054,10|0,0:0|0:0,0:0:0:0:
304,338,179364,1,2,0:0:0:0:
445,297,179531,1,2,3:1:0:0:
215,312,179698,1,10,0:0:0:0:
391,363,179865,1,2,0:0:0:0:
130,286,180031,5,2,3:1:0:0:
130,286,180114,1,2,0:0:0:0:
129,285,180198,2,0,P|87:256|56:213,1,105.0000040054,2|8,0:0|0:0,0:0:0:0:
51,66,180531,1,2,0:0:0:0:
171,174,180698,2,0,B|223:184|223:184|275:174,1,105.0000040054,2|0,0:0|3:0,0:0:0:0:
339,129,180948,2,0,B|391:119|391:119|443:129,1,105.0000040054,2|0,0:0|0:0,0:0:0:0:
503,178,181198,1,2,0:0:0:0:
388,44,181364,5,0,3:0:0:0:
395,202,181531,1,2,0:0:0:0:
395,202,181614,1,0,0:0:0:0:
395,202,181698,2,0,L|396:310,1,105.0000040054,10|0,0:0|3:0,0:0:0:0:
277,202,182031,1,2,0:0:0:0:
277,254,182114,1,0,0:0:0:0:
277,307,182197,1,2,3:1:0:0:
159,202,182364,2,0,L|160:310,1,105.0000040054,8|0,0:0|0:0,0:0:0:0:
37,206,182698,5,2,3:1:0:0:
37,206,182781,1,2,0:1:0:0:
37,206,182864,1,2,0:1:0:0:
158,122,183031,1,4,0:1:0:0:
73,122,183198,1,4,0:1:0:0:
201,50,183364,1,12,0:1:0:0:
116,50,183531,1,4,0:1:0:0:
243,122,183698,1,4,0:1:0:0:
158,122,183865,1,4,0:1:0:0:
285,49,184031,5,0,3:0:0:0:
285,49,184198,1,0,0:0:0:0:
358,170,184364,1,4,0:1:0:0:
358,85,184531,1,4,0:1:0:0:
286,213,184697,1,12,0:1:0:0:
286,128,184864,1,4,0:1:0:0:
358,255,185031,1,4,0:1:0:0:
358,170,185198,1,4,0:1:0:0:
287,294,185364,5,0,3:0:0:0:
260,296,185447,1,0,1:0:0:0:
234,298,185530,1,0,1:0:0:0:
208,301,185614,1,0,1:0:0:0:
182,303,185698,2,0,L|121:304,3,52.50000200272,0|0|0|0,1:0|0:0|1:0|0:0,0:0:0:0:
54,279,186031,1,2,1:0:0:0:
42,241,186114,1,0,1:0:0:0:
38,202,186197,1,0,1:0:0:0:
42,163,186281,1,2,1:0:0:0:
54,126,186364,2,0,L|113:101,3,52.50000200272,0|0|2|0,1:0|1:0|1:0|1:0,0:0:0:0:
160,50,186698,6,0,L|211:88,3,52.50000200272,0|0|0|0,0:0|0:0|0:0|0:0,0:0:0:0:
278,103,187031,2,0,L|270:166,3,52.50000200272,0|0|0|0,0:0|0:0|0:0|0:0,0:0:0:0:
244,229,187364,1,2,0:0:0:0:
244,229,187448,1,2,0:0:0:0:
244,229,187531,2,0,L|236:292,1,52.50000200272,2|0,0:0|0:0,0:0:0:0:
318,308,187698,1,2,0:0:0:0:
318,308,187782,1,2,0:0:0:0:
318,308,187865,2,0,L|325:244,1,52.50000200272,2|0,0:0|0:0,0:0:0:0:
368,192,188031,6,0,P|424:220|480:228,1,90.99999583435,4|2,3:2|0:0,0:0:0:0:
368,64,188364,2,0,P|312:35|256:28,1,90.99999583435,8|0,0:0|0:0,0:0:0:0:
128,108,188698,1,2,0:0:0:0:
248,108,188864,1,0,3:0:0:0:
84,28,189031,2,0,P|40:39|0:62,1,90.99999583435,8|2,0:0|0:0,0:0:0:0:
127,252,189364,6,0,P|174:180|128:108,1,181.9999916687,0|8,3:0|0:0,0:0:0:0:
95,180,189864,1,0,0:0:0:0:
220,272,190031,2,0,B|265:280|265:280|318:271,1,90.99999583435,2|0,0:0|3:0,0:0:0:0:
411,152,190364,2,0,B|366:144|366:144|313:153,1,90.99999583435,8|2,0:0|0:0,0:0:0:0:
459,336,190698,6,0,P|515:269|446:216,1,181.9999916687,0|8,3:0|0:0,0:0:0:0:
321,151,191198,1,0,0:0:0:0:
256,306,191364,2,0,L|357:323,1,90.99999583435,2|0,0:0|3:0,0:0:0:0:
218,170,191698,2,0,L|117:187,1,90.99999583435,8|2,0:0|0:0,0:0:0:0:
345,321,192031,6,0,P|397:257|399:154,1,181.9999916687,0|8,3:0|0:0,0:0:0:0:
319,26,192531,2,0,L|277:106,1,90.99999583435,0|2,3:0|0:0,0:0:0:0:
220,216,192864,1,0,3:0:0:0:
135,65,193031,2,0,L|177:145,1,90.99999583435,8|2,0:0|0:0,0:0:0:0:
37,66,193364,6,0,L|121:227,1,181.9999916687,0|8,3:0|0:0,0:0:0:0:
176,330,193864,1,0,0:0:0:0:
0,359,194031,2,0,L|91:313,1,90.99999583435,2|0,0:0|3:0,0:0:0:0:
210,245,194364,1,8,0:0:0:0:
96,188,194531,1,2,0:0:0:0:
235,259,194698,6,0,P|323:278|411:259,1,181.9999916687,0|8,3:0|0:0,0:0:0:0:
232,148,195198,2,0,P|143:128|55:148,1,181.9999916687,0|0,0:0|3:0,0:0:0:0:
256,231,195698,2,0,P|302:205|321:160,1,90.99999583435,8|2,0:0|0:0,0:0:0:0:
145,254,196031,6,0,B|204:332|204:332|292:332,1,181.9999916687,2|10,3:1|0:1,0:0:0:0:
256,231,196531,1,0,0:0:0:0:
112,339,196698,2,0,P|65:349|18:344,1,90.99999583435,2|0,0:1|3:0,0:0:0:0:
21,168,197031,2,0,P|66:164|110:174,1,90.99999583435,8|2,0:0|0:1,0:0:0:0:
260,256,197364,6,0,L|60:256,1,181.9999916687,2|10,3:1|0:1,0:0:0:0:
127,103,197864,2,0,P|165:125|183:166,1,90.99999583435,0|2,3:0|0:1,0:0:0:0:
184,328,198198,1,0,3:0:0:0:
23,195,198364,2,0,P|61:172|106:177,1,90.99999583435,8|2,0:0|0:1,0:0:0:0:
267,310,198698,6,0,P|228:332|184:328,1,90.99999583435,4|2,3:2|0:0,0:0:0:0:
344,200,199031,1,8,0:0:0:0:
344,340,199198,1,0,0:0:0:0:
212,248,199364,2,0,P|184:208|168:152,1,90.99999583435,2|0,0:0|3:0,0:0:0:0:
284,36,199698,2,0,P|263:80|222:122,1,90.99999583435,8|2,0:0|0:0,0:0:0:0:
55,200,200031,5,0,3:0:0:0:
109,79,200198,1,2,0:0:0:0:
184,232,200364,1,8,0:0:0:0:
356,140,200531,2,0,P|260:112|180:140,1,181.9999916687,0|0,0:0|3:0,0:0:0:0:
119,294,201031,2,0,P|179:238|199:202,1,90.99999583435,8|2,0:0|0:0,0:0:0:0:
154,47,201364,6,0,P|90:135|134:215,1,181.9999916687,0|8,3:0|0:0,0:0:0:0:
237,280,201864,1,0,0:0:0:0:
362,196,202031,2,0,L|272:182,1,90.99999583435,2|0,0:0|3:0,0:0:0:0:
106,361,202364,2,0,L|195:374,1,90.99999583435,8|2,0:0|0:0,0:0:0:0:
386,303,202698,6,0,L|206:275,1,181.9999916687,0|8,3:0|0:0,0:0:0:0:
362,196,203198,2,0,L|272:182,1,90.99999583435,0|2,3:0|0:0,0:0:0:0:
146,161,203531,1,0,3:0:0:0:
331,108,203698,2,0,P|368:82|392:44,1,90.99999583435,8|2,0:0|0:0,0:0:0:0:
223,6,204031,6,0,L|273:185,1,181.9999916687,0|8,3:0|0:0,0:0:0:0:
304,303,204531,1,0,0:0:0:0:
128,252,204698,2,0,P|183:228|238:230,1,90.99999583435,2|0,0:0|3:0,0:0:0:0:
389,277,205031,2,0,P|334:301|279:299,1,90.99999583435,8|2,0:0|0:0,0:0:0:0:
226,111,205364,6,0,P|291:112|314:220,1,181.9999916687,0|8,3:0|0:0,0:0:0:0:
139,300,205864,2,0,P|149:215|233:200,1,181.9999916687,0|0,0:0|3:0,0:0:0:0:
357,367,206364,2,0,L|250:334,1,90.99999583435,8|2,0:0|0:0,0:0:0:0:
429,310,206698,6,0,P|478:237|455:134,1,181.9999916687,2|10,3:1|0:1,0:0:0:0:
364,55,207198,1,0,0:0:0:0:
284,240,207364,2,0,P|301:281|333:313,1,90.99999583435,2|0,0:1|3:0,0:0:0:0:
260,124,207698,2,0,P|218:141|186:173,1,90.99999583435,8|2,0:0|0:1,0:0:0:0:
148,375,208031,6,0,P|202:300|139:243,1,181.9999916687,2|10,3:1|0:1,0:0:0:0:
72,108,208531,2,0,P|18:183|81:240,1,181.9999916687,0|0,3:0|3:0,0:0:0:0:
257,103,209031,2,0,L|171:62,1,90.99999583435,8|2,0:0|0:1,0:0:0:0:
259,218,209364,6,0,L|410:145,1,167.9999948731,6|0,3:2|0:0,0:0:0:0:
497,92,209864,1,2,0:0:0:0:
480,269,210031,2,0,P|416:248|383:222,1,83.99999743652,8|0,0:0|0:0,0:0:0:0:
249,67,210364,2,0,P|312:87|345:113,1,83.99999743652,2|0,0:0|0:0,0:0:0:0:
251,281,210698,5,2,3:2:0:0:
217,296,210781,1,0,0:0:0:0:
184,311,210864,1,0,0:0:0:0:
47,201,211031,2,0,P|110:221|143:247,1,83.99999743652,0|2,0:0|0:0,0:0:0:0:
318,348,211364,2,0,P|400:316|433:233,1,167.9999948731,8|2,0:0|0:0,0:0:0:0:
326,175,211864,1,0,0:0:0:0:
239,349,212031,6,0,P|157:317|124:234,1,167.9999948731,2|0,3:2|0:0,0:0:0:0:
224,176,212531,1,2,0:0:0:0:
356,276,212698,2,0,L|264:252,1,83.99999743652,8|0,0:0|0:0,0:0:0:0:
247,217,212948,1,0,0:0:0:0:
224,176,213031,2,0,L|132:152,1,83.99999743652,2|0,0:0|0:0,0:0:0:0:
296,84,213364,6,0,L|112:36,1,167.9999948731,2|0,3:2|0:0,0:0:0:0:
32,16,213864,1,2,0:0:0:0:
33,205,214031,1,8,0:0:0:0:
99,110,214198,1,0,0:0:0:0:
221,205,214364,2,0,P|261:225|305:233,1,83.99999743652,2|0,0:0|0:0,0:0:0:0:
461,129,214698,6,0,P|379:111|297:127,1,167.9999948731,2|0,3:2|0:0,0:0:0:0:
221,205,215198,1,2,0:0:0:0:
322,352,215364,2,0,L|382:280,1,83.99999743652,8|0,0:0|0:0,0:0:0:0:
387,273,215614,1,0,0:0:0:0:
396,263,215698,1,2,0:0:0:0:
283,265,215864,1,0,0:0:0:0:
419,370,216031,6,0,P|496:307|498:226,1,167.9999948731,2|0,3:2|0:0,0:0:0:0:
454,147,216531,1,2,0:0:0:0:
322,252,216698,2,0,P|281:259|240:252,1,83.99999743652,8|0,0:0|0:0,0:0:0:0:
228,249,216948,1,0,0:0:0:0:
216,243,217031,1,2,0:1:0:0:
367,148,217198,1,2,0:0:0:0:
367,148,217281,1,0,0:0:0:0:
367,148,217364,6,0,P|284:133|202:147,1,167.9999948731,2|2,3:1|0:1,0:0:0:0:
70,296,217864,1,2,0:0:0:0:
70,296,217948,1,0,0:0:0:0:
70,296,218031,2,0,L|166:326,1,83.99999743652,10|0,0:1|0:0,0:0:0:0:
303,370,218364,1,2,0:0:0:0:
164,243,218531,1,2,0:1:0:0:
164,243,218615,1,0,0:0:0:0:
164,243,218698,6,0,L|260:273,1,83.99999743652,2|0,3:1|0:0,0:0:0:0:
397,317,219031,1,2,0:1:0:0:
251,174,219198,1,2,0:0:0:0:
251,174,219282,1,0,0:0:0:0:
251,174,219365,2,0,L|347:204,1,83.99999743652,10|0,0:1|0:0,0:0:0:0:
484,248,219698,1,2,0:0:0:0:
312,101,219864,1,2,0:1:0:0:
312,101,219948,1,0,0:0:0:0:
312,101,220031,6,0,L|216:71,1,83.99999743652,0|0,3:0|0:0,0:0:0:0:
144,215,220364,2,0,P|200:194|224:174,1,83.99999743652,0|2,0:0|0:0,0:0:0:0:
70,65,220698,2,0,P|60:123|65:154,1,83.99999743652,8|0,0:0|0:0,0:0:0:0:
212,261,221031,2,0,P|221:202|216:171,1,83.99999743652,2|0,0:0|0:0,0:0:0:0:
17,268,221364,5,2,3:2:0:0:
43,285,221447,1,0,0:0:0:0:
69,302,221530,1,0,0:0:0:0:
219,178,221698,2,0,L|134:205,1,83.99999743652,0|2,0:0|0:0,0:0:0:0:
313,280,222031,2,0,P|357:189|341:112,1,167.9999948731,8|2,0:0|0:0,0:0:0:0:
219,178,222531,1,0,0:0:0:0:
244,333,222698,6,0,B|284:367|284:367|408:356,1,167.9999948731,2|0,3:2|0:0,0:0:0:0:
512,339,223198,1,2,0:0:0:0:
390,233,223364,2,0,P|356:190|345:148,1,83.99999743652,8|0,0:0|0:0,0:0:0:0:
349,131,223614,1,0,0:0:0:0:
352,100,223698,2,0,P|337:60|309:29,1,83.99999743652,2|0,0:0|0:0,0:0:0:0:
109,113,224031,6,0,P|179:153|249:114,1,167.9999948731,2|0,3:2|0:0,0:0:0:0:
179,68,224531,1,2,0:0:0:0:
179,230,224698,1,8,0:3:0:0:
88,202,224864,1,0,0:0:0:0:
249,114,225031,2,0,L|339:114,1,83.99999743652
209,41,225364,6,0,P|169:100|223:196,1,167.9999948731,2|0,3:2|0:0,0:0:0:0:
295,243,225864,1,2,0:0:0:0:
155,313,226031,2,0,L|69:355,1,83.99999743652,8|0,0:0|0:0,0:0:0:0:
65,359,226281,1,0,0:0:0:0:
50,369,226364,1,2,0:0:0:0:
74,239,226531,1,0,0:0:0:0:
237,312,226698,6,0,P|318:330|401:310,1,167.9999948731,2|0,3:2|0:0,0:0:0:0:
495,199,227198,1,0,0:0:0:0:
495,199,227281,1,0,0:0:0:0:
495,199,227364,2,0,L|396:169,1,83.99999743652,10|0,0:0|0:0,0:0:0:0:
235,136,227698,2,0,L|334:106,1,83.99999743652,2|0,0:1|0:0,0:0:0:0:
492,73,228031,6,0,L|294:13,1,167.9999948731,2|2,3:1|0:1,0:0:0:0:
127,93,228531,1,2,0:0:0:0:
127,93,228614,1,0,0:0:0:0:
127,93,228698,2,0,P|173:154|205:156,1,83.99999743652,10|0,0:1|0:0,0:0:0:0:
329,125,229031,1,2,0:0:0:0:
116,257,229198,1,2,0:1:0:0:
116,257,229281,1,0,0:0:0:0:
116,257,229365,6,0,P|191:247|209:220,1,83.99999743652,2|0,3:1|0:0,0:0:0:0:
244,98,229698,1,2,0:1:0:0:
249,345,229864,1,2,0:0:0:0:
249,345,229947,1,0,0:0:0:0:
249,345,230031,2,0,P|278:274|264:245,1,83.99999743652,10|0,0:1|0:0,0:0:0:0:
164,145,230364,1,2,0:0:0:0:
375,337,230531,1,2,0:1:0:0:
375,337,230614,1,0,0:0:0:0:
375,337,230698,6,0,L|240:346,1,125.9999961548,6|0,3:2|0:0,0:0:0:0:
97,236,231364,2,0,L|232:245,1,125.9999961548,2|0,0:0|0:0,0:0:0:0:
321,251,231864,1,2,0:0:0:0:
83,215,232864,2,0,L|150:219,1,62.99999807739,2|0,0:0|0:0,0:0:0:0:
352,222,233364,6,0,P|390:183|370:98,1,125.9999961548,6|0,3:2|0:0,0:0:0:0:
127,115,234031,2,0,P|119:176|160:222,1,125.9999961548,2|0,0:0|0:0,0:0:0:0:
256,196,234531,1,2,0:0:0:0:
256,196,235531,1,0,0:0:0:0:
256,196,236031,6,0,B|220:244|220:244|160:272,1,125.9999961548,6|0,3:2|0:0,0:0:0:0:
128,60,236698,2,0,B|187:67|187:67|241:105,1,125.9999961548,2|0,0:0|0:0,0:0:0:0:
180,164,237198,1,2,0:0:0:0:
320,140,238198,2,0,L|392:128,1,62.99999807739,2|0,0:0|0:0,0:0:0:0:
304,248,238698,6,0,L|448:224,1,125.9999961548,6|0,3:2|0:0,0:0:0:0:
220,320,239364,2,0,L|76:296,1,125.9999961548,2|0,0:0|0:0,0:0:0:0:
172,232,239864,1,2,0:0:0:0:
172,232,240864,1,0,0:0:0:0:
172,232,241364,6,0,P|192:180|168:120,1,112,6|0,0:0|0:0,0:0:0:0:
59,7,242031,2,0,P|42:59|62:110,1,112,2|0,0:0|0:0,0:0:0:0:
117,178,242531,1,2,0:0:0:0:
117,178,243531,2,0,L|196:170,1,56,2|0,0:0|0:0,0:0:0:0:
366,73,244031,6,0,L|254:84,1,112,2|0,0:0|0:0,0:0:0:0:
412,146,244698,2,0,P|450:94|439:28,1,112,2|0,0:0|0:0,0:0:0:0:
366,73,245198,1,2,0:0:0:0:
366,73,246198,1,0,0:0:0:0:
366,73,246698,6,0,L|294:163,1,112,2|0,0:0|0:0,0:0:0:0:
112,117,247364,2,0,P|165:103|219:117,1,112,2|0,0:0|0:0,0:0:0:0:
296,160,247864,1,0,0:0:0:0:
296,160,248864,2,0,L|276:223,1,56,2|0,0:0|0:0,0:0:0:0:
236,348,249364,6,0,P|156:321|131:284,1,112,2|0,0:0|0:0,0:0:0:0:
16,239,250031,2,0,P|96:212|121:175,1,112,2|0,0:0|0:0,0:0:0:0:
137,111,250531,1,2,0:0:0:0:
137,111,251531,1,0,0:0:0:0:
193,176,252031,6,0,P|283:212|372:176,1,195.9999940186,6|2,0:0|0:0,0:0:0:0:
321,20,253198,2,0,P|259:32|286:90,2,146.9999955139,2|2|2,0:0|0:0|0:0,0:0:0:0:
489,172,254698,6,0,B|423:202|423:202|366:191|366:191|304:213,1,195.9999940186,2|2,0:0|0:0,0:0:0:0:
140,308,255864,2,0,P|203:340|273:295,2,146.9999955139,2|2|2,0:0|0:0|0:0,0:0:0:0:
45,180,257364,6,0,B|111:150|111:150|168:161|168:161|230:139,1,195.9999940186,6|2,0:0|0:0,0:0:0:0:
304,28,258531,2,0,L|162:78,2,146.9999955139,2|2|2,0:0|0:0|0:0,0:0:0:0:
485,108,260031,6,0,P|395:142|305:108,1,195.9999940186,2|2,0:0|0:0,0:0:0:0:
143,213,261198,2,0,P|213:213|237:139,2,146.9999955139,2|2|2,0:0|0:0|0:0,0:0:0:0:
56,32,262698,6,0,B|118:43|156:101|156:101|206:59|277:66|277:66|194:207|362:207|278:339,1,545.9999833374,6|0,0:0|0:0,0:0:0:0:
48,344,265364,6,0,B|4:280|52:224|68:208|68:208|80:188|104:124|68:80|-8:92|-40:156|-24:200|48:208|68:208|68:208|88:208|144:208|176:160,1,545.9999833374,2|0,0:0|0:0,0:0:0:0:
328,44,268031,6,0,B|354:25|398:17|439:44|462:81|462:129|439:170|395:193|395:193|350:215|328:256|328:305|350:342|391:368|436:361|466:342,1,545.9999833374,2|0,0:0|0:0,0:0:0:0:
368,112,270698,6,0,B|276:148|200:52|200:52|168:144|72:128|72:128|104:244|28:296,1,545.9999833374,2|0,0:0|0:0,0:0:0:0:
27,296,273364,5,0,0:0:0:0:
