osu file format v14

[General]
AudioFilename: audio.mp3
AudioLeadIn: 0
PreviewTime: 28354
Countdown: 1
SampleSet: Normal
StackLeniency: 0.7
Mode: 0
LetterboxInBreaks: 0
WidescreenStoryboard: 1

[Editor]
Bookmarks: 17154,28354,41954,54754,67554,79554,93154,105954
DistanceSpacing: 1.1
BeatDivisor: 6
GridSize: 8
TimelineZoom: 0.5999999

[Metadata]
Title:Eine Insel Mit Zwei Bergen
TitleUnicode:Eine Insel Mit Zwei Bergen
Artist:Dolls United ft. Jim Knopf
ArtistUnicode:Dolls United ft. Jim Knopf
Creator:The Bic Pen
Version:Easy
Source:
Tags:Shortened I don't speak German lol
BeatmapID:1587036
BeatmapSetID:711826

[Difficulty]
HPDrainRate:2
CircleSize:2.3
OverallDifficulty:1
ApproachRate:3.5
SliderMultiplier:1.2
SliderTickRate:1

[Events]
//Background and Video events
0,0,"disco_nights-1920x1080.jpg",0,0
//Break Periods
2,55028,66114
//Storyboard Layer 0 (Background)
//Storyboard Layer 1 (Fail)
//Storyboard Layer 2 (Pass)
//Storyboard Layer 3 (Foreground)
//Storyboard Sound Samples

[TimingPoints]
2259,833.333333333333,4,1,0,25,1,0
2259,-133.333333333333,4,1,0,25,0,0
3887,689.655172413793,4,1,0,25,1,0
3887,-133.333333333333,4,1,0,25,0,0
5955,594.059405940594,4,1,0,25,1,0
6055,-133.333333333333,4,1,0,25,0,0
7737,540.540540540541,4,1,0,25,1,0
7837,-133.333333333333,4,1,0,25,0,0
8818,487.80487804878,4,1,0,25,1,0
8918,-133.333333333333,4,1,0,25,0,0
9795,454.545454545455,4,1,0,25,1,0
9895,-133.333333333333,4,1,0,25,0,0
10724,422.535211267606,4,1,0,25,1,0
10724,-133.333333333333,4,1,0,25,0,0
12428,400,4,1,0,30,1,0
12528,-133.333333333333,4,1,0,30,0,0
22954,-133.333333333333,4,1,0,25,0,0
30028,-133.333333333333,4,1,0,25,0,1
42028,-133.333333333333,4,1,0,25,0,0
81228,-133.333333333333,4,1,0,25,0,1
93228,-133.333333333333,4,1,0,25,0,0
109154,-133.333333333333,4,1,0,5,0,0

[Colours]
Combo1 : 237,54,54
Combo2 : 249,112,53
Combo3 : 10,107,226
Combo4 : 109,109,252

[HitObjects]
395,129,2259,6,0,P|344:95|299:94,1,90.0000034332277
213,102,3887,1,0,0:0:0:0:
137,167,4576,2,0,P|103:218|102:263,1,90.0000034332277
182,326,5955,1,0,0:0:0:0:
292,338,6549,1,0,0:0:0:0:
398,321,7143,6,0,P|424:261|417:235,1,90.0000034332277
401,151,8277,1,0,0:0:0:0:
322,207,8818,1,0,0:0:0:0:
265,130,9305,2,0,L|193:72,1,90.0000034332277
96,77,10249,1,0,0:0:0:0:
59,169,10724,6,0,P|72:202|121:248,1,90.0000034332277
188,296,11569,2,0,P|293:323|363:304,1,180.000006866455
444,211,12828,6,0,P|449:155|422:120,1,90.0000034332277
337,109,13628,1,0,0:0:0:0:
280,190,14028,1,0,0:0:0:0:
187,229,14428,2,0,P|168:185|182:136,1,90.0000034332277
254,85,15228,1,0,0:0:0:0:
341,123,15628,1,0,0:0:0:0:
332,221,16028,1,0,0:0:0:0:
237,248,16428,6,0,L|144:248,2,90.0000034332277
418,168,18028,2,0,P|409:244|392:260,1,90.0000034332277
323,310,18828,2,0,P|263:341|234:340,2,90.0000034332277
359,218,20028,1,0,0:0:0:0:
323,125,20428,6,0,P|249:103|217:109,1,90.0000034332277
143,135,21228,1,0,0:0:0:0:
201,214,21628,1,0,0:0:0:0:
299,210,22028,6,0,P|353:214|375:258,1,90.0000034332277
321,325,22828,1,0,0:0:0:0:
222,324,23228,1,0,0:0:0:0:
129,289,23628,6,0,P|161:228|259:181,1,180.000006866455
350,146,24828,2,0,P|318:85|220:38,1,180.000006866455
68,164,26428,5,0,0:0:0:0:
166,155,26828,1,0,0:0:0:0:
264,149,27228,2,0,B|358:196|358:196|332:274,1,180.000006866455
254,317,28428,6,0,P|142:234|156:111,1,270.000010299683
239,67,30028,6,0,P|341:45|425:71,1,180.000006866455
478,124,31228,1,0,0:0:0:0:
478,213,31628,1,0,0:0:0:0:
230,138,32028,2,0,P|176:126|132:138,1,90.0000034332277
61,189,32828,1,0,0:0:0:0:
114,270,33228,6,0,P|201:301|305:284,1,180.000006866455
379,255,34428,2,0,P|368:204|186:204,1,270.000010299683
113,260,36028,1,0,0:0:0:0:
62,176,36428,6,0,P|125:97|212:75,1,180.000006866455
296,80,37628,2,0,P|299:218|182:250,1,270.000010299683
98,216,39228,1,0,0:0:0:0:
32,134,39628,1,0,0:0:0:0:
106,68,40028,2,0,P|159:45|197:63,1,90.0000034332277
347,171,41228,2,4,L|360:264,2,90.0000034332277
306,90,42828,6,0,P|212:81|138:119,1,180.000006866455
107,213,44028,6,0,P|174:279|346:274,1,270.000010299683
353,178,45628,5,0,0:0:0:0:
280,110,46028,1,0,0:0:0:0:
182,126,46428,2,0,P|136:185|132:213,1,90.0000034332277
166,291,47228,1,0,0:0:0:0:
251,341,47628,2,0,P|380:312|425:270,1,180.000006866455
364,91,49228,5,0,0:0:0:0:
309,173,49628,2,0,L|245:262,1,90.0000034332277
77,330,50828,6,0,P|68:236|106:162,1,180.000006866455
195,203,52028,6,0,P|262:269|434:264,1,270.000010299683
392,72,54028,5,0,0:0:0:0:
294,57,54428,1,0,0:0:0:0:
212,113,54828,1,0,0:0:0:0:
311,178,67628,6,0,B|249:113|249:113|144:123,1,180.000006866455
64,295,69228,2,0,P|185:272|214:213,1,180.000006866455
330,73,70828,6,0,B|395:135|395:135|385:240,1,180.000006866455
196,169,72428,2,0,P|126:270|147:333,1,180.000006866455
317,231,74028,6,0,B|323:141|323:141|246:70,1,180.000006866455
104,236,76028,6,0,B|89:325|89:325|185:283,1,180.000006866455
308,217,79628,6,0,P|206:286|143:265,1,180.000006866455
206,81,81228,6,0,P|319:44|381:77,1,180.000006866455
418,153,82428,1,0,0:0:0:0:
379,244,82828,1,0,0:0:0:0:
286,279,83228,2,0,P|231:267|196:239,1,90.0000034332277
156,161,84028,1,0,0:0:0:0:
181,65,84428,6,0,P|268:34|372:51,1,180.000006866455
437,95,85628,2,0,P|445:194|345:337,1,270.000010299683
174,248,87628,6,0,P|237:169|324:147,1,180.000006866455
392,78,88828,2,0,P|395:216|278:248,1,270.000010299683
190,228,90428,5,0,0:0:0:0:
112,166,90828,1,0,0:0:0:0:
153,76,91228,2,0,P|206:53|244:71,1,90.0000034332277
263,277,92428,5,0,0:0:0:0:
318,194,92828,1,0,0:0:0:0:
366,107,93228,1,0,0:0:0:0:
186,64,94028,6,0,P|195:158|157:232,1,180.000006866455
68,277,95228,6,0,P|147:336|332:337,1,270.000010299683
387,278,96828,5,0,0:0:0:0:
376,179,97228,1,0,0:0:0:0:
298,121,97628,2,0,P|252:180|248:208,1,90.0000034332277
183,267,98428,2,0,P|133:244|132:131,1,180.000006866455
320,74,100028,6,0,L|377:55,2,45.0000017166138
228,152,100828,2,0,P|215:227|226:247,1,90.0000034332277
293,302,101628,1,0,0:0:0:0:
391,315,102028,1,0,0:0:0:0:
479,263,102428,2,0,P|454:200|428:186,1,90.0000034332277
346,149,103228,6,0,P|272:136|172:174,1,180.000006866455
164,269,104428,1,0,0:0:0:0:
349,327,105228,5,0,0:0:0:0:
445,255,105628,1,0,0:0:0:0:
452,135,106028,1,0,0:0:0:0:
256,192,106828,12,0,109228,0:0:0:0:
