osu file format v14

[General]
AudioFilename: DIAVOLO.mp3
AudioLeadIn: 0
PreviewTime: 65875
Countdown: 1
SampleSet: None
StackLeniency: 0.7
Mode: 2
LetterboxInBreaks: 1
WidescreenStoryboard: 0

[Editor]
Bookmarks: 65812
DistanceSpacing: 1.3
BeatDivisor: 4
GridSize: 16
TimelineZoom: 2.699999

[Metadata]
Title:DIAVOLO
TitleUnicode:DIAVOLO
Artist:Dokyo Kyodai
ArtistUnicode:度胸兄弟
Creator:CLSW
Version:TRANSCENDENTAL SEQUENCER
Source:beatmania IIDX 19 Lincle
Tags:transcendental etudes
BeatmapID:1109058
BeatmapSetID:522215

[Difficulty]
HPDrainRate:7
CircleSize:4
OverallDifficulty:9.3
ApproachRate:9.3
SliderMultiplier:1.93
SliderTickRate:1

[Events]
//Background and Video events
0,0,"yes.jpg",0,0
//Break Periods
//Storyboard Layer 0 (Background)
//Storyboard Layer 1 (Fail)
//Storyboard Layer 2 (Pass)
//Storyboard Layer 3 (Foreground)
//Storyboard Sound Samples

[TimingPoints]
0,375,4,2,0,87,1,0
5906,-100,4,1,0,94,0,0
9000,-83.3333333333333,4,1,0,94,0,0
10500,-76.9230769230769,4,1,0,94,0,0
12000,-100,4,1,0,94,0,0
28500,-83.3333333333333,4,1,0,94,0,0
32906,-76.9230769230769,4,2,0,94,0,0
35250,-76.9230769230769,4,1,0,94,0,0
47250,-66.6666666666667,4,1,0,94,0,0
83280,-100,4,2,0,94,0,0
93750,-100,4,1,0,94,0,0
95374,-100,4,2,0,94,0,0
97500,-100,4,1,0,94,0,0
98375,-100,4,2,0,94,0,0
106125,-100,4,1,0,100,0,0

[Colours]
Combo1 : 0,0,202
Combo2 : 255,45,45
Combo3 : 66,160,255
Combo4 : 196,0,0

[HitObjects]
136,208,0,5,0,0:0:0:0:
384,208,375,2,0,L|432:208,4,48.25,0|0|0|0|2,0:0|0:0|0:0|0:0|0:0,0:0:0:0:
128,160,1031,1,0,0:0:0:0:
224,160,1125,2,0,L|160:160,1,48.25,0|0,0:0|0:0,0:0:0:0:
192,128,1312,2,0,L|256:128,1,48.25
32,128,1500,5,2,0:0:0:0:
480,128,1875,2,0,L|416:128,1,48.25,0|0,0:0|0:0,0:0:0:0:
336,128,2062,2,0,L|256:128,1,48.25,0|0,0:0|0:0,0:0:0:0:
176,128,2250,1,2,0:0:0:0:
480,160,2625,1,0,0:0:0:0:
32,176,3000,6,0,L|240:176,1,193,2|0,0:0|0:0,0:0:0:0:
128,192,3468,2,0,L|112:240,2,48.25,0|0|0,0:0|0:0|0:0,0:0:0:0:
480,176,3750,2,0,L|304:176,1,144.75,2|0,0:0|0:0,0:0:0:0:
432,192,4125,2,0,L|448:240,3,48.25,0|0|0|0,0:0|0:0|0:0|0:0,0:0:0:0:
224,224,4500,6,0,L|64:224,1,144.75,2|0,0:0|0:0,0:0:0:0:
288,224,4875,2,0,L|336:224,3,48.25,0|0|0|0,0:0|0:0|0:0|0:0,0:0:0:0:
448,224,5250,2,0,P|424:291|367:334,1,144.75,2|0,0:0|0:0,0:0:0:0:
64,224,5625,2,0,P|87:291|144:334,1,144.75,0|0,0:0|0:0,0:0:0:0:
464,112,6000,5,4,0:0:0:0:
32,96,6375,2,0,L|-16:160,1,48.25,0|0,0:0|0:0,0:0:0:0:
480,96,6562,2,0,L|528:160,1,48.25,0|0,0:0|0:0,0:0:0:0:
32,128,6750,5,4,0:0:0:0:
480,144,7031,1,0,0:0:0:0:
32,160,7125,2,0,L|-16:224,1,48.25,0|0,0:0|0:0,0:0:0:0:
480,176,7312,2,0,L|528:240,1,48.25,0|0,0:0|0:0,0:0:0:0:
32,224,7500,5,4,0:0:0:0:
480,224,7875,2,0,L|416:224,1,48.25,0|0,0:0|0:0,0:0:0:0:
256,224,8062,2,0,L|192:224,1,48.25,0|0,0:0|0:0,0:0:0:0:
32,208,8250,5,4,0:0:0:0:
480,128,8531,1,0,0:0:0:0:
304,128,8625,2,0,L|240:128,1,48.25,0|0,0:0|0:0,0:0:0:0:
80,128,8812,2,0,L|16:128,1,48.25,0|0,0:0|0:0,0:0:0:0:
352,176,9000,6,0,L|496:176,1,115.799996466065,4|0,0:0|0:0,0:0:0:0:
512,176,9281,1,0,0:0:0:0:
336,128,9375,2,0,L|480:128,1,115.799996466065,4|0,0:0|0:0,0:0:0:0:
496,128,9656,1,0,0:0:0:0:
320,80,9750,6,0,L|464:80,1,115.799996466065,4|0,0:0|0:0,0:0:0:0:
480,80,10031,1,0,0:0:0:0:
304,48,10125,2,0,L|448:48,1,115.799996466065,4|0,0:0|0:0,0:0:0:0:
464,48,10406,1,0,0:0:0:0:
288,80,10500,6,0,L|352:80,1,62.7249971286775,4|0,0:0|0:0,0:0:0:0:
192,128,10687,2,0,L|256:128,1,62.7249971286775,4|0,0:0|0:0,0:0:0:0:
96,176,10875,2,0,L|160:176,1,62.7249971286775,0|0,0:0|0:0,0:0:0:0:
0,224,11062,2,0,L|64:224,1,62.7249971286775,0|0,0:0|0:0,0:0:0:0:
512,224,11250,6,0,L|416:224,1,62.7249971286775,4|0,0:0|0:0,0:0:0:0:
96,256,11437,2,0,L|48:256,3,41.8166647524517,0|0|0|4,0:0|0:0|0:0|0:0,0:0:0:0:
416,256,11812,2,0,L|464:256,2,41.8166647524517,0|0|0,0:0|0:0|0:0,0:0:0:0:
256,256,12000,6,0,L|160:256,2,96.5,4|0|8,0:0|0:0|0:0,0:0:0:0:
64,256,12562,2,0,L|32:160,1,96.5,0|0,0:0|0:0,0:0:0:0:
448,256,12937,2,0,L|480:160,1,96.5,0|8,0:0|0:0,0:0:0:0:
176,144,13312,1,0,0:0:0:0:
336,144,13500,5,0,0:0:0:0:
176,176,13687,2,0,L|160:272,1,96.5,0|8,0:0|0:0,0:0:0:0:
336,176,14062,2,0,L|352:272,1,96.5,0|0,0:0|0:0,0:0:0:0:
256,304,14437,1,8,0:0:0:0:
432,304,14625,1,8,0:0:0:0:
256,304,14812,1,0,0:0:0:0:
80,304,15000,6,0,L|176:304,1,96.5,0|0,0:0|0:0,0:0:0:0:
432,304,15375,2,0,L|320:304,1,96.5,8|0,0:0|0:0,0:0:0:0:
80,272,15750,1,0,0:0:0:0:
256,256,15937,1,0,0:0:0:0:
160,208,16125,1,8,0:0:0:0:
336,208,16312,1,0,0:0:0:0:
80,160,16500,6,0,L|176:160,1,96.5,0|0,0:0|0:0,0:0:0:0:
336,160,16875,2,0,L|448:160,1,96.5,8|0,0:0|0:0,0:0:0:0:
176,112,17250,1,0,0:0:0:0:
336,112,17437,1,8,0:0:0:0:
32,80,17625,1,8,0:0:0:0:
480,80,17812,1,0,0:0:0:0:
224,128,18000,6,0,L|64:128,1,144.75,6|0,0:0|0:0,0:0:0:0:
240,176,18375,2,0,L|256:224,1,48.25,10|0,0:0|0:0,0:0:0:0:
80,224,18562,2,0,L|64:272,1,48.25,0|0,0:0|0:0,0:0:0:0:
288,128,18750,6,0,L|448:128,1,144.75,2|2,0:0|0:0,0:0:0:0:
272,176,19125,2,0,L|256:224,1,48.25,8|2,0:0|0:0,0:0:0:0:
432,224,19312,2,0,L|448:272,1,48.25,0|0,0:0|0:0,0:0:0:0:
256,288,19500,6,0,L|112:288,1,144.75,2|0,0:0|0:0,0:0:0:0:
320,240,19875,2,0,L|384:240,1,48.25,10|0,0:0|0:0,0:0:0:0:
112,240,20062,2,0,L|64:240,1,48.25,0|0,0:0|0:0,0:0:0:0:
256,288,20250,6,0,L|400:288,1,144.75,2|2,0:0|0:0,0:0:0:0:
192,240,20625,2,0,L|128:240,1,48.25,8|2,0:0|0:0,0:0:0:0:
400,240,20812,2,0,L|448:240,1,48.25,0|0,0:0|0:0,0:0:0:0:
192,208,21000,6,0,L|96:208,1,96.5,2|0,0:0|0:0,0:0:0:0:
80,160,21281,1,0,0:0:0:0:
416,176,21375,2,0,L|384:80,1,96.5,8|0,0:0|0:0,0:0:0:0:
288,80,21656,1,0,0:0:0:0:
32,80,21750,6,0,L|144:80,1,96.5,2|0,0:0|0:0,0:0:0:0:
224,80,22031,1,0,0:0:0:0:
480,80,22125,2,0,L|368:80,1,96.5,8|0,0:0|0:0,0:0:0:0:
288,80,22406,1,0,0:0:0:0:
32,128,22500,6,0,L|112:128,1,48.25,0|0,0:0|0:0,0:0:0:0:
384,128,22687,2,0,L|336:128,1,48.25,0|0,0:0|0:0,0:0:0:0:
128,128,22875,2,0,L|192:128,1,48.25,10|0,0:0|0:0,0:0:0:0:
480,128,23062,2,0,L|416:128,1,48.25,0|0,0:0|0:0,0:0:0:0:
32,176,23250,5,0,0:0:0:0:
384,176,23437,2,0,L|416:176,4,24.125,0|0|0|0|0,0:0|0:0|0:0|0:0|0:0,0:0:0:0:
128,176,23812,2,0,L|96:176,3,24.125,0|0|0|0,0:0|0:0|0:0|0:0,0:0:0:0:
288,176,24000,6,0,L|352:176,2,48.25,4|0|0,0:0|0:0|0:0,0:0:0:0:
192,144,24281,1,0,0:0:0:0:
352,144,24375,2,0,L|400:144,2,48.25,0|0|0,0:0|0:0|0:0,0:0:0:0:
256,112,24656,1,0,0:0:0:0:
448,112,24750,6,0,L|464:160,3,48.25,0|0|0|0,0:0|0:0|0:0|0:0,0:0:0:0:
64,112,25125,2,0,L|48:160,3,48.25,0|0|0|0,0:0|0:0|0:0|0:0,0:0:0:0:
352,192,25500,6,0,L|288:192,1,48.25,0|0,0:0|0:0,0:0:0:0:
208,192,25687,1,0,0:0:0:0:
112,192,25781,1,0,0:0:0:0:
400,160,25875,2,0,L|336:160,1,48.25,0|0,0:0|0:0,0:0:0:0:
256,160,26062,1,0,0:0:0:0:
160,160,26156,1,0,0:0:0:0:
352,160,26250,6,0,L|368:224,1,48.25,0|0,0:0|0:0,0:0:0:0:
144,208,26437,2,0,L|160:272,1,48.25,0|0,0:0|0:0,0:0:0:0:
400,112,26625,2,0,L|448:112,1,48.25,0|0,0:0|0:0,0:0:0:0:
64,256,26812,2,0,L|112:256,1,48.25,0|0,0:0|0:0,0:0:0:0:
448,256,27000,6,0,L|384:256,1,48.25,4|0,0:0|0:0,0:0:0:0:
384,208,27187,2,0,L|448:208,1,48.25,0|0,0:0|0:0,0:0:0:0:
256,208,27375,2,0,L|176:208,1,48.25,0|0,0:0|0:0,0:0:0:0:
384,160,27562,2,0,L|432:160,1,48.25,0|0,0:0|0:0,0:0:0:0:
64,256,27750,6,0,L|128:256,1,48.25,4|0,0:0|0:0,0:0:0:0:
128,208,27937,2,0,L|64:208,1,48.25,0|0,0:0|0:0,0:0:0:0:
256,208,28125,2,0,L|336:208,1,48.25,0|0,0:0|0:0,0:0:0:0:
128,160,28312,2,0,L|80:160,1,48.25,0|0,0:0|0:0,0:0:0:0:
400,80,28500,6,0,L|496:80,1,86.8499973495484,4|0,0:0|0:0,0:0:0:0:
320,128,28687,2,0,L|416:128,1,86.8499973495484,0|0,0:0|0:0,0:0:0:0:
240,176,28875,2,0,L|336:176,1,86.8499973495484,4|0,0:0|0:0,0:0:0:0:
160,224,29062,2,0,L|256:224,1,86.8499973495484,0|0,0:0|0:0,0:0:0:0:
112,80,29250,6,0,L|16:80,1,86.8499973495484,4|0,0:0|0:0,0:0:0:0:
192,128,29437,2,0,L|96:128,1,86.8499973495484,0|0,0:0|0:0,0:0:0:0:
272,176,29625,2,0,L|176:176,1,86.8499973495484,4|0,0:0|0:0,0:0:0:0:
352,224,29812,2,0,L|256:224,1,86.8499973495484,0|0,0:0|0:0,0:0:0:0:
400,224,30000,5,6,0:0:0:0:
112,224,30562,5,0,0:0:0:0:
256,240,30750,2,0,P|288:176|160:80,1,231.599992932129,0|2,0:0|0:0,0:0:0:0:
400,224,31500,5,2,0:0:0:0:
112,192,32062,6,0,L|240:192,1,115.799996466065,0|0,0:0|0:0,0:0:0:0:
48,192,32437,2,0,L|48:336,1,115.799996466065,2|2,0:0|0:0,0:0:0:0:
464,192,32812,1,0,0:0:0:0:
80,144,33000,6,0,L|160:144,1,62.7249971286775,0|0,0:0|0:0,0:0:0:0:
64,192,33187,2,0,L|144:192,1,62.7249971286775,0|0,0:0|0:0,0:0:0:0:
48,240,33375,2,0,L|128:240,1,62.7249971286775,2|0,0:0|0:0,0:0:0:0:
32,288,33562,2,0,L|112:288,1,62.7249971286775,0|0,0:0|0:0,0:0:0:0:
368,208,33750,6,0,L|400:208,2,31.3624985643388,0|0|0,0:0|0:0|0:0,0:0:0:0:
208,160,33937,1,0,0:0:0:0:
304,160,34031,1,0,0:0:0:0:
144,208,34125,2,0,L|112:208,2,31.3624985643388,2|0|0,0:0|0:0|0:0,0:0:0:0:
304,160,34312,1,0,0:0:0:0:
208,160,34406,1,0,0:0:0:0:
432,144,34500,6,0,L|369:144,1,62.7249971286775,0|0,0:2|0:2,0:0:0:0:
448,192,34687,2,0,L|368:192,1,62.7249971286775,0|0,0:2|0:2,0:0:0:0:
464,240,34875,2,0,L|384:240,1,62.7249971286775,2|0,0:2|0:2,0:0:0:0:
480,288,35062,2,0,L|400:288,1,62.7249971286775,0|0,0:2|0:2,0:0:0:0:
48,240,35250,6,0,L|16:240,2,31.3624985643388,0|0|0,0:0|0:0|0:0,0:0:0:0:
336,112,35437,1,0,0:0:0:0:
176,112,35531,1,0,0:0:0:0:
464,240,35625,2,0,L|496:240,2,31.3624985643388,0|0|0,0:0|0:0|0:0,0:0:0:0:
176,160,35812,1,0,0:0:0:0:
336,160,35906,1,0,0:0:0:0:
80,160,36000,6,0,L|16:160,1,62.7249971286775,6|0,0:0|0:0,0:0:0:0:
176,208,36187,2,0,L|112:208,1,62.7249971286775,0|0,0:0|0:0,0:0:0:0:
272,240,36375,2,0,L|208:240,1,62.7249971286775,0|0,0:0|0:0,0:0:0:0:
368,272,36562,2,0,L|304:272,1,62.7249971286775,0|0,0:0|0:0,0:0:0:0:
464,304,36750,6,0,L|384:304,1,62.7249971286775,0|0,0:0|0:0,0:0:0:0:
192,304,36937,2,0,L|256:304,1,62.7249971286775,0|0,0:0|0:0,0:0:0:0:
48,304,37125,2,0,L|128:304,1,62.7249971286775,2|0,0:0|0:0,0:0:0:0:
320,304,37312,2,0,L|256:304,1,62.7249971286775,0|0,0:0|0:0,0:0:0:0:
432,160,37500,6,0,L|496:160,1,62.7249971286775,2|0,0:0|0:0,0:0:0:0:
336,208,37687,2,0,L|400:208,1,62.7249971286775,0|0,0:0|0:0,0:0:0:0:
240,240,37875,2,0,L|304:240,1,62.7249971286775,0|0,0:0|0:0,0:0:0:0:
144,272,38062,2,0,L|208:272,1,62.7249971286775,0|0,0:0|0:0,0:0:0:0:
48,304,38250,6,0,L|128:304,1,62.7249971286775,0|0,0:0|0:0,0:0:0:0:
320,304,38437,2,0,L|256:304,1,62.7249971286775,2|0,0:0|0:0,0:0:0:0:
464,304,38625,2,0,L|384:304,1,62.7249971286775,2|0,0:0|0:0,0:0:0:0:
192,304,38812,2,0,L|256:304,1,62.7249971286775,0|0,0:0|0:0,0:0:0:0:
464,240,39000,6,0,L|480:160,1,62.7249971286775,2|0,0:0|0:0,0:0:0:0:
304,160,39187,2,0,L|384:160,1,62.7249971286775,0|0,0:0|0:0,0:0:0:0:
48,240,39375,2,0,L|32:160,1,62.7249971286775,0|0,0:0|0:0,0:0:0:0:
208,160,39562,2,0,L|128:160,1,62.7249971286775,0|0,0:0|0:0,0:0:0:0:
480,128,39750,6,0,L|464:192,1,62.7249971286775,2|0,0:0|0:0,0:0:0:0:
304,160,39937,2,0,L|400:160,1,62.7249971286775,0|0,0:0|0:0,0:0:0:0:
144,160,40125,2,0,L|224:160,1,62.7249971286775,0|0,0:0|0:0,0:0:0:0:
32,160,40312,2,0,L|48:224,1,62.7249971286775,0|0,0:0|0:0,0:0:0:0:
480,240,40500,6,0,L|416:240,1,62.7249971286775,0|0,0:0|0:0,0:0:0:0:
256,240,40687,2,0,L|176:240,1,62.7249971286775,2|0,0:0|0:0,0:0:0:0:
32,224,40875,2,0,L|96:224,1,62.7249971286775,2|0,0:0|0:0,0:0:0:0:
256,192,41062,2,0,L|320:192,1,62.7249971286775,0|0,0:0|0:0,0:0:0:0:
480,128,41250,5,2,0:0:0:0:
192,128,41375,1,0,0:0:0:0:
416,96,41500,1,2,0:0:0:0:
128,96,41625,1,2,0:0:0:0:
352,64,41750,1,0,0:0:0:0:
64,64,41875,1,0,0:0:0:0:
416,160,42000,6,0,L|496:224,2,83.6333295049033,4|0|0,0:0|0:0|0:0,0:0:0:0:
96,160,42375,2,0,L|16:224,2,83.6333295049033,0|0|0,0:0|0:0|0:0,0:0:0:0:
304,192,42750,5,0,0:0:0:0:
384,160,42875,1,0,0:0:0:0:
336,112,43000,1,0,0:0:0:0:
208,192,43125,1,0,0:0:0:0:
128,160,43250,1,0,0:0:0:0:
176,112,43375,1,0,0:0:0:0:
400,64,43500,6,0,L|304:64,2,83.6333295049033,0|0|0,0:0|0:0|0:0,0:0:0:0:
112,64,43875,2,0,L|208:64,2,83.6333295049033,0|0|0,0:0|0:0|0:0,0:0:0:0:
480,64,44250,6,0,P|496:144|480:240,1,167.266659009807,4|0,0:0|0:0,0:0:0:0:
32,64,44625,2,0,P|16:144|32:240,1,167.266659009807,0|0,0:0|0:0,0:0:0:0:
480,208,45000,5,4,0:0:0:0:
256,192,45125,2,0,L|144:192,1,83.6333295049033,0|0,0:0|0:0,0:0:0:0:
320,192,45375,2,0,L|416:192,2,83.6333295049033,0|0|0,0:0|0:0|0:0,0:0:0:0:
32,144,45750,6,0,L|128:144,1,83.6333295049033,0|0,0:0|0:0,0:0:0:0:
256,144,46000,1,0,0:0:0:0:
480,144,46125,2,0,L|384:144,1,83.6333295049033,0|0,0:0|0:0,0:0:0:0:
256,144,46375,1,0,0:0:0:0:
32,96,46500,5,2,0:0:0:0:
256,96,46625,1,2,0:0:0:0:
144,96,46750,1,0,0:0:0:0:
480,96,46875,1,2,0:0:0:0:
256,96,47000,1,0,0:0:0:0:
368,96,47125,1,0,0:0:0:0:
184,192,47250,6,0,L|376:192,1,144.750005521775,6|0,0:0|0:0,0:0:0:0:
64,176,47500,2,0,L|32:320,1,144.750005521775,6|0,0:0|0:0,0:0:0:0:
448,176,47750,2,0,L|480:320,1,144.750005521775,6|0,0:0|0:0,0:0:0:0:
184,272,48000,6,0,L|296:272,2,96.500003681183,6|0|0,0:0|0:0|0:0,0:0:0:0:
48,256,48375,2,0,L|88:368,2,96.500003681183,0|0|0,0:0|0:0|0:0,0:0:0:0:
328,272,48750,6,0,L|216:272,2,96.500003681183,0|0|0,0:0|0:0|0:0,0:0:0:0:
464,256,49125,2,0,L|424:368,2,96.500003681183,0|0|0,0:0|0:0|0:0,0:0:0:0:
304,128,49500,6,0,L|192:128,1,96.500003681183,6|0,0:0|0:0,0:0:0:0:
480,128,49750,1,0,0:0:0:0:
208,192,49875,2,0,L|304:192,1,96.500003681183,0|0,0:0|0:0,0:0:0:0:
32,192,50125,1,0,0:0:0:0:
480,192,50250,6,0,L|496:288,1,96.500003681183,0|0,0:0|0:0,0:0:0:0:
256,288,50500,1,0,0:0:0:0:
16,288,50625,2,0,L|0:192,1,96.500003681183,0|0,0:0|0:0,0:0:0:0:
256,192,50875,1,0,0:0:0:0:
512,144,51000,6,0,L|480:144,1,24.1250009202958,6|0,0:0|0:0,0:0:0:0:
288,144,51125,2,0,L|256:144,1,24.1250009202958,0|0,0:0|0:0,0:0:0:0:
400,112,51250,2,0,L|368:112,1,24.1250009202958,0|0,0:0|0:0,0:0:0:0:
176,112,51375,2,0,L|144:112,1,24.1250009202958,0|0,0:0|0:0,0:0:0:0:
288,96,51500,2,0,L|256:96,1,24.1250009202958,0|0,0:0|0:0,0:0:0:0:
64,128,51625,2,0,L|32:128,1,24.1250009202958,0|0,0:0|0:0,0:0:0:0:
256,128,51750,6,0,L|288:128,1,24.1250009202958,6|0,0:0|0:0,0:0:0:0:
480,128,51875,2,0,L|512:128,1,24.1250009202958,0|0,0:0|0:0,0:0:0:0:
32,64,52000,2,0,L|0:64,1,24.1250009202958,0|0,0:0|0:0,0:0:0:0:
288,64,52125,2,0,L|256:64,1,24.1250009202958,0|0,0:0|0:0,0:0:0:0:
32,64,52250,2,0,L|0:64,1,24.1250009202958,0|0,0:0|0:0,0:0:0:0:
480,64,52375,2,0,L|512:64,1,24.1250009202958,0|0,0:0|0:0,0:0:0:0:
32,144,52500,6,0,L|144:144,1,96.500003681183,6|2,0:0|0:0,0:0:0:0:
384,144,52750,1,0,0:0:0:0:
128,192,52875,2,0,L|240:192,1,96.500003681183,6|2,0:0|0:0,0:0:0:0:
480,192,53125,1,0,0:0:0:0:
32,272,53250,6,0,P|48:176|160:144,1,193.000007362366,4|0,0:0|0:0,0:0:0:0:
384,144,53625,2,0,L|432:144,2,48.2500018405915,0|0|0,0:0|0:0|0:0,0:0:0:0:
448,192,53812,2,0,L|400:192,2,48.2500018405915,0|0|0,0:0|0:0|0:0,0:0:0:0:
128,144,54000,5,4,0:0:0:0:
192,240,54187,1,0,0:0:0:0:
144,240,54234,1,0,0:0:0:0:
112,224,54281,1,0,0:0:0:0:
96,192,54328,1,0,0:0:0:0:
384,96,54375,5,0,0:0:0:0:
320,176,54562,1,0,0:0:0:0:
368,176,54609,1,0,0:0:0:0:
400,160,54656,1,0,0:0:0:0:
416,128,54703,1,0,0:0:0:0:
96,80,54750,5,0,0:0:0:0:
160,160,54937,1,0,0:0:0:0:
112,160,54984,1,0,0:0:0:0:
80,144,55031,1,0,0:0:0:0:
64,112,55078,1,0,0:0:0:0:
416,32,55125,5,0,0:0:0:0:
384,96,55312,1,0,0:0:0:0:
432,96,55359,1,0,0:0:0:0:
464,80,55406,1,0,0:0:0:0:
480,48,55453,1,0,0:0:0:0:
80,208,55500,5,0,0:0:0:0:
208,256,55687,1,0,0:0:0:0:
176,256,55734,1,0,0:0:0:0:
128,256,55781,1,0,0:0:0:0:
64,256,55828,1,0,0:0:0:0:
432,208,55875,5,0,0:0:0:0:
304,256,56062,1,0,0:0:0:0:
336,256,56109,1,0,0:0:0:0:
384,256,56156,1,0,0:0:0:0:
448,256,56203,1,0,0:0:0:0:
80,112,56250,6,0,P|48:144|64:256,1,144.750005521775,0|0,0:0|0:0,0:0:0:0:
336,240,56484,2,0,L|384:240,2,36.1875013804436,0|0|0,0:0|0:0|0:0,0:0:0:0:
176,176,56625,6,0,P|144:208|160:320,1,144.750005521775,0|0,0:0|0:0,0:0:0:0:
432,304,56859,2,0,L|480:304,2,36.1875013804436,0|0|0,0:0|0:0|0:0,0:0:0:0:
208,304,57000,6,0,P|128:272|112:208,1,144.750005521775,0|0,0:0|0:0,0:0:0:0:
128,176,57234,1,0,0:0:0:0:
160,144,57281,1,0,0:0:0:0:
208,144,57328,1,0,0:0:0:0:
288,144,57375,6,0,L|320:144,2,18.0937506902218,0|0|0,0:0|0:0|0:0,0:0:0:0:
128,112,57469,2,0,L|64:112,5,36.1875013804436,0|0|0|0|0|0,0:0|0:0|0:0|0:0|0:0|0:0,0:0:0:0:
304,304,57750,6,0,P|384:272|400:208,1,144.750005521775,0|0,0:0|0:0,0:0:0:0:
384,176,57984,1,0,0:0:0:0:
352,144,58031,1,0,0:0:0:0:
304,144,58078,1,0,0:0:0:0:
224,144,58125,6,0,L|192:144,2,18.0937506902218,0|0|0,0:0|0:0|0:0,0:0:0:0:
384,112,58219,2,0,L|448:112,5,36.1875013804436,0|0|0|0|0|0,0:0|0:0|0:0|0:0|0:0|0:0,0:0:0:0:
128,128,58500,6,0,P|64:160|112:208,1,144.750005521775,0|0,0:0|0:0,0:0:0:0:
176,208,58781,1,0,0:0:0:0:
384,208,58875,5,0,0:0:0:0:
352,256,58937,1,0,0:0:0:0:
304,288,59000,1,0,0:0:0:0:
240,320,59062,1,0,0:0:0:0:
304,320,59109,1,0,0:0:0:0:
352,288,59156,1,0,0:0:0:0:
384,256,59203,1,0,0:0:0:0:
208,224,59250,5,0,0:0:0:0:
160,224,59296,1,0,0:0:0:0:
128,224,59343,1,0,0:0:0:0:
112,192,59390,1,0,0:0:0:0:
272,144,59437,1,0,0:0:0:0:
256,176,59484,1,0,0:0:0:0:
224,176,59531,1,0,0:0:0:0:
176,176,59577,1,0,0:0:0:0:
336,176,59625,5,0,0:0:0:0:
384,176,59671,1,0,0:0:0:0:
419,177,59717,1,0,0:0:0:0:
449,158,59764,1,0,0:0:0:0:
463,125,59811,1,0,0:0:0:0:
455,90,59858,1,0,0:0:0:0:
429,66,59905,1,0,0:0:0:0:
393,61,59952,1,0,0:0:0:0:
112,64,60000,6,0,L|48:64,3,48.2500018405915,0|0|0|0,0:0|0:0|0:0|0:0,0:0:0:0:
400,96,60375,2,0,L|384:144,2,48.2500018405915,0|0|0,0:0|0:0|0:0,0:0:0:0:
256,112,60562,2,0,L|208:160,2,48.2500018405915,0|0|0,0:0|0:0|0:0,0:0:0:0:
112,128,60750,6,0,L|48:128,2,48.2500018405915,0|0|0,0:0|0:0|0:0,0:0:0:0:
400,128,60937,2,0,L|464:128,2,48.2500018405915,0|0|0,0:0|0:0|0:0,0:0:0:0:
112,192,61125,1,0,0:0:0:0:
400,192,61312,1,0,0:0:0:0:
112,64,61500,6,0,L|48:64,3,48.2500018405915,0|0|0|0,0:0|0:0|0:0|0:0,0:0:0:0:
400,96,61875,2,0,L|448:96,2,48.2500018405915,0|0|0,0:0|0:0|0:0,0:0:0:0:
304,96,62062,2,0,L|256:96,2,48.2500018405915,0|0|0,0:0|0:0|0:0,0:0:0:0:
464,128,62250,6,0,L|480:176,2,48.2500018405915,0|0|0,0:0|0:0|0:0,0:0:0:0:
256,160,62437,2,0,L|256:240,2,48.2500018405915,0|0|0,0:0|0:0|0:0,0:0:0:0:
48,128,62625,2,0,L|32:176,2,48.2500018405915,0|0|0,0:0|0:0|0:0,0:0:0:0:
256,160,62812,2,0,L|256:240,2,48.2500018405915,0|0|0,0:0|0:0|0:0,0:0:0:0:
480,160,63000,5,0,0:0:0:0:
464,208,63062,1,0,0:0:0:0:
432,256,63125,1,0,0:0:0:0:
384,288,63187,1,0,0:0:0:0:
32,160,63375,2,0,P|32:224|112:256,1,144.750005521775,0|0,0:0|0:0,0:0:0:0:
144,224,63625,1,0,0:0:0:0:
96,192,63687,1,0,0:0:0:0:
288,144,63750,5,0,0:0:0:0:
272,144,63781,1,0,0:0:0:0:
239,144,63812,1,0,0:0:0:0:
191,144,63875,1,0,0:0:0:0:
320,96,63937,1,0,0:0:0:0:
369,96,63999,1,0,0:0:0:0:
417,96,64062,1,0,0:0:0:0:
95,96,64125,5,0,0:0:0:0:
111,96,64156,1,0,0:0:0:0:
144,96,64187,1,0,0:0:0:0:
192,96,64250,1,0,0:0:0:0:
417,32,64312,1,0,0:0:0:0:
368,32,64374,1,0,0:0:0:0:
320,32,64437,1,0,0:0:0:0:
32,160,64500,5,0,0:0:0:0:
48,208,64562,1,0,0:0:0:0:
80,256,64625,1,0,0:0:0:0:
128,288,64687,1,0,0:0:0:0:
479,159,64875,2,0,P|477:228|415:259,1,144.750005521775,0|0,0:0|0:0,0:0:0:0:
368,224,65125,1,0,0:0:0:0:
416,192,65187,1,0,0:0:0:0:
144,192,65250,5,0,0:0:0:0:
96,176,65312,1,0,0:0:0:0:
128,144,65375,1,0,0:0:0:0:
368,192,65437,1,0,0:0:0:0:
416,176,65499,1,0,0:0:0:0:
384,144,65562,1,0,0:0:0:0:
80,128,65625,5,0,0:0:0:0:
32,112,65687,1,0,0:0:0:0:
64,80,65750,1,0,0:0:0:0:
432,128,65812,1,0,0:0:0:0:
480,112,65874,1,0,0:0:0:0:
448,80,65937,1,0,0:0:0:0:
64,48,66000,6,0,P|32:128|32:192,1,144.750005521775,4|0,0:0|0:0,0:0:0:0:
64,224,66281,1,0,0:0:0:0:
464,224,66375,2,0,L|480:144,1,72.3750027608873,0|0,0:0|0:0,0:0:0:0:
256,192,66562,2,0,L|240:112,1,72.3750027608873,0|0,0:0|0:0,0:0:0:0:
400,224,66750,6,0,L|416:144,1,72.3750027608873,0|0,0:0|0:0,0:0:0:0:
192,192,66937,2,0,L|176:112,1,72.3750027608873,0|0,0:0|0:0,0:0:0:0:
336,224,67125,2,0,L|352:144,1,72.3750027608873,4|0,0:0|0:0,0:0:0:0:
128,192,67312,2,0,L|112:112,1,72.3750027608873,0|0,0:0|0:0,0:0:0:0:
448,48,67500,6,0,P|480:128|480:192,1,144.750005521775,4|0,0:0|0:0,0:0:0:0:
448,224,67781,1,0,0:0:0:0:
48,224,67875,2,0,L|32:144,1,72.3750027608873,0|0,0:0|0:0,0:0:0:0:
256,192,68062,2,0,L|272:112,1,72.3750027608873,0|0,0:0|0:0,0:0:0:0:
112,224,68250,6,0,L|96:144,1,72.3750027608873
320,192,68437,2,0,L|336:112,1,72.3750027608873,0|0,0:0|0:0,0:0:0:0:
176,224,68625,2,0,L|160:144,1,72.3750027608873,4|0,0:0|0:0,0:0:0:0:
384,192,68812,2,0,L|400:112,1,72.3750027608873,0|0,0:0|0:0,0:0:0:0:
64,48,69000,6,0,P|32:128|32:192,1,144.750005521775,4|0,0:0|0:0,0:0:0:0:
64,224,69281,1,0,0:0:0:0:
464,224,69375,2,0,L|480:144,1,72.3750027608873,0|0,0:0|0:0,0:0:0:0:
64,224,69562,2,0,L|48:144,1,72.3750027608873,0|0,0:0|0:0,0:0:0:0:
448,48,69750,6,0,P|480:128|480:192,1,144.750005521775,0|0,0:0|0:0,0:0:0:0:
448,224,70031,1,0,0:0:0:0:
48,224,70125,2,0,L|32:144,1,72.3750027608873,0|0,0:0|0:0,0:0:0:0:
448,224,70312,2,0,L|464:144,1,72.3750027608873,0|0,0:0|0:0,0:0:0:0:
32,128,70500,6,0,L|64:192,1,72.3750027608873,0|0,0:0|0:0,0:0:0:0:
160,192,70687,2,0,L|224:256,1,72.3750027608873,0|0,0:0|0:0,0:0:0:0:
480,160,70875,2,0,L|400:208,1,72.3750027608873,0|0,0:0|0:0,0:0:0:0:
160,224,71062,2,0,L|80:224,1,72.3750027608873,0|0,0:0|0:0,0:0:0:0:
32,192,71250,5,4,0:0:0:0:
480,192,71273,1,0,0:0:0:0:
496,160,71343,1,0,0:0:0:0:
48,160,71366,1,0,0:0:0:0:
32,192,71437,1,0,0:0:0:0:
480,192,71460,1,0,0:0:0:0:
464,160,71531,1,0,0:0:0:0:
16,160,71554,1,0,0:0:0:0:
32,192,71625,1,4,0:0:0:0:
480,192,71648,1,0,0:0:0:0:
496,160,71718,1,0,0:0:0:0:
48,160,71741,1,0,0:0:0:0:
32,192,71812,1,0,0:0:0:0:
480,192,71835,1,0,0:0:0:0:
464,160,71906,1,0,0:0:0:0:
16,160,71929,1,0,0:0:0:0:
32,224,72000,6,0,P|64:288|160:320,1,144.750005521775,4|0,0:0|0:0,0:0:0:0:
192,320,72281,1,0,0:0:0:0:
352,304,72375,1,0,0:0:0:0:
320,256,72468,1,0,0:0:0:0:
256,224,72562,1,0,0:0:0:0:
192,192,72656,1,0,0:0:0:0:
416,240,72750,5,0,0:0:0:0:
368,192,72843,1,0,0:0:0:0:
288,176,72937,1,0,0:0:0:0:
208,160,73031,1,0,0:0:0:0:
480,160,73125,1,4,0:0:0:0:
416,112,73218,1,0,0:0:0:0:
320,96,73312,1,0,0:0:0:0:
224,96,73406,1,0,0:0:0:0:
480,224,73500,6,0,P|448:288|352:320,1,144.750005521775,4|0,0:0|0:0,0:0:0:0:
320,320,73781,1,0,0:0:0:0:
160,304,73875,1,0,0:0:0:0:
192,256,73968,1,0,0:0:0:0:
256,224,74062,1,0,0:0:0:0:
320,192,74156,1,0,0:0:0:0:
96,240,74250,5,0,0:0:0:0:
144,192,74343,1,0,0:0:0:0:
224,176,74437,1,0,0:0:0:0:
304,160,74531,1,0,0:0:0:0:
32,160,74625,1,4,0:0:0:0:
96,112,74718,1,0,0:0:0:0:
192,96,74812,1,0,0:0:0:0:
288,96,74906,1,0,0:0:0:0:
32,80,75000,6,0,P|16:160|32:240,1,144.750005521775,4|0,0:0|0:0,0:0:0:0:
64,256,75281,1,0,0:0:0:0:
480,96,75375,2,0,L|464:176,3,72.3750027608873,0|0|0|0,0:0|0:0|0:0|0:0,0:0:0:0:
32,80,75750,6,0,P|16:160|32:240,1,144.750005521775,4|0,0:0|0:0,0:0:0:0:
64,256,76031,1,0,0:0:0:0:
480,96,76125,2,0,L|464:176,3,72.3750027608873,0|0|0|0,0:0|0:0|0:0|0:0,0:0:0:0:
208,176,76500,6,0,L|128:176,2,72.3750027608873,4|0|4,0:0|0:0|0:0,0:0:0:0:
32,176,76781,1,0,0:0:0:0:
304,176,76875,2,0,L|384:176,2,72.3750027608873,4|0|0,0:0|0:0|0:0,0:0:0:0:
480,176,77156,1,0,0:0:0:0:
224,128,77250,5,4,0:0:0:0:
16,128,77343,1,0,0:0:0:0:
96,96,77437,1,0,0:0:0:0:
16,96,77531,1,0,0:0:0:0:
288,96,77625,1,0,0:0:0:0:
496,96,77718,1,0,0:0:0:0:
416,144,77812,1,0,0:0:0:0:
496,144,77906,1,0,0:0:0:0:
224,64,78000,5,0,0:0:0:0:
32,64,78093,1,0,0:0:0:0:
112,32,78187,1,0,0:0:0:0:
32,32,78281,1,0,0:0:0:0:
288,64,78375,1,0,0:0:0:0:
480,64,78468,1,0,0:0:0:0:
400,32,78562,1,0,0:0:0:0:
480,32,78656,1,0,0:0:0:0:
224,96,78750,5,0,0:0:0:0:
48,96,78843,1,0,0:0:0:0:
128,144,78937,1,0,0:0:0:0:
48,144,79031,1,0,0:0:0:0:
288,96,79125,1,0,0:0:0:0:
464,96,79218,1,0,0:0:0:0:
384,128,79312,1,0,0:0:0:0:
464,128,79406,1,0,0:0:0:0:
224,176,79500,5,0,0:0:0:0:
64,176,79593,1,0,0:0:0:0:
144,208,79687,1,0,0:0:0:0:
64,192,79781,1,0,0:0:0:0:
288,176,79875,1,0,0:0:0:0:
448,176,79968,1,0,0:0:0:0:
368,208,80062,1,0,0:0:0:0:
448,208,80156,1,0,0:0:0:0:
64,256,80250,5,0,0:0:0:0:
448,256,80437,1,0,0:0:0:0:
176,240,80625,1,0,0:0:0:0:
336,240,80812,1,0,0:0:0:0:
64,160,81000,6,0,L|208:272,3,144.750005521775,0|0|0|0,0:0|0:0|0:0|0:0,0:0:0:0:
448,160,81750,6,0,L|304:272,1,144.750005521775,0|0,0:0|0:0,0:0:0:0:
64,160,82125,2,0,L|208:272,1,144.750005521775,0|0,0:0|0:0,0:0:0:0:
336,224,82500,5,0,0:0:0:0:
176,224,82687,1,0,0:0:0:0:
448,160,82875,1,0,0:0:0:0:
64,160,83062,1,0,0:0:0:0:
512,96,83250,5,4,1:0:0:0:
408,96,83281,5,0,0:0:0:0:
304,96,83312,5,0,0:0:0:0:
200,96,83343,5,0,0:0:0:0:
96,104,83375,5,0,0:0:0:0:
0,104,83406,5,0,0:0:0:0:
0,96,83437,5,0,0:0:0:0:
104,96,83468,5,0,0:0:0:0:
208,96,83499,5,0,0:0:0:0:
312,96,83530,5,0,0:0:0:0:
416,104,83562,5,0,0:0:0:0:
512,104,83593,5,0,0:0:0:0:
512,176,83625,5,2,0:0:0:0:
408,176,83656,5,0,0:0:0:0:
304,176,83687,5,0,0:0:0:0:
0,160,83718,5,0,0:0:0:0:
104,168,83750,5,0,0:0:0:0:
200,168,83781,5,0,0:0:0:0:
512,208,83812,5,0,0:0:0:0:
408,208,83843,5,0,0:0:0:0:
304,208,83874,5,0,0:0:0:0:
0,240,83905,5,0,0:0:0:0:
96,240,83936,5,0,0:0:0:0:
200,232,83968,5,0,0:0:0:0:
512,288,84000,6,0,L|432:240,1,72.375,2|0,0:0|0:0,0:0:0:0:
384,240,84187,2,0,L|304:192,1,72.375,0|0,0:0|0:0,0:0:0:0:
256,192,84375,6,0,L|176:144,1,72.375,0|0,0:0|0:0,0:0:0:0:
128,160,84562,2,0,L|48:112,1,72.375,2|0,0:0|0:0,0:0:0:0:
0,96,84750,5,0,0:0:0:0:
104,96,84781,5,0,0:0:0:0:
208,96,84812,5,0,0:0:0:0:
312,96,84843,5,0,0:0:0:0:
416,104,84875,5,0,0:0:0:0:
512,104,84906,5,0,0:0:0:0:
512,96,84937,5,0,0:0:0:0:
408,96,84968,5,0,0:0:0:0:
304,96,84999,5,0,0:0:0:0:
200,96,85030,5,0,0:0:0:0:
96,104,85062,5,0,0:0:0:0:
0,104,85093,5,0,0:0:0:0:
0,176,85125,5,2,0:0:0:0:
104,176,85156,5,0,0:0:0:0:
208,176,85187,5,0,0:0:0:0:
512,160,85218,5,0,0:0:0:0:
408,168,85250,5,0,0:0:0:0:
312,168,85281,5,0,0:0:0:0:
0,208,85312,5,0,0:0:0:0:
104,208,85343,5,0,0:0:0:0:
208,208,85374,5,0,0:0:0:0:
512,240,85405,5,0,0:0:0:0:
416,240,85436,5,0,0:0:0:0:
312,232,85468,5,0,0:0:0:0:
0,304,85500,5,2,0:0:0:0:
32,304,85546,1,0,0:0:0:0:
64,304,85593,1,0,0:0:0:0:
96,304,85640,1,0,0:0:0:0:
128,304,85687,1,0,0:0:0:0:
160,304,85734,1,0,0:0:0:0:
192,304,85781,1,0,0:0:0:0:
224,304,85828,1,0,0:0:0:0:
512,304,85875,5,2,0:0:0:0:
480,304,85921,1,0,0:0:0:0:
448,304,85968,1,0,0:0:0:0:
416,304,86015,1,0,0:0:0:0:
312,320,86062,1,0,0:0:0:0:
208,328,86109,1,0,0:0:0:0:
104,336,86156,1,0,0:0:0:0:
0,336,86203,1,0,0:0:0:0:
0,96,86250,5,4,1:0:0:0:
104,96,86281,5,0,0:0:0:0:
208,96,86312,5,0,0:0:0:0:
312,96,86343,5,0,0:0:0:0:
416,104,86375,5,0,0:0:0:0:
512,104,86406,5,0,0:0:0:0:
512,96,86437,5,0,0:0:0:0:
408,96,86468,5,0,0:0:0:0:
304,96,86499,5,0,0:0:0:0:
200,96,86530,5,0,0:0:0:0:
96,104,86562,5,0,0:0:0:0:
0,104,86593,5,0,0:0:0:0:
0,176,86625,5,2,0:0:0:0:
104,176,86656,5,0,0:0:0:0:
208,176,86687,5,0,0:0:0:0:
512,160,86718,5,0,0:0:0:0:
408,168,86750,5,0,0:0:0:0:
312,168,86781,5,0,0:0:0:0:
0,208,86812,5,0,0:0:0:0:
104,208,86843,5,0,0:0:0:0:
208,208,86874,5,0,0:0:0:0:
512,240,86905,5,0,0:0:0:0:
416,240,86936,5,0,0:0:0:0:
312,232,86968,5,0,0:0:0:0:
0,288,87000,6,0,L|80:240,1,72.375,2|0,0:0|0:0,0:0:0:0:
128,240,87187,2,0,L|208:192,1,72.375,0|0,0:0|0:0,0:0:0:0:
256,192,87375,6,0,L|336:144,1,72.375,0|0,0:0|0:0,0:0:0:0:
384,160,87562,2,0,L|464:112,1,72.375,2|0,0:0|0:0,0:0:0:0:
512,96,87750,5,0,0:0:0:0:
408,96,87781,5,0,0:0:0:0:
304,96,87812,5,0,0:0:0:0:
200,96,87843,5,0,0:0:0:0:
96,104,87875,5,0,0:0:0:0:
0,104,87906,5,0,0:0:0:0:
0,96,87937,5,0,0:0:0:0:
104,96,87968,5,0,0:0:0:0:
208,96,87999,5,0,0:0:0:0:
312,96,88030,5,0,0:0:0:0:
416,104,88062,5,0,0:0:0:0:
512,104,88093,5,0,0:0:0:0:
512,176,88125,5,2,0:0:0:0:
408,176,88156,5,0,0:0:0:0:
304,176,88187,5,0,0:0:0:0:
0,160,88218,5,0,0:0:0:0:
104,168,88250,5,0,0:0:0:0:
200,168,88281,5,0,0:0:0:0:
512,208,88312,5,0,0:0:0:0:
408,208,88343,5,0,0:0:0:0:
304,208,88374,5,0,0:0:0:0:
0,240,88405,5,0,0:0:0:0:
96,240,88436,5,0,0:0:0:0:
200,232,88468,5,0,0:0:0:0:
512,304,88500,5,2,0:0:0:0:
464,304,88546,1,0,0:0:0:0:
416,304,88593,1,0,0:0:0:0:
368,304,88640,1,0,0:0:0:0:
0,304,88687,1,0,0:0:0:0:
48,304,88734,1,0,0:0:0:0:
96,304,88781,1,0,0:0:0:0:
144,304,88828,1,0,0:0:0:0:
512,176,88875,5,0,0:0:0:0:
464,176,88921,1,0,0:0:0:0:
416,176,88968,1,0,0:0:0:0:
368,176,89015,1,0,0:0:0:0:
0,192,89062,1,2,0:0:0:0:
48,192,89109,1,0,0:0:0:0:
96,192,89156,1,0,0:0:0:0:
144,192,89203,1,0,0:0:0:0:
512,96,89250,5,0,0:0:0:0:
408,96,89281,5,0,0:0:0:0:
304,96,89312,5,0,0:0:0:0:
200,96,89343,5,0,0:0:0:0:
96,104,89375,5,0,0:0:0:0:
0,104,89406,5,0,0:0:0:0:
0,96,89437,5,0,0:0:0:0:
104,96,89468,5,0,0:0:0:0:
208,96,89499,5,0,0:0:0:0:
312,96,89530,5,0,0:0:0:0:
416,104,89562,5,0,0:0:0:0:
512,104,89593,5,0,0:0:0:0:
512,176,89625,5,4,0:0:0:0:
480,208,89656,5,0,0:0:0:0:
448,208,89687,5,0,0:0:0:0:
416,208,89718,5,0,0:0:0:0:
384,208,89750,5,0,0:0:0:0:
352,208,89781,5,0,0:0:0:0:
0,176,89812,5,0,0:0:0:0:
32,208,89843,5,0,0:0:0:0:
64,208,89874,5,0,0:0:0:0:
96,208,89905,5,0,0:0:0:0:
128,208,89937,5,0,0:0:0:0:
160,208,89968,5,0,0:0:0:0:
512,224,90000,2,0,L|512:320,1,96.5,0|0,0:0|0:0,0:0:0:0:
208,272,90375,2,0,L|304:272,1,96.5,0|0,0:0|0:0,0:0:0:0:
0,96,90750,5,0,0:0:0:0:
104,96,90781,5,0,0:0:0:0:
208,96,90812,5,0,0:0:0:0:
312,96,90843,5,0,0:0:0:0:
416,104,90875,5,0,0:0:0:0:
512,104,90906,5,0,0:0:0:0:
512,96,90937,5,0,0:0:0:0:
408,96,90968,5,0,0:0:0:0:
304,96,90999,5,0,0:0:0:0:
200,96,91030,5,0,0:0:0:0:
96,104,91062,5,0,0:0:0:0:
0,104,91093,5,0,0:0:0:0:
0,176,91125,5,4,0:0:0:0:
32,208,91156,5,0,0:0:0:0:
64,208,91187,5,0,0:0:0:0:
96,208,91218,5,0,0:0:0:0:
128,208,91250,5,0,0:0:0:0:
160,208,91281,5,0,0:0:0:0:
512,176,91312,5,0,0:0:0:0:
480,208,91343,5,0,0:0:0:0:
448,208,91374,5,0,0:0:0:0:
416,208,91405,5,0,0:0:0:0:
384,208,91437,5,0,0:0:0:0:
352,208,91468,5,0,0:0:0:0:
0,224,91500,2,0,L|0:320,1,96.5,4|0,0:0|0:0,0:0:0:0:
304,272,91875,2,0,L|208:272,1,96.5,0|0,0:0|0:0,0:0:0:0:
512,144,92250,6,0,L|496:208,2,48.25,0|0|0,0:0|0:0|0:0,0:0:0:0:
352,192,92625,2,0,L|336:256,2,48.25,0|0|0,0:0|0:0|0:0,0:0:0:0:
160,240,93000,6,0,L|176:304,2,48.25,0|0|0,0:0|0:0|0:0,0:0:0:0:
0,272,93375,2,0,L|16:336,2,48.25,0|0|0,0:0|0:0|0:0,0:0:0:0:
352,176,93750,6,0,L|432:176,1,72.375,4|0,0:0|0:0,0:0:0:0:
160,176,93937,2,0,L|80:176,1,72.375,0|0,0:0|0:0,0:0:0:0:
416,128,94125,2,0,L|496:128,1,72.375,4|0,0:0|0:0,0:0:0:0:
112,128,94312,2,0,L|32:128,1,72.375,0|0,0:0|0:0,0:0:0:0:
256,112,94500,5,4,0:0:0:0:
384,112,94546,1,0,0:0:0:0:
512,112,94593,1,0,0:0:0:0:
256,112,94687,1,0,0:0:0:0:
128,112,94733,1,0,0:0:0:0:
0,112,94780,1,0,0:0:0:0:
256,112,94875,1,4,0:0:0:0:
384,112,94921,1,0,0:0:0:0:
512,112,94968,1,0,0:0:0:0:
256,112,95062,1,0,0:0:0:0:
128,112,95108,1,0,0:0:0:0:
0,112,95155,1,0,0:0:0:0:
512,64,95250,5,4,0:0:0:0:
176,48,95437,2,0,L|144:48,4,24.125,0|0|0|0|2,0:0|0:0|0:0|0:0|0:0,0:0:0:0:
336,48,95812,2,0,L|368:48,4,24.125,0|0|0|0|0,0:0|0:0|0:0|0:0|0:0,0:0:0:0:
64,160,96187,6,0,L|32:160,4,24.125,0|0|0|0|2,0:0|0:0|0:0|0:0|0:0,0:0:0:0:
448,160,96562,2,0,L|480:160,4,24.125,0|0|0|0|0,0:0|0:0|0:0|0:0|0:0,0:0:0:0:
32,208,96937,5,0,0:0:0:0:
48,240,96984,1,0,0:0:0:0:
80,272,97031,1,0,0:0:0:0:
112,304,97078,1,0,0:0:0:0:
160,320,97125,1,2,0:0:0:0:
480,208,97312,1,0,0:0:0:0:
464,240,97359,1,0,0:0:0:0:
432,272,97406,1,0,0:0:0:0:
400,304,97453,1,0,0:0:0:0:
352,320,97500,5,4,0:0:0:0:
32,256,97687,1,0,0:0:0:0:
480,128,97875,1,4,0:0:0:0:
160,128,98062,1,0,0:0:0:0:
480,80,98250,5,4,0:0:0:0:
32,64,98437,1,0,0:0:0:0:
48,96,98484,1,0,0:0:0:0:
80,128,98531,1,0,0:0:0:0:
112,160,98578,1,0,0:0:0:0:
160,176,98625,1,2,0:0:0:0:
480,64,98812,1,0,0:0:0:0:
464,96,98859,1,0,0:0:0:0:
432,128,98906,1,0,0:0:0:0:
400,160,98953,1,0,0:0:0:0:
352,176,99000,5,0,0:0:0:0:
64,160,99187,2,0,L|32:160,4,24.125,0|0|0|0|2,0:0|0:0|0:0|0:0|0:0,0:0:0:0:
448,160,99562,2,0,L|480:160,4,24.125,0|0|0|0|0,0:0|0:0|0:0|0:0|0:0,0:0:0:0:
176,48,99937,6,0,L|144:48,4,24.125,0|0|0|0|2,0:0|0:0|0:0|0:0|0:0,0:0:0:0:
336,48,100312,2,0,L|368:48,4,24.125,0|0|0|0|4,0:0|0:0|0:0|0:0|1:0,0:0:0:0:
0,96,100687,5,0,1:0:0:0:
512,112,100875,1,4,1:0:0:0:
256,112,101062,1,0,1:0:0:0:
0,144,101250,5,4,1:0:0:0:
32,176,101281,1,0,2:0:0:0:
144,176,101312,1,0,2:0:0:0:
256,176,101343,1,0,2:0:0:0:
368,176,101375,1,0,2:0:0:0:
480,176,101406,1,0,2:0:0:0:
512,144,101437,1,0,2:0:0:0:
480,176,101468,1,0,2:0:0:0:
368,176,101499,1,0,2:0:0:0:
256,176,101530,1,0,2:0:0:0:
144,176,101562,1,0,2:0:0:0:
32,176,101593,1,0,2:0:0:0:
0,144,101625,5,4,1:0:0:0:
32,176,101656,1,0,2:0:0:0:
144,176,101687,1,0,2:0:0:0:
256,176,101718,1,0,2:0:0:0:
368,176,101750,1,0,2:0:0:0:
480,176,101781,1,0,2:0:0:0:
512,144,101812,1,0,2:0:0:0:
480,176,101843,1,0,2:0:0:0:
368,176,101874,1,0,2:0:0:0:
256,176,101905,1,0,2:0:0:0:
144,176,101937,1,0,2:0:0:0:
32,176,101968,1,0,2:0:0:0:
0,144,102000,5,4,1:0:0:0:
32,176,102031,1,0,2:0:0:0:
144,176,102062,1,0,2:0:0:0:
256,176,102093,1,0,2:0:0:0:
368,176,102125,1,0,2:0:0:0:
480,176,102156,1,0,2:0:0:0:
512,144,102187,1,0,2:0:0:0:
480,176,102218,1,0,2:0:0:0:
368,176,102249,1,0,2:0:0:0:
256,176,102280,1,0,2:0:0:0:
144,176,102312,1,0,2:0:0:0:
32,176,102343,1,0,2:0:0:0:
0,144,102375,5,4,1:0:0:0:
32,176,102406,1,0,2:0:0:0:
144,176,102437,1,0,2:0:0:0:
256,176,102468,1,0,2:0:0:0:
368,176,102500,1,0,2:0:0:0:
480,176,102531,1,0,2:0:0:0:
512,144,102562,1,0,2:0:0:0:
480,176,102593,1,0,2:0:0:0:
368,176,102624,1,0,2:0:0:0:
256,176,102655,1,0,2:0:0:0:
144,176,102687,1,0,2:0:0:0:
32,176,102718,1,0,2:0:0:0:
0,48,102750,5,4,1:0:0:0:
32,80,102781,1,0,2:0:0:0:
256,80,102812,1,0,2:0:0:0:
512,48,102843,1,4,1:0:0:0:
480,80,102874,1,0,2:0:0:0:
256,80,102905,1,0,2:0:0:0:
0,48,102937,5,4,1:0:0:0:
32,80,102968,1,0,2:0:0:0:
256,80,102999,1,0,2:0:0:0:
512,48,103030,1,4,1:0:0:0:
480,80,103061,1,0,2:0:0:0:
256,80,103092,1,0,2:0:0:0:
0,48,103125,5,4,1:0:0:0:
32,80,103156,1,0,2:0:0:0:
256,80,103187,1,0,2:0:0:0:
512,48,103218,1,4,1:0:0:0:
480,80,103249,1,0,2:0:0:0:
256,80,103280,1,0,2:0:0:0:
0,48,103312,5,4,1:0:0:0:
32,80,103343,1,0,2:0:0:0:
256,80,103374,1,0,2:0:0:0:
512,48,103405,1,4,1:0:0:0:
480,80,103436,1,0,2:0:0:0:
256,80,103467,1,0,2:0:0:0:
0,96,103500,5,4,1:0:0:0:
80,96,103593,1,0,0:0:0:0:
512,96,103687,1,0,1:0:0:0:
432,96,103781,1,0,0:0:0:0:
0,96,103875,5,0,1:0:0:0:
80,96,103968,1,0,0:0:0:0:
512,96,104062,1,0,1:0:0:0:
432,96,104156,1,0,0:0:0:0:
0,128,104250,5,0,1:0:0:0:
128,128,104312,1,0,0:0:0:0:
256,128,104375,1,0,0:0:0:0:
448,176,104437,1,0,1:0:0:0:
320,176,104500,1,0,0:0:0:0:
192,176,104562,1,0,0:0:0:0:
64,176,104625,5,0,1:0:0:0:
192,240,104687,1,0,0:0:0:0:
320,240,104750,1,0,0:0:0:0:
512,192,104812,1,0,1:0:0:0:
384,240,104875,1,0,0:0:0:0:
256,256,104937,1,0,0:0:0:0:
0,192,105000,5,0,1:0:0:0:
128,208,105063,1,0,0:0:0:0:
256,192,105125,1,0,0:0:0:0:
512,176,105188,1,0,1:0:0:0:
384,160,105250,1,0,0:0:0:0:
256,160,105313,1,0,0:0:0:0:
0,128,105375,5,0,1:0:0:0:
128,128,105437,1,0,0:0:0:0:
256,128,105500,1,0,0:0:0:0:
512,80,105562,1,0,1:0:0:0:
384,80,105625,1,0,1:0:0:0:
256,80,105687,1,0,1:0:0:0:
0,160,105750,5,0,1:0:0:0:
512,80,106125,1,4,1:0:0:0:
