osu file format v14

[General]
AudioFilename: audio.mp3
AudioLeadIn: 0
PreviewTime: 77857
Countdown: 0
SampleSet: Soft
StackLeniency: 0.3
Mode: 0
LetterboxInBreaks: 0
WidescreenStoryboard: 0

[Editor]
DistanceSpacing: 1.2
BeatDivisor: 4
GridSize: 8
TimelineZoom: 1

[Metadata]
Title:Say So
TitleUnicode:Say So
Artist:Doja Cat
ArtistUnicode:Doja Cat
Creator:Dyl-Byl
Version:Easy
Source:
Tags:hot pink tiktok tik tok amala amalaratna zandile dlamini easy mapper easy_mapper lazarus plaudible english pop disco hip hop hiphop rap saint pepsi skylar spence fiona coyne
BeatmapID:2291160
BeatmapSetID:1096383

[Difficulty]
HPDrainRate:3
CircleSize:3
OverallDifficulty:3
ApproachRate:3
SliderMultiplier:0.8
SliderTickRate:1

[Events]
//Background and Video events
0,0,"woahabg.jpg",0,0
//Break Periods
//Storyboard Layer 0 (Background)
//Storyboard Layer 1 (Fail)
//Storyboard Layer 2 (Pass)
//Storyboard Layer 3 (Foreground)
//Storyboard Layer 4 (Overlay)
//Storyboard Sound Samples

[TimingPoints]
20,540.540540540541,4,2,1,80,1,0
8668,-100,4,2,1,80,0,1
43263,-100,4,2,1,60,0,0
77857,-100,4,2,1,80,0,1
112452,-100,4,2,1,60,0,0
147047,-100,4,2,1,80,0,1
181506,-100,4,2,1,80,0,0
181641,-100,4,2,1,80,0,1
198938,-100,4,2,1,50,0,0

[Colours]
Combo1 : 255,157,157
Combo2 : 255,140,255
Combo3 : 255,100,100
Combo4 : 255,81,255

[HitObjects]
59,284,8668,6,0,L|107:287,1,40,4|0,3:2|0:0,0:0:0:0:
142,266,9209,1,8,0:0:0:0:
230,305,9749,2,0,P|270:299|311:310,1,80,2|8,3:2|0:0,0:0:0:0:
401,327,10830,1,2,3:2:0:0:
467,257,11371,1,8,0:0:0:0:
463,161,11911,2,0,P|424:168|394:194,1,80,2|8,3:2|0:0,0:0:0:0:
335,269,12992,6,0,B|255:281|255:281|212:269,1,120,2|0,3:2|0:0,0:0:0:0:
172,252,14074,2,0,L|91:256,1,80,2|8,3:2|0:0,0:0:0:0:
41,174,15155,1,2,3:2:0:0:
93,94,15695,1,8,0:0:0:0:
187,112,16236,2,0,P|222:137|271:140,1,80,2|8,3:2|0:0,0:0:0:0:
332,81,17317,6,0,B|405:65|384:107|452:84,1,120,4|0,3:2|0:0,0:0:0:0:
496,79,18398,2,0,L|492:173,1,80,2|8,3:2|0:0,0:0:0:0:
506,254,19479,1,2,3:2:0:0:
423,303,20020,1,8,0:0:0:0:
343,357,20560,2,0,P|327:322|332:275,1,80,2|8,3:2|0:0,0:0:0:0:
297,190,21641,6,0,L|305:135,1,40,2|0,3:2|0:0,0:0:0:0:
324,107,22182,1,8,0:0:0:0:
255,39,22722,2,0,P|211:32|174:47,1,80,2|8,3:2|0:0,0:0:0:0:
126,124,23803,2,0,L|126:208,2,80,2|8|2,3:2|0:0|3:2,0:0:0:0:
81,39,25425,1,8,0:0:0:0:
178,43,25965,6,0,L|229:39,1,40,4|0,3:2|0:0,0:0:0:0:
255,69,26506,1,8,0:0:0:0:
342,28,27047,2,0,P|383:20|422:30,1,80,2|8,3:2|0:0,0:0:0:0:
448,120,28128,2,0,L|453:207,2,80,2|8|2,3:2|0:0|3:2,0:0:0:0:
510,46,29749,1,8,0:0:0:0:
419,28,30290,6,0,P|374:3|296:24,1,120,2|0,3:2|0:0,0:0:0:0:
269,42,31371,2,0,L|181:37,1,80,2|8,3:2|0:0,0:0:0:0:
94,21,32452,2,0,L|14:27,2,80,2|8|2,3:2|0:0|3:2,0:0:0:0:
124,112,34074,1,8,0:0:0:0:
203,166,34614,6,0,B|263:177|263:177|325:160,1,120,4|0,3:2|0:0,0:0:0:0:
366,149,35695,2,0,L|369:241,1,80,2|8,3:2|0:0,0:0:0:0:
463,246,36776,2,0,L|461:159,1,80,2|8,3:2|0:0,0:0:0:0:
430,74,37857,1,2,3:2:0:0:
335,58,38398,1,8,0:0:0:0:
246,95,38938,6,0,L|191:97,1,40,2|0,3:2|0:0,0:0:0:0:
163,73,39479,1,8,0:0:0:0:
74,35,40020,2,0,P|65:72|75:117,1,80,2|8,3:2|0:0,0:0:0:0:
44,204,41101,2,0,L|38:289,2,80,2|8|2,3:2|0:0|3:2,0:0:0:0:
135,212,42722,1,8,0:0:0:0:
212,268,43263,6,0,P|266:324|343:322,1,160,4|2,3:2|3:2,0:0:0:0:
424,147,45425,2,0,P|370:91|292:93,1,160,2|2,3:2|3:2,0:0:0:0:
196,101,47047,1,8,0:0:0:0:
100,92,47587,6,0,L|104:5,2,80,2|8|2,3:2|0:0|3:2,0:0:0:0:
59,179,49209,1,8,0:0:0:0:
23,269,49749,2,0,P|55:277|111:261,1,80,2|8,3:2|0:0,0:0:0:0:
193,289,50830,2,0,L|273:297,1,80,2|8,3:2|0:0,0:0:0:0:
365,319,51911,6,0,B|340:225|389:248|365:151,1,160,4|2,3:2|3:2,0:0:0:0:
222,35,54074,2,0,B|197:129|246:106|224:192,1,160,2|2,3:2|3:2,0:0:0:0:
179,276,55695,1,8,0:0:0:0:
99,226,56236,6,0,P|59:210|11:226,1,80,2|8,3:2|0:0,0:0:0:0:
14,313,57317,2,0,P|50:328|89:321,1,80,2|8,3:2|0:0,0:0:0:0:
179,277,58398,2,4,B|255:254|256:301|337:278,1,160,2|2,3:2|3:2,0:0:0:0:
413,338,60020,1,8,0:0:0:0:
483,273,60560,6,0,L|475:177,1,80,4|8,3:2|0:0,0:0:0:0:
386,226,61641,1,2,3:2:0:0:
337,143,62181,1,8,0:0:0:0:
372,53,62722,1,2,3:2:0:0:
279,25,63263,2,0,P|242:24|202:42,2,80,8|2|8,0:0|3:2|0:0,0:0:0:0:
372,53,64884,6,0,P|401:125|387:211,1,160,2|2,3:2|3:2,0:0:0:0:
341,287,66506,1,8,0:0:0:0:
245,306,67047,2,0,L|158:298,1,80,2|8,3:2|0:0,0:0:0:0:
70,315,68128,2,0,P|70:277|100:231,1,80,2|8,3:2|0:0,0:0:0:0:
45,155,69209,6,0,P|123:150|178:204,1,160,4|2,3:2|3:2,0:0:0:0:
165,298,70830,1,8,0:0:0:0:
246,349,71371,2,0,P|284:358|323:346,1,80,2|8,3:2|0:0,0:0:0:0:
394,282,72452,1,2,3:2:0:0:
388,186,72992,1,8,0:0:0:0:
432,100,73533,6,0,P|396:86|349:93,1,80,2|8,3:2|0:0,0:0:0:0:
259,81,74614,2,0,L|161:78,1,80,2|8,3:2|0:0,0:0:0:0:
87,106,75695,2,0,B|66:184|66:184|80:273,1,160,2|2,3:2|3:2,0:0:0:0:
83,358,77317,1,8,0:0:0:0:
178,345,77857,6,0,P|223:351|287:301,1,120,4|0,3:2|0:0,0:0:0:0:
314,274,78938,2,0,L|384:317,1,80,2|8,3:2|0:0,0:0:0:0:
478,317,80020,1,2,3:2:0:0:
511,227,80560,1,8,0:0:0:0:
460,144,81101,2,0,P|455:101|469:65,1,80,2|8,3:2|0:0,0:0:0:0:
373,50,82182,6,0,L|316:56,1,40,2|0,3:2|0:0,0:0:0:0:
285,41,82722,1,8,0:0:0:0:
193,71,83263,2,0,B|154:79|154:79|103:68,1,80,2|8,3:2|0:0,0:0:0:0:
38,11,84344,2,0,P|18:43|20:96,1,80,2|8,3:2|0:0,0:0:0:0:
76,158,85425,1,2,3:2:0:0:
24,239,85965,1,8,0:0:0:0:
44,332,86506,6,0,L|99:334,1,40,4|0,3:2|0:0,0:0:0:0:
127,312,87047,1,8,0:0:0:0:
219,338,87587,2,0,P|264:348|305:336,1,80,2|8,3:2|0:0,0:0:0:0:
388,313,88668,2,0,L|485:323,2,80,2|8|2,3:2|0:0|3:2,0:0:0:0:
320,244,90290,1,8,0:0:0:0:
375,165,90830,6,0,P|319:146|259:169,1,120,2|0,3:2|0:0,0:0:0:0:
223,192,91911,2,0,L|139:189,1,80,2|8,3:2|0:0,0:0:0:0:
59,236,92992,2,0,P|44:199|56:148,1,80,2|8,3:2|0:0,0:0:0:0:
39,64,94074,1,2,3:2:0:0:
128,29,94614,1,8,0:0:0:0:
218,61,95155,6,0,B|272:46|272:46|336:54,1,120,4|0,3:2|0:0,0:0:0:0:
381,61,96236,2,0,L|472:55,1,80,2|8,3:2|0:0,0:0:0:0:
503,141,97317,1,2,3:2:0:0:
474,232,97857,2,0,L|476:317,2,80,8|2|8,0:0|3:2|0:0,0:0:0:0:
404,165,99479,6,0,L|406:110,1,40,2|0,3:2|0:0,0:0:0:0:
383,82,100020,1,8,0:0:0:0:
298,127,100560,2,0,P|228:127|208:116,1,80,2|8,3:2|0:0,0:0:0:0:
133,83,101641,2,0,L|43:79,2,80,2|8|2,3:2|0:0|3:2,0:0:0:0:
139,178,103263,1,8,0:0:0:0:
234,191,103803,6,0,B|299:178|290:222|361:203,1,120,4|0,3:2|0:0,0:0:0:0:
396,191,104884,2,0,L|413:283,1,80,2|8,3:2|0:0,0:0:0:0:
396,364,105965,1,2,3:2:0:0:
299,366,106506,1,8,0:0:0:0:
265,276,107047,2,0,L|172:279,1,80,2|8,3:2|0:0,0:0:0:0:
96,317,108128,6,0,L|90:267,1,40,2|0,3:2|0:0,0:0:0:0:
67,235,108668,1,8,0:0:0:0:
23,149,109209,2,0,P|67:137|109:151,1,80,2|8,3:2|0:0,0:0:0:0:
189,179,110290,2,0,L|277:182,2,80,2|8|2,3:2|0:0|3:2,0:0:0:0:
172,84,111911,1,8,0:0:0:0:
254,35,112452,6,0,L|344:41,1,80,4|8,3:2|0:0,0:0:0:0:
328,136,113533,2,0,P|392:152|416:144,1,80,2|0,3:2|0:0,0:0:0:0:
461,72,114614,2,0,P|501:144|477:216,1,160,2|2,3:2|3:2,0:0:0:0:
390,251,116236,1,8,0:0:0:0:
325,321,116776,6,0,P|392:347|468:304,1,160,2|2,3:2|3:2,0:0:0:0:
479,212,118398,1,8,0:0:0:0:
402,153,118938,2,0,L|311:141,1,80,2|8,3:2|0:0,0:0:0:0:
247,82,120020,2,0,P|227:119|232:164,1,80,2|8,3:2|0:0,0:0:0:0:
288,231,121101,5,4,3:2:0:0:
193,247,121641,1,8,0:0:0:0:
174,341,122182,2,0,P|211:343|258:320,1,80,2|8,3:2|0:0,0:0:0:0:
340,358,123263,2,0,L|420:366,1,80,2|8,3:2|0:0,0:0:0:0:
485,295,124344,2,0,P|512:266|517:220,1,80,2|8,3:2|0:0,0:0:0:0:
421,223,125425,5,2,3:2:0:0:
436,128,125965,2,0,L|440:44,2,80,8|2|8,0:0|3:2|0:0,0:0:0:0:
344,99,127587,2,2,B|306:90|280:107|280:107|248:91|248:91|224:110|184:99,1,160,2|2,3:2|3:2,0:0:0:0:
134,25,129209,1,8,0:0:0:0:
52,75,129749,6,0,P|31:113|36:155,1,80,4|8,3:2|0:0,0:0:0:0:
108,208,130830,2,0,L|119:301,1,80,2|8,3:2|0:0,0:0:0:0:
202,332,131911,1,2,3:2:0:0:
283,281,132452,1,8,0:0:0:0:
363,333,132992,2,0,P|379:293|374:247,1,80,2|8,3:2|0:0,0:0:0:0:
341,167,134074,5,2,3:2:0:0:
378,78,134614,2,0,L|386:-10,2,80,8|2|8,0:0|3:2|0:0,0:0:0:0:
439,151,136236,2,2,B|413:229|460:228|435:310,1,160,2|2,3:2|3:2,0:0:0:0:
348,345,137857,1,8,0:0:0:0:
254,321,138398,6,0,P|190:337|166:329,1,80,4|8,3:2|0:0,0:0:0:0:
105,271,139479,2,0,L|113:191,1,80,2|8,3:2|0:0,0:0:0:0:
205,166,140560,2,0,L|197:246,2,80,2|8|2,3:2|0:0|3:2,0:0:0:0:
137,98,142182,1,8,0:0:0:0:
94,11,142722,6,0,P|132:2|171:9,1,80,2|8,3:2|0:0,0:0:0:0:
231,84,143803,2,0,L|319:76,1,80,2|8,3:2|0:0,0:0:0:0:
372,3,144884,2,0,P|406:67|385:137,1,140,2|0,3:2|0:0,0:0:0:0:
211,48,147047,6,0,L|158:52,1,40,4|0,3:2|0:0,0:0:0:0:
123,42,147587,1,8,0:0:0:0:
43,96,148128,2,0,P|38:132|56:177,1,80,2|8,3:2|0:0,0:0:0:0:
50,268,149209,2,0,L|42:353,2,80,2|8|2,3:2|0:0|3:2,0:0:0:0:
134,222,150830,1,8,0:0:0:0:
191,298,151371,6,0,P|234:320|309:297,1,120,2|0,3:2|0:0,0:0:0:0:
340,276,152452,2,0,L|424:280,1,80,2|8,3:2|0:0,0:0:0:0:
402,185,153533,2,0,L|322:181,2,80,2|8|2,3:2|0:0|3:2,0:0:0:0:
492,216,155155,1,8,0:0:0:0:
511,122,155695,6,0,P|506:75|441:71,1,120,4|0,3:2|0:0,0:0:0:0:
403,95,156776,2,0,L|323:91,1,80,2|8,3:2|0:0,0:0:0:0:
234,53,157857,2,0,P|194:38|144:50,1,80,2|8,3:2|0:0,0:0:0:0:
88,109,158938,1,2,3:2:0:0:
67,202,159479,1,8,0:0:0:0:
143,259,160020,6,0,L|141:313,2,40,2|0|8,3:2|0:0|0:0,0:0:0:0:
227,212,161101,2,0,B|265:223|265:223|311:219,1,80,2|8,3:2|0:0,0:0:0:0:
393,175,162182,2,0,L|481:176,2,80,2|8|2,3:2|0:0|3:2,0:0:0:0:
382,270,163803,1,8,0:0:0:0:
442,344,164344,6,0,P|391:366|329:350,1,120,4|0,3:2|0:0,0:0:0:0:
291,322,165425,2,0,L|199:326,1,80,2|8,3:2|0:0,0:0:0:0:
120,358,166506,2,0,L|28:362,2,80,2|8|2,3:2|0:0|3:2,0:0:0:0:
138,263,168128,1,8,0:0:0:0:
70,194,168668,6,0,L|75:139,1,40,2|0,3:2|0:0,0:0:0:0:
62,107,169209,1,8,0:0:0:0:
17,22,169749,2,0,P|54:9|101:22,1,80,2|8,3:2|0:0,0:0:0:0:
188,22,170830,2,0,L|279:18,2,80,2|8|2,3:2|0:0|3:2,0:0:0:0:
136,102,172452,1,8,0:0:0:0:
83,182,172992,6,0,P|140:200|202:170,1,120,4|0,3:2|0:0,0:0:0:0:
234,152,174074,2,0,L|323:158,1,80,2|8,3:2|0:0,0:0:0:0:
401,196,175155,2,0,L|490:202,2,80,2|8|2,3:2|0:0|3:2,0:0:0:0:
392,100,176776,1,8,0:0:0:0:
296,89,177317,6,0,L|242:89,1,40,2|0,3:2|0:0,0:0:0:0:
213,66,177857,1,8,0:0:0:0:
129,113,178398,2,0,P|89:130|41:125,1,80,2|8,3:2|0:0,0:0:0:0:
10,214,179479,2,0,L|5:302,1,80,2|8,3:2|0:0,0:0:0:0:
84,348,180560,1,2,3:2:0:0:
179,341,181101,1,8,0:0:0:0:
197,246,181641,6,0,B|255:228|254:263|315:247,1,120,4|0,3:2|0:0,0:0:0:0:
360,235,182722,2,0,L|370:318,1,80,2|8,3:2|0:0,0:0:0:0:
460,284,183803,2,0,L|450:204,2,80,2|8|2,3:2|0:0|3:2,0:0:0:0:
438,377,185425,1,8,0:0:0:0:
368,310,185965,6,0,P|293:289|211:321,1,160,2|2,3:2|3:2,0:0:0:0:
130,356,187587,1,8,0:0:0:0:
59,290,188128,2,0,L|64:232,1,40,2|0,3:2|0:0,0:0:0:0:
85,208,188668,1,8,0:0:0:0:
27,131,189209,2,0,P|61:112|102:111,1,80,2|8,3:2|0:0,0:0:0:0:
194,134,190290,6,0,B|254:139|254:139|312:99,1,120,4|0,3:2|0:0,0:0:0:0:
336,70,191371,2,0,L|416:86,1,80,2|8,3:2|0:0,0:0:0:0:
503,49,192452,2,0,P|512:90|499:134,1,80,2|8,3:2|0:0,0:0:0:0:
477,218,193533,1,2,3:2:0:0:
489,313,194074,1,8,0:0:0:0:
398,343,194614,6,0,P|321:350|257:290,1,160,2|2,3:2|3:2,0:0:0:0:
252,204,196236,1,8,0:0:0:0:
328,146,196776,2,0,L|421:154,2,80,2|8|2,3:2|0:0|3:2,0:0:0:0:
238,111,198398,1,8,0:0:0:0:
150,150,198938,1,2,3:2:0:0:
