osu file format v14

[General]
AudioFilename: audio.mp3
AudioLeadIn: 0
PreviewTime: 18000
Countdown: 0
SampleSet: Soft
StackLeniency: 0.7
Mode: 0
LetterboxInBreaks: 0
WidescreenStoryboard: 0

[Editor]
Bookmarks: 16302,36679,54793,63849,81962,100076,106868,127246,145359
DistanceSpacing: 1.8
BeatDivisor: 4
GridSize: 32
TimelineZoom: 2

[Metadata]
Title:Like That (feat. Gucci Mane)
TitleUnicode:Like That (feat. Gucci Mane)
Artist:Doja Cat
ArtistUnicode:Doja Cat
Creator:AJT
Version:wafer's kiss.
Source:
Tags:english hip hop hip-hop pop rap trap r&b goopert wafer aistre alphabet venax lugu
BeatmapID:2676742
BeatmapSetID:1289442

[Difficulty]
HPDrainRate:5
CircleSize:4
OverallDifficulty:8.2
ApproachRate:9
SliderMultiplier:2.6
SliderTickRate:1

[Events]
//Background and Video events
0,0,"catdoja.jpg",0,0
//Break Periods
2,54998,60990
2,82167,85047
2,100281,106273
//Storyboard Layer 0 (Background)
//Storyboard Layer 1 (Fail)
//Storyboard Layer 2 (Pass)
//Storyboard Layer 3 (Foreground)
//Storyboard Layer 4 (Overlay)
//Storyboard Sound Samples

[TimingPoints]
7251,566.037735849057,5,2,1,60,1,0
18571,-50,5,2,1,70,0,1
36118,-76.9230769230769,5,2,1,60,0,1
36684,-100,5,2,1,60,0,0
38383,-66.6666666666667,5,2,1,60,0,0
39515,-100,5,2,1,60,0,0
40081,-66.6666666666667,5,2,1,60,0,0
40930,-133.333333333333,5,2,1,60,0,0
41213,-100,5,2,1,60,0,0
42911,-66.6666666666667,5,2,1,60,0,0
44326,-100,5,2,1,60,0,0
44609,-66.6666666666667,5,2,1,60,0,0
45741,-100,5,2,1,60,0,0
48005,-66.6666666666667,5,2,1,60,0,0
48571,-60.6060606060606,5,2,1,60,0,0
50269,-66.6666666666667,5,2,1,60,0,0
50835,-100,5,2,1,60,0,0
52534,-66.6666666666667,5,2,1,60,0,0
54232,-45.4545454545455,5,2,1,60,0,0
61590,-100,5,2,1,60,0,0
63854,-50,5,2,1,70,0,1
81401,-76.9230769230769,5,2,1,60,0,1
81967,-76.9230769230769,5,2,1,60,0,0
82534,-76.9230769230769,5,2,2,60,0,0
86496,-57.1428571428571,5,2,1,60,0,0
87628,-133.333333333333,5,2,1,60,0,0
88194,-100,5,2,1,60,0,0
100081,-100,5,2,1,40,0,0
106873,-83.3333333333333,5,2,1,60,0,0
108854,-100,5,2,1,60,0,0
109137,-50,5,2,1,70,0,1
127251,-100,5,2,1,40,0,0
127675,-100,5,2,2,40,0,0
128949,-142.857142857143,5,2,2,40,0,0
143949,-100,5,2,1,40,0,0
144798,-100,5,2,2,40,0,0
145081,-100,5,2,1,40,0,0
145364,-50,5,2,1,40,0,0
145647,-50,5,2,1,40,0,0

[Colours]
Combo1 : 211,169,235
Combo2 : 108,182,255
Combo3 : 255,157,206
Combo4 : 104,204,242

[HitObjects]
234,73,16307,6,0,B|242:63|245:41|245:41|244:63|250:74,1,65,6|0,0:0|0:0,0:0:0:0:
309,120,16590,6,0,B|320:124|342:121|342:121|321:127|312:135,1,65,2|0,0:0|0:0,0:0:0:0:
295,222,16873,6,0,B|292:234|299:255|299:255|290:235|280:227,1,65,2|0,0:0|0:0,0:0:0:0:
178,222,17156,6,0,B|165:220|144:228|144:228|164:218|170:207,1,65,2|0,0:0|0:0,0:0:0:0:
150,94,17439,6,0,B|147:81|133:64|133:64|149:79|161:82,1,65,2|0,0:0|0:0,0:0:0:0:
230,290,17722,6,0,B|220:298|212:319|212:319|218:297|214:285,1,65,2|0,0:0|0:0,0:0:0:0:
364,85,18005,6,0,B|366:72|380:55|380:55|364:70|352:73,1,65,2|0,0:0|0:0,0:0:0:0:
237,163,18288,6,0,L|345:154,1,97.5,2|0,0:0|0:0,0:0:0:0:
486,214,18571,6,0,B|430:174|320:228|395:347|287:362|172:300,1,260,6|0,1:2|0:0,0:0:0:0:
116,207,18996,2,0,B|139:240|134:269|134:269|139:240|173:217,1,130,2|8,1:2|0:0,0:0:0:0:
170,219,19420,2,0,P|148:367|146:380,1,130,2|0,1:2|0:0,0:0:0:0:
55,258,19703,6,0,B|41:117|190:177|172:33,1,260,2|0,0:0|0:0,0:0:0:0:
0,1,20269,5,10,0:0:0:0:
49,60,20411,1,2,0:0:0:0:
98,119,20552,1,6,0:3:0:0:
98,119,20835,6,0,B|134:88|199:95|211:167|207:158|218:212|258:238|336:191,1,260,2|2,1:2|0:0,0:0:0:0:
403,51,21260,2,0,P|365:79|412:71,1,130,2|8,1:2|0:0,0:0:0:0:
412,71,21684,6,0,P|432:221|433:233,1,130,2|0,1:2|0:0,0:0:0:0:
512,266,21967,2,0,B|487:225|421:207|379:260|411:287|349:371|258:296,1,260,2|2,0:0|0:3,0:0:0:0:
163,184,22392,1,2,0:3:0:0:
175,172,22533,5,8,0:0:0:0:
244,204,22675,1,2,0:0:0:0:
314,236,22816,1,2,0:3:0:0:
314,236,23099,6,0,B|278:267|213:260|201:188|205:197|194:143|154:117|76:164,1,260,2|2,1:2|0:0,0:0:0:0:
21,283,23524,2,0,B|49:303|69:354|69:354|55:324|75:277,1,130,0|8,1:0|0:0,0:0:0:0:
65,312,23949,6,0,P|29:162|22:138,1,130,2|0,1:2|0:0,0:0:0:0:
160,276,24232,2,0,P|184:134|208:7,1,260,2|2,0:0|0:3,0:0:0:0:
98,119,24798,5,8,0:0:0:0:
256,208,25081,1,6,0:3:0:0:
98,119,25364,6,0,B|179:65|222:150|214:143|268:220|359:148,1,260,2|0,1:2|0:0,0:0:0:0:
450,50,25788,2,0,B|413:32|403:5|403:5|413:32|395:69,1,130,2|10,1:2|0:0,0:0:0:0:
444,240,26212,6,0,B|480:257|490:284|490:284|480:257|498:220,1,130,2|0,1:2|0:0,0:0:0:0:
449,126,26496,6,0,P|435:276|424:395,1,260,2|2,1:2|0:3,0:0:0:0:
506,359,26920,1,2,0:3:0:0:
361,252,27062,6,0,P|198:286|172:291,1,130,10|2,0:0|0:0,0:0:0:0:
163,337,27345,2,0,P|99:323|35:310,1,130,2|0,0:0|0:0,0:0:0:0:
251,365,27628,6,0,P|221:145|207:61,1,260,6|0,1:2|0:0,0:0:0:0:
78,5,28052,2,0,B|101:38|96:67|96:67|101:38|135:15,1,130,2|8,1:2|0:0,0:0:0:0:
132,17,28476,2,0,P|110:165|108:178,1,130,2|0,1:2|0:0,0:0:0:0:
262,196,28760,6,0,B|339:224|411:184|397:74|353:60|297:77|267:104|312:189,1,260,2|0,0:0|0:0,0:0:0:0:
112,145,29325,5,10,0:0:0:0:
161,204,29467,1,2,0:0:0:0:
210,263,29608,1,6,0:3:0:0:
210,263,29891,6,0,B|246:232|311:239|323:311|319:302|330:356|378:384|448:335,1,260,2|2,1:2|0:0,0:0:0:0:
494,195,30317,2,0,P|428:248|387:286,1,130,2|8,1:2|0:0,0:0:0:0:
395,279,30741,6,0,P|363:231|372:149,1,130,2|0,1:2|0:0,0:0:0:0:
474,65,31024,2,0,P|367:135|227:94,1,260,2|2,0:0|0:3,0:0:0:0:
124,40,31449,1,2,0:3:0:0:
112,52,31590,5,8,0:0:0:0:
144,121,31732,1,2,0:0:0:0:
176,191,31873,1,2,0:3:0:0:
176,191,32156,6,0,B|151:236|80:278|-13:255|-12:161|61:128|96:147|98:206,1,260,2|2,1:2|0:0,0:0:0:0:
256,209,32581,2,0,P|304:243|277:304,1,130,0|8,1:0|0:0,0:0:0:0:
282,301,33005,6,0,P|372:307|435:333,1,130,2|0,1:2|0:0,0:0:0:0:
320,138,33288,2,0,B|280:187|172:210|204:100|112:104|6:237,1,260,2|2,0:0|0:3,0:0:0:0:
250,68,33854,5,8,0:0:0:0:
206,249,34137,1,6,0:3:0:0:
224,171,34279,1,2,0:0:0:0:
250,68,34420,6,0,B|196:149|281:192|274:184|351:238|279:329,1,260,2|0,1:2|0:0,0:0:0:0:
393,382,34844,2,0,B|411:345|438:335|438:335|411:345|374:327,1,130,2|10,1:2|0:0,0:0:0:0:
208,279,35269,6,0,B|191:315|164:325|164:325|191:315|228:333,1,130,2|0,1:2|0:0,0:0:0:0:
306,384,35552,6,0,P|334:208|352:96,1,260,2|2,1:2|0:3,0:0:0:0:
457,37,35977,1,2,0:3:0:0:
364,114,36118,6,0,L|164:92,1,168.999992263794,10|2,0:0|0:0,0:0:0:0:
92,85,36543,1,0,0:0:0:0:
184,178,36684,5,6,1:2:0:0:
81,109,36826,2,0,L|101:207,1,65,2|0,0:2|0:0,0:0:0:0:
96,268,37109,5,2,1:2:0:0:
199,199,37251,2,0,L|179:297,1,65,10|0,0:0|0:0,0:0:0:0:
65,348,37534,5,2,1:2:0:0:
174,300,37675,1,2,0:0:0:0:
44,366,37817,6,0,P|23:330|26:307,1,65,2|0,0:0|0:0,0:0:0:0:
174,300,38100,2,0,P|174:331|155:357,1,65,2|0,0:0|0:0,0:0:0:0:
15,233,38383,6,0,B|105:253|92:167|202:199,2,195.00000743866,8|4|0,0:0|0:3|1:0,0:0:0:0:
194,106,39232,1,0,0:0:0:0:
214,180,39373,5,0,1:0:0:0:
259,113,39515,2,0,L|169:104,1,65,10|2,0:0|0:0,0:0:0:0:
298,183,39798,5,2,1:2:0:0:
291,198,39939,1,2,0:0:0:0:
367,291,40081,6,0,L|343:83,2,195.00000743866,2|2|8,0:0|0:0|0:0,0:0:0:0:
475,359,40930,2,0,P|483:337|480:310,1,48.750001859665,2|0,0:3|0:0,0:0:0:0:
305,319,41213,5,6,1:2:0:0:
441,240,41354,1,2,0:0:0:0:
441,240,41637,5,2,1:2:0:0:
385,184,41778,1,10,0:0:0:0:
441,118,41920,1,2,0:0:0:0:
283,97,42062,5,2,0:0:0:0:
283,97,42203,1,2,0:0:0:0:
423,61,42345,6,0,P|444:97|441:120,1,65,2|0,0:0|0:0,0:0:0:0:
283,97,42628,2,0,P|283:66|302:40,1,65,2|0,0:0|0:0,0:0:0:0:
362,159,42911,6,0,P|255:137|117:110,2,195.00000743866,10|4|0,0:0|0:3|1:0,0:0:0:0:
138,116,43760,5,2,0:0:0:0:
167,192,43901,1,2,0:0:0:0:
87,267,44043,6,0,P|69:202|89:172,1,97.50000371933,10|2,0:0|0:0,0:0:0:0:
249,206,44326,2,0,P|247:238|229:265,1,65,2|0,1:2|0:0,0:0:0:0:
75,285,44609,6,0,B|103:263|149:268|158:318|155:312|162:350|201:366|254:342,1,195.00000743866,2|2,1:2|0:0,0:0:0:0:
326,276,45034,1,2,0:0:0:0:
314,381,45175,6,0,P|292:239|279:158,1,195.00000743866,8|2,0:2|0:3,0:0:0:0:
247,110,45600,1,2,0:0:0:0:
288,44,45741,6,0,P|317:71|322:103,1,65,2|2,1:2|0:0,0:0:0:0:
390,152,46024,1,0,0:0:0:0:
464,111,46166,1,0,1:0:0:0:
370,172,46307,6,0,P|390:255|396:288,1,65,10|2,0:0|0:0,0:0:0:0:
495,326,46590,1,2,1:2:0:0:
495,326,46873,6,0,B|422:307|445:367|367:362,1,130,2|2,0:0|0:0,0:0:0:0:
288,313,47298,1,2,0:0:0:0:
238,370,47439,6,0,P|240:302|243:228,1,130,10|6,0:0|0:3,0:0:0:0:
198,175,47864,1,2,0:0:0:0:
92,217,48005,6,0,B|187:215|131:102|269:112,1,195.00000743866,2|2,1:2|0:0,0:0:0:0:
294,172,48430,1,0,1:0:0:0:
177,52,48571,6,0,B|175:147|62:91|72:229,1,214.500002045631,10|2,0:0|1:2,0:0:0:0:
96,245,48996,1,0,0:0:0:0:
240,329,49137,6,0,P|116:308|4:290,1,214.500002045631,2|2,0:0|0:0,0:0:0:0:
94,347,49562,1,2,0:0:0:0:
194,241,49703,2,0,P|293:224|382:209,1,107.250001022816,10|0,0:0|0:0,0:0:0:0:
421,199,49986,1,2,0:0:0:0:
421,199,50128,1,2,0:0:0:0:
344,308,50269,6,0,P|311:115|302:66,1,195.00000743866,6|2,1:2|0:0,0:0:0:0:
365,50,50694,1,2,1:2:0:0:
230,128,50835,6,0,P|202:70|231:12,1,130,10|2,0:0|1:2,0:0:0:0:
255,17,51260,1,2,0:0:0:0:
160,97,51401,6,0,B|84:89|103:142|33:143,1,130,2|2,0:0|0:0,0:0:0:0:
12,123,51826,1,2,0:0:0:0:
102,202,51967,6,0,P|109:274|114:337,1,130,8|4,0:0|0:3,0:0:0:0:
113,331,52534,6,0,B|134:278|83:290|102:202,1,97.50000371933,2|0,1:2|0:0,0:0:0:0:
230,128,52817,2,0,P|225:176|221:225,1,97.50000371933,2|0,0:0|1:0,0:0:0:0:
332,339,53100,5,10,0:0:0:0:
396,304,53241,1,2,0:0:0:0:
461,349,53383,2,0,P|467:311|478:252,1,97.50000371933,2|0,0:0|0:0,0:0:0:0:
285,66,53666,6,0,P|396:126|473:86,1,195.00000743866,2|2,1:2|0:0,0:0:0:0:
381,39,54090,1,2,0:0:0:0:
256,160,54232,6,0,B|215:199|114:188|158:178|145:112|98:89|28:94|-28:121|-61:180|-53:253|-19:308|113:301|123:129|123:318|154:65|235:111,1,572.000017456055,10|0,0:0|0:0,0:0:0:0:
234,73,61590,6,0,B|224:62|216:21|252:29|239:52,1,65,6|0,0:0|0:0,0:0:0:0:
309,120,61873,6,0,B|314:107|348:82|356:118|330:116,1,65,2|0,0:0|0:0,0:0:0:0:
295,222,62156,6,0,B|308:224|341:250|308:267|303:241,1,65,2|0,0:0|0:0,0:0:0:0:
178,222,62439,6,0,B|174:235|145:266|131:231|157:229,1,65,2|0,0:0|0:0,0:0:0:0:
150,93,62722,6,0,B|136:89|108:57|144:46|144:73,1,65,2|0,0:0|0:0,0:0:0:0:
238,288,63005,6,0,B|240:301|227:341|199:316|222:302,1,65,2|0,0:0|0:0,0:0:0:0:
340,97,63288,6,0,B|350:87|391:79|383:115|360:102,1,65,2|0,0:0|0:0,0:0:0:0:
224,171,63572,6,0,L|116:162,1,97.5,2|0,0:0|0:0,0:0:0:0:
36,168,63854,6,0,B|79:201|187:152|112:33|220:18|346:108,1,260,6|0,1:2|0:0,0:0:0:0:
404,126,64279,2,0,B|370:131|330:145|306:105|329:68|367:109,1,130,2|8,1:2|0:0,0:0:0:0:
359,102,64703,2,0,P|381:250|383:263,1,130,2|0,1:2|0:0,0:0:0:0:
488,172,64986,6,0,B|465:311|336:215|316:359,1,260,2|0,0:0|0:0,0:0:0:0:
476,348,65552,5,10,0:0:0:0:
427,289,65694,1,2,0:0:0:0:
378,230,65835,1,6,0:3:0:0:
378,230,66118,6,0,B|342:261|277:254|265:182|269:191|258:137|218:111|140:158,1,260,2|2,1:2|0:0,0:0:0:0:
96,288,66543,2,0,B|112:316|103:351|103:351|112:316|141:300,1,130,2|8,1:2|0:0,0:0:0:0:
141,300,66967,6,0,P|-9:280|-21:279,1,130,2|0,1:2|0:0,0:0:0:0:
191,219,67251,2,0,B|291:162|253:25|148:23|119:122|174:160,1,260,2|2,0:0|0:3,0:0:0:0:
319,191,67675,1,2,0:3:0:0:
331,203,67816,5,8,0:0:0:0:
400,171,67958,1,2,0:0:0:0:
470,139,68099,1,2,0:3:0:0:
470,139,68383,6,0,B|474:221|406:260|348:183|295:289|335:378,1,260,2|2,1:2|0:0,0:0:0:0:
499,348,68807,1,0,1:0:0:0:
402,312,68949,1,8,0:0:0:0:
402,312,69232,6,0,L|207:291,1,130,2|0,1:2|0:0,0:0:0:0:
62,211,69515,2,0,L|320:183,1,260,2|2,0:0|0:3,0:0:0:0:
102,287,70081,5,8,0:0:0:0:
206,118,70364,1,6,0:3:0:0:
87,135,70647,6,0,B|168:81|211:166|203:159|257:236|348:164,1,260,2|0,1:2|0:0,0:0:0:0:
428,89,71071,2,0,B|454:66|465:22|433:-11|391:1|391:37|421:48,1,130,2|10,1:2|0:0,0:0:0:0:
415,240,71496,6,0,B|388:262|377:306|409:340|451:327|451:291|421:280,1,130,2|0,1:2|0:0,0:0:0:0:
463,179,71779,6,0,B|382:125|339:210|347:203|293:280|202:208,1,260,2|2,1:2|0:3,0:0:0:0:
136,176,72204,1,2,0:3:0:0:
245,29,72345,6,0,P|279:192|284:218,1,130,10|2,0:0|0:0,0:0:0:0:
412,240,72628,2,0,P|398:304|385:368,1,130,2|0,0:0|0:0,0:0:0:0:
483,190,72911,6,0,P|263:220|179:234,1,260,6|0,1:2|0:0,0:0:0:0:
80,170,73335,2,0,B|93:132|81:105|81:105|93:132|132:145,1,130,2|8,1:2|0:0,0:0:0:0:
129,144,73759,2,0,P|107:292|105:305,1,130,2|0,1:2|0:0,0:0:0:0:
7,321,74042,6,0,B|128:393|137:232|260:310,1,260,2|0,0:0|0:0,0:0:0:0:
407,359,74608,5,10,0:0:0:0:
387,284,74750,1,2,0:0:0:0:
368,210,74891,1,6,0:3:0:0:
368,210,75174,6,0,B|322:222|266:189|285:118|285:128|298:74|273:34|183:52,1,260,2|2,1:2|0:0,0:0:0:0:
55,113,75600,2,0,P|108:102|127:29,1,130,2|8,1:2|0:0,0:0:0:0:
129,35,76024,6,0,P|149:185|150:197,1,130,2|0,1:2|0:0,0:0:0:0:
49,295,76307,6,0,B|132:326|204:286|190:176|146:162|90:179|66:231|114:293,1,260,2|2,0:0|0:3,0:0:0:0:
197,348,76731,1,2,0:3:0:0:
209,360,76872,5,8,0:0:0:0:
278,328,77014,1,2,0:0:0:0:
348,296,77155,1,2,0:3:0:0:
348,296,77438,6,0,B|317:260|324:195|396:183|387:187|441:176|467:136|420:58,1,260,2|2,1:2|0:0,0:0:0:0:
311,45,77864,2,0,B|314:69|341:102|341:102|311:73|288:67,1,130,0|8,1:0|0:0,0:0:0:0:
288,68,78288,6,0,L|119:60,1,130,2|0,1:2|0:0,0:0:0:0:
38,146,78571,2,0,L|297:158,1,260,2|2,0:0|0:3,0:0:0:0:
103,240,79137,5,8,0:0:0:0:
158,61,79420,1,6,0:3:0:0:
130,151,79562,1,2,0:0:0:0:
103,240,79703,6,0,P|234:232|339:318,1,260,2|0,1:2|0:0,0:0:0:0:
430,198,80128,2,0,B|463:188|491:152|476:109|433:102|418:135|440:157,1,130,2|10,1:2|0:0,0:0:0:0:
467,313,80553,6,0,B|433:321|404:356|419:401|462:407|478:374|455:351,1,130,2|0,1:2|0:0,0:0:0:0:
392,265,80836,6,0,B|311:211|268:296|276:289|222:366|131:294,1,260,2|2,1:2|0:3,0:0:0:0:
89,262,81261,1,2,0:3:0:0:
212,158,81401,6,0,L|202:263,1,84.4999961318971,10|2,0:0|0:0,0:0:0:0:
351,331,81684,1,2,0:0:0:0:
351,331,81826,1,0,0:0:0:0:
287,213,81967,5,2,0:0:0:0:
67,77,85647,6,0,L|61:38,6,28.1666653772991,2|2|2|2|2|2|12,0:0|0:0|0:0|0:0|0:0|0:0|0:0,0:0:0:0:
67,77,86496,6,0,B|211:24|148:167|259:181|313:132|305:58|286:40|230:9|205:71,1,341.250003254414,6|2,1:2|1:2,0:0:0:0:
110,153,87062,1,10,0:0:0:0:
256,288,87345,5,2,1:2:0:0:
210,216,87628,2,0,P|202:315|197:375,1,146.250005578995,2|2,0:3|0:0,0:0:0:0:
300,241,88194,6,0,P|297:208|294:176,1,65,10|2,0:0|0:0,0:0:0:0:
210,216,88477,2,0,P|207:248|204:280,1,65,4|0,0:3|0:0,0:0:0:0:
313,333,88760,5,2,1:2:0:0:
391,302,88901,1,2,0:0:0:0:
469,271,89043,1,2,0:0:0:0:
466,287,89184,1,2,1:2:0:0:
315,241,89326,6,0,P|312:208|309:176,1,65,10|0,0:0|0:0,0:0:0:0:
220,132,89609,2,0,P|222:99|225:67,1,65,2|0,1:2|0:0,0:0:0:0:
210,216,89892,6,0,P|202:315|197:375,1,130,2|2,1:2|0:0,0:0:0:0:
193,357,90317,1,2,0:0:0:0:
66,314,90458,5,10,1:2:0:0:
210,216,90741,1,2,0:0:0:0:
66,314,91024,6,0,P|54:292|59:241,1,65,6|2,1:2|0:0,0:0:0:0:
108,187,91307,1,2,0:0:0:0:
150,118,91449,1,2,1:2:0:0:
65,55,91590,6,0,L|76:150,1,65,10|0,0:0|0:0,0:0:0:0:
210,216,91873,2,0,L|217:151,1,65,2|0,1:2|0:0,0:0:0:0:
136,24,92156,6,0,P|178:70|270:34,1,130,2|2,0:0|0:0,0:0:0:0:
241,65,92722,5,10,0:0:0:0:
325,47,92864,1,2,0:0:0:0:
393,103,93006,2,0,P|394:135|380:164,1,65,6|0,0:3|0:0,0:0:0:0:
326,281,93288,5,2,1:2:0:0:
404,250,93429,1,2,0:0:0:0:
482,219,93571,1,2,0:0:0:0:
479,235,93712,1,2,1:2:0:0:
409,314,93854,6,0,P|406:281|403:249,1,65,10|0,0:0|0:0,0:0:0:0:
326,281,94137,2,0,P|323:313|320:345,1,65,2|0,1:2|0:0,0:0:0:0:
227,185,94420,6,0,P|235:284|240:344,1,130,2|2,0:0|0:0,0:0:0:0:
237,314,94845,1,0,0:0:0:0:
162,362,94986,6,0,P|147:335|160:289,1,65,10|2,0:0|0:0,0:0:0:0:
125,224,95269,2,0,P|140:197|127:151,1,65,2|2,0:0|0:0,0:0:0:0:
0,101,95552,6,0,L|149:81,1,130,6|2,1:2|0:0,0:0:0:0:
236,66,95977,1,0,1:0:0:0:
176,18,96118,1,10,0:0:0:0:
174,27,96260,1,2,0:0:0:0:
223,143,96401,2,0,L|312:131,1,65,2|0,0:0|0:0,0:0:0:0:
378,70,96684,2,0,P|361:171|352:228,1,130,2|2,0:0|0:0,0:0:0:0:
485,243,97251,6,0,P|471:214|434:190,1,65,10|2,0:0|0:0,0:0:0:0:
356,198,97534,1,6,0:3:0:0:
313,276,97675,1,2,0:0:0:0:
357,355,97817,6,0,P|386:341|410:304,1,65,2|2,1:2|0:0,0:0:0:0:
313,276,98100,1,2,0:0:0:0:
238,294,98241,1,2,1:2:0:0:
177,356,98383,6,0,P|165:325|154:295,1,65,10|0,0:0|0:0,0:0:0:0:
280,156,98666,2,0,P|268:186|257:216,1,65,2|0,1:2|0:0,0:0:0:0:
73,99,98949,6,0,P|95:159|118:220,1,130,2|2,1:2|0:0,0:0:0:0:
113,239,99373,1,0,0:0:0:0:
161,115,99515,5,8,0:0:0:0:
230,73,99656,1,2,0:0:0:0:
310,99,99798,1,2,0:0:0:0:
377,65,99939,1,2,0:0:0:0:
310,99,100081,5,2,0:0:0:0:
315,53,106873,6,0,B|306:42|306:42|302:17|302:17|303:42|303:42|296:54,1,77.999997619629,6|0,0:0|0:0,0:0:0:0:
230,106,107156,6,0,B|217:111|217:111|191:107|191:107|216:114|216:114|226:123,1,77.999997619629,2|0,0:0|0:0,0:0:0:0:
246,221,107439,6,0,B|250:235|250:235|242:259|242:259|252:236|252:236|263:227,1,77.999997619629,2|0,0:0|0:0,0:0:0:0:
379,221,107722,6,0,B|394:219|394:219|417:228|417:228|395:217|395:217|388:204,1,77.999997619629,2|0,0:0|0:0,0:0:0:0:
410,76,108005,6,0,B|414:62|414:62|430:42|430:42|412:59|412:59|398:63,1,77.999997619629,2|0,0:0|0:0,0:0:0:0:
320,298,108288,6,0,B|331:308|331:308|340:331|340:331|333:306|333:306|338:293,1,77.999997619629,2|0,0:0|0:0,0:0:0:0:
168,66,108571,6,0,B|166:51|166:51|150:32|150:32|168:49|168:49|181:53,1,77.999997619629,2|0,0:0|0:0,0:0:0:0:
312,155,108854,6,0,L|185:146,1,97.5,2|0,0:0|0:0,0:0:0:0:
26,214,109137,6,0,B|82:174|192:228|117:347|225:362|340:300,1,260,6|0,1:2|0:0,0:0:0:0:
396,207,109562,2,0,B|373:240|378:269|378:269|373:240|339:217,1,130,2|8,1:2|0:0,0:0:0:0:
342,219,109986,2,0,P|364:367|366:380,1,130,2|0,1:2|0:0,0:0:0:0:
474,236,110269,6,0,B|488:95|339:155|357:11,1,260,2|0,0:0|0:0,0:0:0:0:
512,0,110835,5,10,0:0:0:0:
463,60,110977,1,2,0:0:0:0:
414,119,111118,1,6,0:3:0:0:
414,119,111401,6,0,B|378:88|313:95|301:167|305:158|294:212|254:238|176:191,1,260,2|2,1:2|0:0,0:0:0:0:
132,61,111826,2,0,B|149:33|142:-1|142:-1|149:33|177:51,1,130,2|8,1:2|0:0,0:0:0:0:
177,51,112250,6,0,P|27:76|15:77,1,130,2|0,1:2|0:0,0:0:0:0:
226,125,112534,2,0,B|326:182|288:319|183:321|154:222|209:184,1,260,2|2,0:0|0:3,0:0:0:0:
355,158,112958,1,2,0:3:0:0:
367,146,113099,5,8,0:0:0:0:
436,178,113241,1,2,0:0:0:0:
506,210,113382,1,2,0:3:0:0:
506,210,113666,6,0,B|470:179|405:186|393:258|397:249|386:303|346:329|268:282,1,260,2|2,1:2|0:0,0:0:0:0:
220,129,114091,2,0,B|242:121|259:75|259:75|244:109|259:138,1,130,0|8,1:0|0:0,0:0:0:0:
257,134,114516,6,0,P|107:98|83:91,1,130,2|0,1:2|0:0,0:0:0:0:
317,223,114799,2,0,P|175:247|48:271,1,260,2|2,0:0|0:3,0:0:0:0:
257,134,115364,5,8,0:0:0:0:
215,352,115647,1,6,0:3:0:0:
257,134,115930,6,0,B|338:188|381:103|373:110|427:33|518:105,1,260,2|0,1:2|0:0,0:0:0:0:
512,306,116354,2,0,B|538:329|549:373|517:406|475:394|475:358|505:347,1,130,2|10,1:2|0:0,0:0:0:0:
442,231,116779,6,0,B|415:209|404:165|436:131|478:144|478:180|448:191,1,130,2|0,1:2|0:0,0:0:0:0:
345,317,117062,6,0,B|264:371|221:286|229:293|175:216|84:288,1,260,2|2,1:2|0:3,0:0:0:0:
52,333,117487,1,2,0:3:0:0:
274,382,117628,6,0,P|308:219|313:193,1,130,10|2,0:0|0:0,0:0:0:0:
151,157,117911,2,0,P|137:93|124:29,1,130,2|0,0:0|0:0,0:0:0:0:
43,218,118194,6,0,P|263:248|347:262,1,260,6|0,1:2|0:0,0:0:0:0:
488,369,118618,2,0,B|465:336|470:307|470:307|465:336|431:359,1,130,2|8,1:2|0:0,0:0:0:0:
434,357,119042,2,0,P|456:209|458:196,1,130,2|0,1:2|0:0,0:0:0:0:
336,169,119326,6,0,B|259:141|187:181|201:291|245:305|301:288|331:261|286:176,1,260,2|0,0:0|0:0,0:0:0:0:
448,64,119892,5,10,0:0:0:0:
370,72,120034,1,2,0:0:0:0:
294,79,120175,1,6,0:3:0:0:
294,79,120458,6,0,B|298:126|257:176|190:146|200:148|148:126|105:145|109:237,1,260,2|2,1:2|0:0,0:0:0:0:
149,373,120884,2,0,P|146:318|77:288,1,130,2|8,1:2|0:0,0:0:0:0:
85,287,121307,6,0,P|236:290|248:291,1,130,2|0,1:2|0:0,0:0:0:0:
358,313,121591,6,0,B|401:235|373:158|262:155|241:196|249:254|297:286|366:248,1,260,2|2,0:0|0:3,0:0:0:0:
467,280,122015,1,2,0:3:0:0:
479,268,122156,5,8,0:0:0:0:
447,199,122298,1,2,0:0:0:0:
415,129,122439,1,2,0:3:0:0:
415,129,122722,6,0,B|460:104|502:33|479:-60|385:-59|352:14|371:49|430:51,1,260,2|2,1:2|0:0,0:0:0:0:
319,139,123147,2,0,P|271:105|298:44,1,130,0|8,1:0|0:0,0:0:0:0:
293,47,123571,6,0,P|203:41|140:15,1,130,2|0,1:2|0:0,0:0:0:0:
81,159,123854,2,0,B|121:110|229:87|197:197|286:207|395:60,1,260,2|2,0:0|0:3,0:0:0:0:
96,39,124420,5,8,0:0:0:0:
151,218,124703,1,6,0:3:0:0:
130,126,124845,1,2,0:0:0:0:
96,39,124986,6,0,P|227:31|332:117,1,260,2|0,1:2|0:0,0:0:0:0:
437,39,125411,2,0,B|455:76|482:86|482:86|455:76|418:94,1,130,2|10,1:2|0:0,0:0:0:0:
209,170,125835,6,0,B|192:134|165:124|165:124|192:134|229:116,1,130,2|0,1:2|0:0,0:0:0:0:
407,177,126119,6,0,P|231:205|119:223,1,260,2|2,1:2|0:3,0:0:0:0:
86,315,126544,1,2,0:3:0:0:
76,23,126684,6,0,B|31:126|90:239|214:166|276:330|182:448|124:442,1,390,10|0,0:0|0:0,0:0:0:0:
189,375,127251,6,0,P|206:187|220:72,1,260,2|10,0:0|0:0,0:0:0:0:
283,52,128100,1,2,0:0:0:0:
283,52,128949,1,10,0:0:0:0:
298,130,129515,6,0,P|352:104|499:62,1,181.999994445801,2|10,0:0|0:0,0:0:0:0:
512,135,130364,1,2,0:0:0:0:
512,135,131213,1,10,0:0:0:0:
415,169,131779,6,0,B|421:263|517:223|511:320,1,181.999994445801,2|10,0:0|0:0,0:0:0:0:
444,369,132628,1,2,0:0:0:0:
444,369,133476,1,10,0:0:0:0:
376,301,134043,6,0,P|299:295|174:271,1,181.999994445801,2|10,0:0|0:0,0:0:0:0:
120,324,134892,1,2,0:0:0:0:
120,324,135741,1,10,0:0:0:0:
195,276,136307,6,0,P|205:163|213:94,1,181.999994445801,2|10,0:0|0:0,0:0:0:0:
283,52,137156,1,2,0:0:0:0:
283,52,138005,1,10,0:0:0:0:
214,95,138571,6,0,P|152:96|104:-4,1,181.999994445801,2|10,0:0|0:0,0:0:0:0:
183,20,139420,1,2,0:0:0:0:
214,95,139703,6,0,B|119:73|144:180|26:160,1,181.999994445801,0|10,0:0|0:0,0:0:0:0:
54,162,140835,6,0,B|149:140|124:247|242:227,1,181.999994445801,2|10,0:0|0:0,0:0:0:0:
289,209,141684,1,2,0:0:0:0:
289,209,142534,1,10,0:0:0:0:
368,143,142817,1,2,0:0:0:0:
378,108,142958,1,2,0:0:0:0:
357,58,143100,6,0,P|280:64|169:80,1,181.999994445801,6|10,0:0|0:0,0:0:0:0:
107,257,143949,6,0,B|115:267|118:289|118:289|117:267|123:256,1,65,2|0,0:0|0:0,0:0:0:0:
182,210,144232,6,0,B|193:206|215:209|215:209|194:203|185:195,1,65,2|0,0:0|0:0,0:0:0:0:
168,108,144515,6,0,B|165:96|172:75|172:75|163:95|153:103,1,65,2|0,0:0|0:0,0:0:0:0:
51,108,144798,6,0,B|38:110|17:102|17:102|37:112|43:123,1,65,10|0,0:0|0:0,0:0:0:0:
23,236,145081,6,0,B|20:249|6:266|6:266|22:251|34:248,1,65,2|0,0:0|0:0,0:0:0:0:
103,49,145364,6,0,P|79:266|71:360,1,260,6|0,1:2|0:0,0:0:0:0:
