osu file format v14

[General]
AudioFilename: audio.mp3
AudioLeadIn: 0
PreviewTime: 39590
Countdown: 1
SampleSet: Soft
StackLeniency: 0.5
Mode: 0
LetterboxInBreaks: 0
WidescreenStoryboard: 1

[Editor]
Bookmarks: 10790,20390,29990,39590,49190,58790,68390,77990,80390,97190,104690,106790
DistanceSpacing: 1.5
BeatDivisor: 4
GridSize: 4
TimelineZoom: 2.1

[Metadata]
Title:The Quick Brown Fox Jumps Over The Lazy Dog
TitleUnicode:The Quick Brown Fox Jumps Over The Lazy Dog
Artist:Doin
ArtistUnicode:Doin
Creator:grumd
Version:Hitsounds
Source:Pump It Up Prime 2
Tags:d01n electronic breakcore elcheer snepif
BeatmapID:1763783
BeatmapSetID:840051

[Difficulty]
HPDrainRate:6.6
CircleSize:4
OverallDifficulty:9.2
ApproachRate:9.5
SliderMultiplier:1.5
SliderTickRate:1

[Events]
//Background and Video events
//Break Periods
//Storyboard Layer 0 (Background)
//Storyboard Layer 1 (Fail)
//Storyboard Layer 2 (Pass)
//Storyboard Layer 3 (Foreground)
//Storyboard Sound Samples

[TimingPoints]
1190,300,4,2,0,70,1,0
1190,-133.333333333333,4,2,0,70,0,0
10790,-100,4,2,0,75,0,0
24590,-133.333333333333,4,2,0,70,0,0
25190,-100,4,2,0,70,0,0
29390,-166.666666666667,4,2,0,70,0,0
29990,-333.333333333333,4,2,0,40,0,0
33590,-250,4,2,0,40,0,0
34790,-333.333333333333,4,2,0,40,0,0
37190,-200,4,2,0,40,0,0
39590,-90.9090909090909,4,1,0,70,0,0
58790,-133.333333333333,4,2,0,60,0,0
68390,-100,4,1,0,70,0,0
77390,-133.333333333333,4,1,0,70,0,0
77990,-133.333333333333,4,2,0,70,0,0
80390,-90.9090909090909,4,1,0,70,0,0
97190,-133.333333333333,4,2,0,70,0,0
104765,-133.333333333333,4,2,0,10,0,0

[Colours]
Combo1 : 109,231,173
Combo2 : 203,248,69
Combo3 : 90,220,52

[HitObjects]
66,255,1190,6,0,P|68:201|89:146,1,112.500004291535,0|2,0:0|0:0,0:0:0:0:
244,93,1940,1,0,0:0:0:0:
316,152,2090,2,0,P|344:144|375:141,1,56.2500021457673,2|0,0:0|0:0,0:0:0:0:
485,185,2390,2,0,P|428:172|365:171,1,112.500004291535,0|2,0:0|0:0,0:0:0:0:
82,290,3140,1,0,0:0:0:0:
158,234,3290,2,0,P|184:235|215:243,1,56.2500021457673,2|0,0:0|0:0,0:0:0:0:
332,310,3590,2,0,P|278:326|220:327,1,112.500004291535,0|2,0:0|0:0,0:0:0:0:
92,89,4340,5,0,0:0:0:0:
177,143,4490,2,0,P|205:143|234:136,1,56.2500021457673,2|0,0:0|0:0,0:0:0:0:
331,253,4790,2,0,P|279:238|214:239,1,112.500004291535,0|2,0:0|0:0,0:0:0:0:
154,291,5240,1,0,0:0:0:0:
110,155,5390,1,2,0:0:0:0:
38,223,5540,2,0,P|32:250|32:279,2,56.2500021457673,0|2|0,0:0|0:0|0:0,0:0:0:0:
129,150,5990,6,0,P|150:199|153:260,1,112.500004291535,0|2,0:0|0:0,0:0:0:0:
393,328,6740,1,0,0:0:0:0:
300,217,6890,2,0,P|300:243|291:274,1,56.2500021457673,2|0,0:0|0:0,0:0:0:0:
179,308,7190,2,0,P|161:259|159:199,1,112.500004291535,0|2,0:0|0:0,0:0:0:0:
70,59,7940,1,0,0:0:0:0:
153,101,8090,1,2,0:0:0:0:
13,150,8240,1,0,0:0:0:0:
173,117,8390,2,0,P|225:138|286:136,1,112.500004291535,0|2,0:0|0:0,0:0:0:0:
458,58,9140,5,0,0:0:0:0:
409,141,9290,2,0,P|410:170|417:199,1,56.2500021457673,2|0,0:0|0:0,0:0:0:0:
493,269,9590,2,0,P|457:306|396:314,1,112.500004291535,0|2,0:0|0:0,0:0:0:0:
316,252,10040,1,0,0:0:0:0:
178,323,10190,2,0,P|152:318|117:318,1,56.2500021457673,2|0,0:0|0:0,0:0:0:0:
2,230,10490,2,0,P|30:229|61:221,1,56.2500021457673,2|0,0:0|0:0,0:0:0:0:
173,98,10790,5,4,0:0:0:0:
207,191,10940,2,0,L|283:202,1,75
367,29,11240,1,0,0:0:0:0:
386,247,11390,2,0,L|371:167,1,75,8|0,0:3|0:0,0:0:0:0:
384,156,11690,2,0,L|399:232,1,75
244,295,11990,5,4,0:3:0:0:
410,353,12140,1,0,0:0:0:0:
265,212,12290,2,0,L|260:291,1,75,4|0,0:3|0:0,0:0:0:0:
186,127,12590,1,8,0:3:0:0:
131,315,12740,1,0,0:0:0:0:
0,230,12890,2,0,L|76:214,1,75
173,98,13190,5,8,0:3:0:0:
207,191,13340,2,0,L|283:202,1,75
367,29,13640,1,0,0:0:0:0:
386,247,13790,2,0,L|371:167,1,75,8|0,0:3|0:0,0:0:0:0:
384,156,14090,2,0,L|399:232,1,75
244,295,14390,5,4,0:3:0:0:
410,353,14540,1,0,0:0:0:0:
265,212,14690,2,0,L|260:291,1,75,4|0,0:3|0:0,0:0:0:0:
186,127,14990,1,8,0:3:0:0:
131,315,15140,1,0,0:0:0:0:
0,230,15290,2,0,L|76:214,1,75,8|0,0:3|0:0,0:0:0:0:
173,98,15590,5,8,0:3:0:0:
207,191,15740,2,0,L|283:202,1,75
367,29,16040,1,0,0:0:0:0:
386,247,16190,2,0,L|371:167,1,75,8|0,0:3|0:0,0:0:0:0:
384,156,16490,2,0,L|399:232,1,75
244,295,16790,5,4,0:3:0:0:
410,353,16940,1,0,0:0:0:0:
265,212,17090,2,0,L|260:291,1,75,4|0,0:3|0:0,0:0:0:0:
186,127,17390,1,8,0:3:0:0:
131,315,17540,1,0,0:0:0:0:
0,230,17690,2,0,L|76:214,1,75
173,98,17990,5,8,0:3:0:0:
207,191,18140,2,0,L|283:202,1,75
367,29,18440,1,0,0:0:0:0:
386,247,18590,2,0,L|371:167,1,75,8|0,0:3|0:0,0:0:0:0:
384,156,18890,2,0,L|399:232,1,75
244,295,19190,5,4,0:3:0:0:
410,353,19340,1,0,0:0:0:0:
265,212,19490,2,0,L|260:291,1,75,4|0,0:3|0:0,0:0:0:0:
186,127,19790,1,8,0:3:0:0:
131,315,19940,1,4,0:3:0:0:
44,306,20015,1,4,0:3:0:0:
0,230,20090,2,0,L|76:214,1,75,8|0,0:3|0:0,0:0:0:0:
173,98,20390,5,4,0:0:0:0:
207,191,20540,2,0,L|283:202,1,75
367,29,20840,1,0,0:0:0:0:
386,247,20990,2,0,L|371:167,1,75,8|0,0:3|0:0,0:0:0:0:
384,156,21290,2,0,L|399:232,1,75
244,295,21590,5,4,0:3:0:0:
410,353,21740,1,0,0:0:0:0:
265,212,21890,2,0,L|260:291,1,75,4|0,0:3|0:0,0:0:0:0:
186,127,22190,1,8,0:3:0:0:
131,315,22340,1,0,0:0:0:0:
0,230,22490,2,0,L|76:214,1,75
173,98,22790,5,8,0:3:0:0:
207,191,22940,2,0,L|283:202,1,75
367,29,23240,1,0,0:0:0:0:
386,247,23390,2,0,L|371:167,1,75,8|0,0:3|0:0,0:0:0:0:
384,156,23690,2,0,L|399:232,1,75
244,295,23990,5,4,0:3:0:0:
410,353,24140,1,0,0:0:0:0:
265,212,24290,2,0,L|260:291,1,75,4|0,0:3|0:0,0:0:0:0:
186,127,24590,1,0,0:3:0:0:
173,98,25190,5,8,0:3:0:0:
207,191,25340,2,0,L|283:202,1,75
367,29,25640,1,0,0:0:0:0:
386,247,25790,2,0,L|371:167,1,75,8|0,0:3|0:0,0:0:0:0:
384,156,26090,2,0,L|399:232,1,75
244,295,26390,5,4,0:3:0:0:
410,353,26540,1,0,0:0:0:0:
265,212,26690,2,0,L|260:291,1,75,4|0,0:3|0:0,0:0:0:0:
186,127,26990,1,8,0:3:0:0:
131,315,27140,1,0,0:0:0:0:
0,230,27290,2,0,L|76:214,1,75
173,98,27590,5,8,0:3:0:0:
207,191,27740,2,0,L|283:202,1,75
367,29,28040,1,0,0:0:0:0:
386,247,28190,2,0,L|371:167,1,75,8|0,0:3|0:0,0:0:0:0:
384,156,28490,2,0,L|399:232,1,75
244,295,28790,5,4,0:3:0:0:
410,353,28940,1,0,0:0:0:0:
265,212,29090,2,0,L|260:291,1,75,4|0,0:3|0:0,0:0:0:0:
120,212,29990,6,0,B|151:230|189:226|215:201|215:201|201:261,1,157.499995193482
214,273,31190,2,0,B|246:254|278:251|312:262|312:262|297:237|296:206,1,157.499995193482
297,188,32390,2,0,B|300:154|321:126|357:119|357:119|419:136,1,157.499995193482
442,143,33590,2,0,B|382:125|382:125|353:106|338:72,1,120
273,139,34790,6,0,B|279:183|269:211|226:229|226:229|231:180,1,157.499995193482
213,168,35990,2,0,B|202:261|202:261|180:234|148:230,1,157.499995193482
115,229,37190,6,0,P|79:242|53:270,1,75,2|0,0:0|0:0,0:0:0:0:
43,297,37640,2,0,P|37:318|38:339,2,37.5,2|0|0,0:0|0:0|0:0,0:0:0:0:
139,324,38240,1,0,0:0:0:0:
139,324,38390,2,0,L|214:315,1,75,2|0,0:0|0:0,0:0:0:0:
290,234,38990,2,0,L|318:239,6,18.75,2|0|2|0|2|0|2,0:0|0:0|0:0|0:0|0:0|0:0|0:0,0:0:0:0:
237,164,39590,5,12,0:3:0:0:
27,300,39890,1,8,0:3:0:0:
53,138,40340,1,4,0:3:0:0:
260,202,40490,1,8,0:3:0:0:
201,34,40640,1,4,0:3:0:0:
37,260,40790,5,4,0:3:0:0:
176,311,41090,1,8,0:3:0:0:
478,188,41540,1,4,0:3:0:0:
222,237,41690,1,8,0:3:0:0:
84,202,41840,1,4,0:3:0:0:
237,164,41990,5,12,0:3:0:0:
27,300,42290,1,8,0:3:0:0:
53,138,42740,1,4,0:3:0:0:
260,202,42890,1,8,0:3:0:0:
201,34,43040,1,4,0:3:0:0:
237,164,43190,5,12,0:3:0:0:
155,142,43340,1,4,0:3:0:0:
27,300,43490,1,8,0:3:0:0:
134,254,43640,1,4,0:0:0:0:
53,138,43940,1,4,0:3:0:0:
260,202,44090,1,8,0:3:0:0:
201,34,44240,1,4,0:3:0:0:
237,164,44390,5,12,0:3:0:0:
27,300,44690,1,8,0:3:0:0:
53,138,45140,1,4,0:3:0:0:
260,202,45290,1,8,0:3:0:0:
201,34,45440,1,4,0:3:0:0:
237,164,45590,5,12,0:3:0:0:
27,300,45890,1,8,0:3:0:0:
53,138,46340,1,4,0:3:0:0:
260,202,46490,1,8,0:3:0:0:
201,34,46640,1,4,0:3:0:0:
237,164,46790,5,12,0:3:0:0:
27,300,47090,1,8,0:3:0:0:
53,138,47540,1,4,0:3:0:0:
260,202,47690,1,8,0:3:0:0:
201,34,47840,1,4,0:3:0:0:
237,164,47990,5,12,0:3:0:0:
138,165,48140,1,4,0:3:0:0:
27,300,48290,1,8,0:3:0:0:
368,95,48440,1,4,0:3:0:0:
53,138,48740,1,4,0:3:0:0:
260,202,48890,1,8,0:3:0:0:
201,34,49040,1,4,0:3:0:0:
237,164,49190,5,12,0:3:0:0:
27,300,49490,1,8,0:3:0:0:
53,138,49940,1,4,0:3:0:0:
260,202,50090,1,8,0:3:0:0:
201,34,50240,1,4,0:3:0:0:
237,164,50390,5,12,0:3:0:0:
27,300,50690,1,8,0:3:0:0:
53,138,51140,1,4,0:3:0:0:
260,202,51290,1,8,0:3:0:0:
201,34,51440,1,4,0:3:0:0:
237,164,51590,5,12,0:3:0:0:
27,300,51890,1,8,0:3:0:0:
53,138,52340,1,4,0:3:0:0:
260,202,52490,1,8,0:3:0:0:
201,34,52640,1,4,0:3:0:0:
237,164,52790,5,12,0:3:0:0:
138,165,52940,1,4,0:3:0:0:
27,300,53090,1,8,0:3:0:0:
368,95,53240,1,4,0:3:0:0:
53,138,53540,5,4,0:3:0:0:
260,202,53690,1,8,0:3:0:0:
201,34,53840,1,4,0:3:0:0:
237,164,53990,5,12,0:3:0:0:
27,300,54290,1,8,0:3:0:0:
53,138,54740,1,4,0:3:0:0:
260,202,54890,1,8,0:3:0:0:
201,34,55040,1,4,0:3:0:0:
237,164,55190,5,12,0:3:0:0:
27,300,55490,1,8,0:3:0:0:
53,138,55940,1,4,0:3:0:0:
260,202,56090,1,8,0:3:0:0:
201,34,56240,1,4,0:3:0:0:
237,164,56390,5,12,0:3:0:0:
27,300,56690,1,8,0:3:0:0:
53,138,57140,1,4,0:3:0:0:
260,202,57290,1,8,0:3:0:0:
201,34,57440,1,4,0:3:0:0:
237,164,57590,5,12,0:3:0:0:
138,165,57740,1,4,0:3:0:0:
27,300,57890,1,8,0:3:0:0:
368,95,58040,1,4,0:3:0:0:
53,138,58340,5,4,0:3:0:0:
260,202,58490,1,8,0:3:0:0:
201,34,58640,1,4,0:3:0:0:
371,188,58790,5,0,0:0:0:0:
153,272,59540,2,0,B|116:291|116:291|36:277,1,112.500004291535
22,197,59990,2,0,L|203:227,1,168.750006437302,2|0,0:0|0:0,0:0:0:0:
216,301,60590,2,0,B|189:224|189:224|237:236|271:205,1,168.750006437302,2|0,0:0|0:0,0:0:0:0:
216,145,61190,6,0,B|154:131|120:179|120:179|139:241,1,168.750006437302
112,314,61790,2,0,L|51:303,1,56.2500021457673
112,314,62240,1,0,0:0:0:0:
184,276,62390,2,0,P|255:314|328:276,1,168.750006437302
256,229,62990,2,0,B|235:189|256:148|256:148|276:107|256:66,1,168.750006437302
188,112,63590,6,0,B|208:76|256:66|256:66|304:76|324:112,1,168.750006437302
399,141,64190,2,0,P|412:120|420:88,1,56.2500021457673
399,141,64640,1,0,0:0:0:0:
335,192,64790,2,0,P|371:260|458:262,1,168.750006437302,2|0,0:0|0:0,0:0:0:0:
415,191,65390,2,0,B|456:264|456:264|430:277|399:276|374:261,1,168.750006437302,2|0,0:0|0:0,0:0:0:0:
309,207,65990,6,0,P|250:230|242:332,1,168.750006437302
313,360,66590,2,0,L|374:350,1,56.2500021457673
313,360,67040,1,0,0:0:0:0:
229,335,67190,2,0,L|55:312,1,168.750006437302
39,233,67790,2,0,P|64:201|87:124,1,112.500004291535
237,164,68390,5,12,0:3:0:0:
27,300,68690,1,8,0:3:0:0:
53,138,69140,1,4,0:3:0:0:
260,202,69290,1,8,0:3:0:0:
201,34,69440,1,4,0:3:0:0:
237,164,69590,5,12,0:3:0:0:
27,300,69890,1,8,0:3:0:0:
53,138,70340,1,4,0:3:0:0:
260,202,70490,1,8,0:3:0:0:
201,34,70640,1,4,0:3:0:0:
237,164,70790,5,12,0:3:0:0:
27,300,71090,1,8,0:3:0:0:
53,138,71540,1,4,0:3:0:0:
260,202,71690,1,8,0:3:0:0:
201,34,71840,1,4,0:3:0:0:
237,164,71990,5,12,0:3:0:0:
138,165,72140,1,4,0:3:0:0:
27,300,72290,1,8,0:3:0:0:
368,95,72440,1,4,0:3:0:0:
53,138,72740,5,4,0:3:0:0:
260,202,72890,1,8,0:3:0:0:
201,34,73040,1,4,0:3:0:0:
237,164,73190,5,12,0:3:0:0:
27,300,73490,1,8,0:3:0:0:
53,138,73940,1,4,0:3:0:0:
260,202,74090,1,8,0:3:0:0:
201,34,74240,1,4,0:3:0:0:
237,164,74390,5,12,0:3:0:0:
27,300,74690,1,8,0:3:0:0:
53,138,75140,1,4,0:3:0:0:
260,202,75290,1,8,0:3:0:0:
201,34,75440,1,4,0:3:0:0:
237,164,75590,5,12,0:3:0:0:
27,300,75890,1,8,0:3:0:0:
53,138,76340,1,4,0:3:0:0:
260,202,76490,1,8,0:3:0:0:
201,34,76640,1,4,0:3:0:0:
237,164,76790,5,12,0:3:0:0:
138,165,76940,1,4,0:3:0:0:
27,300,77090,1,8,0:3:0:0:
368,95,77240,1,4,0:3:0:0:
53,138,77540,5,4,0:3:0:0:
260,202,77690,1,8,0:3:0:0:
201,34,77840,1,4,0:3:0:0:
238,207,77990,1,0,0:3:0:0:
237,164,80390,5,12,0:3:0:0:
27,300,80690,1,8,0:3:0:0:
53,138,81140,1,4,0:3:0:0:
260,202,81290,1,8,0:3:0:0:
201,34,81440,1,4,0:3:0:0:
237,164,81590,5,12,0:3:0:0:
155,142,81740,1,4,0:3:0:0:
27,300,81890,1,8,0:3:0:0:
134,254,82040,1,4,0:0:0:0:
53,138,82340,1,4,0:3:0:0:
260,202,82490,1,8,0:3:0:0:
201,34,82640,1,4,0:3:0:0:
237,164,82790,5,12,0:3:0:0:
27,300,83090,1,8,0:3:0:0:
53,138,83540,1,4,0:3:0:0:
260,202,83690,1,8,0:3:0:0:
201,34,83840,1,4,0:3:0:0:
237,164,83990,5,12,0:3:0:0:
27,300,84290,1,8,0:3:0:0:
53,138,84740,1,4,0:3:0:0:
260,202,84890,1,8,0:3:0:0:
201,34,85040,1,4,0:3:0:0:
237,164,85190,5,12,0:3:0:0:
27,300,85490,1,8,0:3:0:0:
53,138,85940,1,4,0:3:0:0:
260,202,86090,1,8,0:3:0:0:
201,34,86240,1,4,0:3:0:0:
237,164,86390,5,12,0:3:0:0:
138,165,86540,1,4,0:3:0:0:
27,300,86690,1,8,0:3:0:0:
368,95,86840,1,4,0:3:0:0:
53,138,87140,1,4,0:3:0:0:
260,202,87290,1,8,0:3:0:0:
201,34,87440,1,4,0:3:0:0:
237,164,87590,5,12,0:3:0:0:
27,300,87890,1,8,0:3:0:0:
53,138,88340,1,4,0:3:0:0:
260,202,88490,1,8,0:3:0:0:
201,34,88640,1,4,0:3:0:0:
237,164,88790,5,12,0:3:0:0:
27,300,89090,1,8,0:3:0:0:
53,138,89540,1,4,0:3:0:0:
260,202,89690,1,8,0:3:0:0:
201,34,89840,1,4,0:3:0:0:
237,164,89990,5,12,0:3:0:0:
27,300,90290,1,8,0:3:0:0:
53,138,90740,1,4,0:3:0:0:
260,202,90890,1,8,0:3:0:0:
201,34,91040,1,4,0:3:0:0:
237,164,91190,5,12,0:3:0:0:
138,165,91340,1,4,0:3:0:0:
27,300,91490,1,8,0:3:0:0:
368,95,91640,1,4,0:3:0:0:
53,138,91940,5,4,0:3:0:0:
260,202,92090,1,8,0:3:0:0:
201,34,92240,1,4,0:3:0:0:
237,164,92390,5,12,0:3:0:0:
27,300,92690,1,8,0:3:0:0:
53,138,93140,1,4,0:3:0:0:
260,202,93290,1,8,0:3:0:0:
201,34,93440,1,4,0:3:0:0:
237,164,93590,5,12,0:3:0:0:
27,300,93890,1,8,0:3:0:0:
53,138,94340,1,4,0:3:0:0:
260,202,94490,1,8,0:3:0:0:
201,34,94640,1,4,0:3:0:0:
237,164,94790,5,12,0:3:0:0:
27,300,95090,1,8,0:3:0:0:
53,138,95540,1,4,0:3:0:0:
260,202,95690,1,8,0:3:0:0:
201,34,95840,1,4,0:3:0:0:
237,164,95990,5,12,0:3:0:0:
138,165,96140,1,4,0:3:0:0:
27,300,96290,1,8,0:3:0:0:
368,95,96440,1,4,0:3:0:0:
53,138,96740,5,4,0:3:0:0:
260,202,96890,1,8,0:3:0:0:
201,34,97040,1,4,0:3:0:0:
356,164,97190,6,0,P|347:218|313:268,1,112.500004291535,0|2,0:0|0:0,0:0:0:0:
90,215,97940,1,0,0:0:0:0:
65,131,98090,2,0,P|69:103|81:77,1,56.2500021457673,2|0,0:0|0:0,0:0:0:0:
173,63,98390,2,0,P|209:104|212:159,1,112.500004291535,0|2,0:0|0:0,0:0:0:0:
485,121,99140,5,0,0:0:0:0:
422,184,99290,2,0,L|430:243,1,56.2500021457673,2|0,0:0|0:0,0:0:0:0:
271,212,99590,2,0,P|306:165|311:103,1,112.500004291535,0|2,0:0|0:0,0:0:0:0:
33,58,100340,5,0,0:0:0:0:
109,121,100490,2,0,P|136:116|164:103,1,56.2500021457673,2|0,0:0|0:0,0:0:0:0:
39,196,100790,2,0,P|43:248|85:297,1,112.500004291535,0|2,0:0|0:0,0:0:0:0:
167,270,101240,1,0,0:0:0:0:
236,325,101390,2,0,L|299:317,1,56.2500021457673,2|0,0:0|0:0,0:0:0:0:
326,237,101690,2,0,L|389:229,1,56.2500021457673,2|0,0:0|0:0,0:0:0:0:
452,178,101990,6,0,P|388:176|340:130,1,112.500004291535,0|2,0:0|0:0,0:0:0:0:
156,26,102740,1,0,0:0:0:0:
98,103,102890,2,0,P|98:129|107:160,1,56.2500021457673,2|0,0:0|0:0,0:0:0:0:
186,201,103190,2,0,P|235:168|288:161,1,112.500004291535,0|2,0:0|0:0,0:0:0:0:
444,301,103940,5,2,0:0:0:0:
304,324,104090,1,2,0:0:0:0:
457,286,104240,1,2,0:0:0:0:
289,310,104390,2,0,L|166:298,1,112.500004291535,0|2,0:0|0:0,0:0:0:0:
256,192,104765,12,0,106790,0:0:0:0:
