osu file format v14

[General]
AudioFilename: audio.mp3
AudioLeadIn: 0
PreviewTime: 79615
Countdown: 1
SampleSet: None
StackLeniency: 0.2
Mode: 1
LetterboxInBreaks: 0
WidescreenStoryboard: 0

[Editor]
DistanceSpacing: 1
BeatDivisor: 6
GridSize: 32
TimelineZoom: 1.5

[Metadata]
Title:Further
TitleUnicode:Further
Artist:Doin
ArtistUnicode:Doin
Creator:Zetera
Version:Inner Oni
Source:PUMP IT UP – 2017 PRIME 2
Tags:
BeatmapID:1750534
BeatmapSetID:835869

[Difficulty]
HPDrainRate:6
CircleSize:2
OverallDifficulty:6.5
ApproachRate:10
SliderMultiplier:1.4
SliderTickRate:1

[Events]
//Background and Video events
0,0,"doin.jpg",0,0
//Break Periods
//Storyboard Layer 0 (Background)
//Storyboard Layer 1 (Fail)
//Storyboard Layer 2 (Pass)
//Storyboard Layer 3 (Foreground)
//Storyboard Sound Samples

[TimingPoints]
439.886597938144,309.278350515464,4,1,0,100,1,0

[HitObjects]
256,192,5388,5,0,0:0:0:0:
256,192,5697,1,8,0:0:0:0:
256,192,6316,1,8,0:0:0:0:
256,192,6934,1,8,0:0:0:0:
256,192,7089,1,0,0:0:0:0:
256,192,7398,1,0,0:0:0:0:
256,192,7553,1,8,0:0:0:0:
256,192,7707,1,8,0:0:0:0:
256,192,7862,1,0,0:0:0:0:
256,192,8171,1,8,0:0:0:0:
256,192,8790,1,8,0:0:0:0:
256,192,9099,1,0,0:0:0:0:
256,192,9254,1,0,0:0:0:0:
256,192,9408,1,8,0:0:0:0:
256,192,10336,1,4,0:0:0:0:
256,192,10491,1,0,0:0:0:0:
256,192,10568,1,0,0:0:0:0:
256,192,10646,1,8,0:0:0:0:
256,192,10800,1,8,0:0:0:0:
256,192,10878,1,8,0:0:0:0:
256,192,10955,1,8,0:0:0:0:
256,192,11032,1,8,0:0:0:0:
256,192,11109,1,0,0:0:0:0:
256,192,11264,1,8,0:0:0:0:
256,192,11419,1,0,0:0:0:0:
256,192,11496,1,0,0:0:0:0:
256,192,11573,1,0,0:0:0:0:
256,192,11728,1,0,0:0:0:0:
256,192,11805,1,0,0:0:0:0:
256,192,11883,1,8,0:0:0:0:
256,192,12037,1,8,0:0:0:0:
256,192,12115,1,8,0:0:0:0:
256,192,12192,1,8,0:0:0:0:
256,192,12269,1,8,0:0:0:0:
256,192,12347,1,0,0:0:0:0:
256,192,12398,1,8,0:0:0:0:
256,192,12450,1,8,0:0:0:0:
256,192,12501,1,0,0:0:0:0:
256,192,12656,1,8,0:0:0:0:
256,192,12811,1,0,0:0:0:0:
256,192,12965,1,0,0:0:0:0:
256,192,13042,1,0,0:0:0:0:
256,192,13120,1,8,0:0:0:0:
256,192,13274,1,8,0:0:0:0:
256,192,13352,1,8,0:0:0:0:
256,192,13429,1,8,0:0:0:0:
256,192,13506,1,8,0:0:0:0:
256,192,13584,1,0,0:0:0:0:
256,192,13738,1,8,0:0:0:0:
256,192,13893,1,0,0:0:0:0:
256,192,13970,1,0,0:0:0:0:
256,192,14048,1,0,0:0:0:0:
256,192,14202,1,0,0:0:0:0:
256,192,14280,1,0,0:0:0:0:
256,192,14357,1,8,0:0:0:0:
256,192,14512,1,8,0:0:0:0:
256,192,14589,1,8,0:0:0:0:
256,192,14666,1,8,0:0:0:0:
256,192,14744,1,8,0:0:0:0:
256,192,14821,1,0,0:0:0:0:
256,192,14898,1,0,0:0:0:0:
256,192,14975,1,8,0:0:0:0:
256,192,15053,1,0,0:0:0:0:
256,192,15130,1,8,0:0:0:0:
256,192,15285,1,0,0:0:0:0:
256,192,15439,1,0,0:0:0:0:
256,192,15517,1,0,0:0:0:0:
256,192,15594,1,8,0:0:0:0:
256,192,15749,1,8,0:0:0:0:
256,192,15826,1,0,0:0:0:0:
256,192,15903,1,0,0:0:0:0:
256,192,15981,1,0,0:0:0:0:
256,192,16058,1,8,0:0:0:0:
256,192,16213,1,0,0:0:0:0:
256,192,16367,1,8,0:0:0:0:
256,192,16445,1,8,0:0:0:0:
256,192,16522,1,0,0:0:0:0:
256,192,16677,1,0,0:0:0:0:
256,192,16754,1,0,0:0:0:0:
256,192,16831,1,8,0:0:0:0:
256,192,16986,1,0,0:0:0:0:
256,192,17063,1,0,0:0:0:0:
256,192,17140,1,0,0:0:0:0:
256,192,17218,1,0,0:0:0:0:
256,192,17295,1,0,0:0:0:0:
256,192,17347,1,8,0:0:0:0:
256,192,17398,1,8,0:0:0:0:
256,192,17450,1,0,0:0:0:0:
256,192,17604,1,8,0:0:0:0:
256,192,17759,1,0,0:0:0:0:
256,192,17914,1,0,0:0:0:0:
256,192,17991,1,0,0:0:0:0:
256,192,18068,1,8,0:0:0:0:
256,192,18223,1,0,0:0:0:0:
256,192,18300,1,0,0:0:0:0:
256,192,18378,1,0,0:0:0:0:
256,192,18455,1,0,0:0:0:0:
256,192,18532,1,8,0:0:0:0:
256,192,18687,1,0,0:0:0:0:
256,192,18841,1,8,0:0:0:0:
256,192,18919,1,8,0:0:0:0:
256,192,18996,1,0,0:0:0:0:
256,192,19151,1,0,0:0:0:0:
256,192,19228,1,0,0:0:0:0:
256,192,19305,1,8,0:0:0:0:
256,192,19460,1,0,0:0:0:0:
256,192,19615,1,8,0:0:0:0:
256,192,19769,1,0,0:0:0:0:
256,192,19924,1,8,0:0:0:0:
256,192,20001,1,0,0:0:0:0:
256,192,20079,1,8,0:0:0:0:
256,192,20233,1,4,0:0:0:0:
256,192,20388,1,0,0:0:0:0:
256,192,20465,1,0,0:0:0:0:
256,192,20543,1,8,0:0:0:0:
256,192,20697,1,8,0:0:0:0:
256,192,20775,1,8,0:0:0:0:
256,192,20852,1,8,0:0:0:0:
256,192,20929,1,8,0:0:0:0:
256,192,21006,1,0,0:0:0:0:
256,192,21161,1,8,0:0:0:0:
256,192,21316,1,0,0:0:0:0:
256,192,21393,1,0,0:0:0:0:
256,192,21470,1,0,0:0:0:0:
256,192,21625,1,0,0:0:0:0:
256,192,21702,1,0,0:0:0:0:
256,192,21780,1,8,0:0:0:0:
256,192,21934,1,8,0:0:0:0:
256,192,22012,1,8,0:0:0:0:
256,192,22089,1,8,0:0:0:0:
256,192,22166,1,8,0:0:0:0:
256,192,22244,1,0,0:0:0:0:
256,192,22295,1,8,0:0:0:0:
256,192,22347,1,8,0:0:0:0:
256,192,22398,1,0,0:0:0:0:
256,192,22553,1,8,0:0:0:0:
256,192,22708,1,0,0:0:0:0:
256,192,22862,1,0,0:0:0:0:
256,192,22939,1,0,0:0:0:0:
256,192,23017,1,8,0:0:0:0:
256,192,23171,1,8,0:0:0:0:
256,192,23249,1,8,0:0:0:0:
256,192,23326,1,8,0:0:0:0:
256,192,23403,1,8,0:0:0:0:
256,192,23481,1,0,0:0:0:0:
256,192,23635,1,8,0:0:0:0:
256,192,23790,1,0,0:0:0:0:
256,192,23867,1,0,0:0:0:0:
256,192,23945,1,0,0:0:0:0:
256,192,24099,1,0,0:0:0:0:
256,192,24177,1,0,0:0:0:0:
256,192,24254,1,8,0:0:0:0:
256,192,24409,1,8,0:0:0:0:
256,192,24486,1,8,0:0:0:0:
256,192,24563,1,8,0:0:0:0:
256,192,24641,1,8,0:0:0:0:
256,192,24718,1,0,0:0:0:0:
256,192,24795,1,0,0:0:0:0:
256,192,24872,1,8,0:0:0:0:
256,192,24950,1,0,0:0:0:0:
256,192,25027,1,8,0:0:0:0:
256,192,25182,1,0,0:0:0:0:
256,192,25336,1,0,0:0:0:0:
256,192,25414,1,0,0:0:0:0:
256,192,25491,1,8,0:0:0:0:
256,192,25646,1,8,0:0:0:0:
256,192,25723,1,0,0:0:0:0:
256,192,25800,1,0,0:0:0:0:
256,192,25878,1,0,0:0:0:0:
256,192,25955,1,8,0:0:0:0:
256,192,26110,1,0,0:0:0:0:
256,192,26264,1,8,0:0:0:0:
256,192,26342,1,8,0:0:0:0:
256,192,26419,1,0,0:0:0:0:
256,192,26574,1,0,0:0:0:0:
256,192,26651,1,0,0:0:0:0:
256,192,26728,1,8,0:0:0:0:
256,192,26883,1,8,0:0:0:0:
256,192,26960,1,0,0:0:0:0:
256,192,27037,1,0,0:0:0:0:
256,192,27115,1,0,0:0:0:0:
256,192,27192,1,0,0:0:0:0:
256,192,27244,1,8,0:0:0:0:
256,192,27295,1,8,0:0:0:0:
256,192,27347,1,0,0:0:0:0:
256,192,27501,1,8,0:0:0:0:
256,192,27656,1,0,0:0:0:0:
256,192,27811,1,0,0:0:0:0:
256,192,27888,1,0,0:0:0:0:
256,192,27965,1,8,0:0:0:0:
256,192,28120,1,0,0:0:0:0:
256,192,28197,1,0,0:0:0:0:
256,192,28275,1,0,0:0:0:0:
256,192,28352,1,0,0:0:0:0:
256,192,28429,1,8,0:0:0:0:
256,192,28584,1,0,0:0:0:0:
256,192,28738,1,8,0:0:0:0:
256,192,28816,1,8,0:0:0:0:
256,192,28893,1,8,0:0:0:0:
256,192,29048,1,0,0:0:0:0:
256,192,29202,1,8,0:0:0:0:
256,192,29357,1,0,0:0:0:0:
256,192,29512,1,8,0:0:0:0:
256,192,29666,1,0,0:0:0:0:
256,192,29821,1,8,0:0:0:0:
256,192,29976,1,8,0:0:0:0:
256,192,30130,1,4,0:0:0:0:
256,192,32604,1,0,0:0:0:0:
256,192,32759,1,8,0:0:0:0:
256,192,32914,1,8,0:0:0:0:
256,192,33068,1,0,0:0:0:0:
256,192,33223,1,8,0:0:0:0:
256,192,33378,1,8,0:0:0:0:
256,192,33532,1,0,0:0:0:0:
256,192,33687,1,8,0:0:0:0:
256,192,33842,1,8,0:0:0:0:
256,192,33996,1,0,0:0:0:0:
256,192,34151,1,8,0:0:0:0:
256,192,34306,1,0,0:0:0:0:
256,192,34460,1,0,0:0:0:0:
256,192,34615,1,8,0:0:0:0:
256,192,34770,1,8,0:0:0:0:
256,192,34847,1,0,0:0:0:0:
256,192,34924,1,8,0:0:0:0:
256,192,35079,1,0,0:0:0:0:
256,192,35233,1,0,0:0:0:0:
256,192,35388,1,8,0:0:0:0:
256,192,35620,1,0,0:0:0:0:
256,192,35698,1,0,0:0:0:0:
256,192,35852,1,0,0:0:0:0:
256,192,36006,1,8,0:0:0:0:
256,192,36161,1,0,0:0:0:0:
256,192,36316,1,8,0:0:0:0:
256,192,36470,1,0,0:0:0:0:
256,192,36548,1,0,0:0:0:0:
256,192,36625,1,8,0:0:0:0:
256,192,36780,1,0,0:0:0:0:
256,192,36857,1,0,0:0:0:0:
256,192,36934,1,0,0:0:0:0:
256,192,37089,1,0,0:0:0:0:
256,192,37244,1,8,0:0:0:0:
256,192,37321,1,0,0:0:0:0:
256,192,37398,1,8,0:0:0:0:
256,192,37553,1,0,0:0:0:0:
256,192,37707,1,0,0:0:0:0:
256,192,37862,1,8,0:0:0:0:
256,192,38094,1,0,0:0:0:0:
256,192,38171,1,0,0:0:0:0:
256,192,38326,1,0,0:0:0:0:
256,192,38481,1,8,0:0:0:0:
256,192,38635,1,8,0:0:0:0:
256,192,38713,1,0,0:0:0:0:
256,192,38790,1,8,0:0:0:0:
256,192,38945,1,0,0:0:0:0:
256,192,39099,1,8,0:0:0:0:
256,192,39254,1,0,0:0:0:0:
256,192,39331,1,0,0:0:0:0:
256,192,39408,1,8,0:0:0:0:
256,192,39563,1,8,0:0:0:0:
256,192,39640,1,8,0:0:0:0:
256,192,39718,1,0,0:0:0:0:
256,192,39795,1,0,0:0:0:0:
256,192,39872,1,8,0:0:0:0:
256,192,40027,1,4,0:0:0:0:
256,192,40182,1,8,0:0:0:0:
256,192,40259,1,8,0:0:0:0:
256,192,40336,1,0,0:0:0:0:
256,192,40491,1,8,0:0:0:0:
256,192,40646,1,0,0:0:0:0:
256,192,40723,1,0,0:0:0:0:
256,192,40800,1,8,0:0:0:0:
256,192,40878,1,0,0:0:0:0:
256,192,40955,1,8,0:0:0:0:
256,192,41109,1,8,0:0:0:0:
256,192,41264,1,0,0:0:0:0:
256,192,41341,1,0,0:0:0:0:
256,192,41419,1,0,0:0:0:0:
256,192,41573,1,8,0:0:0:0:
256,192,41728,1,0,0:0:0:0:
256,192,41960,1,0,0:0:0:0:
256,192,42037,1,8,0:0:0:0:
256,192,42192,1,0,0:0:0:0:
256,192,42347,1,8,0:0:0:0:
256,192,42501,1,8,0:0:0:0:
256,192,42656,1,0,0:0:0:0:
256,192,42733,1,0,0:0:0:0:
256,192,42811,1,0,0:0:0:0:
256,192,42965,1,8,0:0:0:0:
256,192,43120,1,8,0:0:0:0:
256,192,43197,1,8,0:0:0:0:
256,192,43274,1,0,0:0:0:0:
256,192,43429,1,8,0:0:0:0:
256,192,43584,1,0,0:0:0:0:
256,192,43661,1,0,0:0:0:0:
256,192,43738,1,8,0:0:0:0:
256,192,43893,1,0,0:0:0:0:
256,192,44048,1,8,0:0:0:0:
256,192,44125,1,0,0:0:0:0:
256,192,44202,1,8,0:0:0:0:
256,192,44357,1,0,0:0:0:0:
256,192,44512,1,8,0:0:0:0:
256,192,44589,1,8,0:0:0:0:
256,192,44666,1,8,0:0:0:0:
256,192,44744,1,8,0:0:0:0:
256,192,44821,1,8,0:0:0:0:
256,192,44975,1,0,0:0:0:0:
256,192,45130,1,8,0:0:0:0:
256,192,45207,1,0,0:0:0:0:
256,192,45285,1,0,0:0:0:0:
256,192,45439,1,8,0:0:0:0:
256,192,45517,1,0,0:0:0:0:
256,192,45594,1,0,0:0:0:0:
256,192,45671,1,0,0:0:0:0:
256,192,45749,1,8,0:0:0:0:
256,192,45903,1,0,0:0:0:0:
256,192,46058,1,8,0:0:0:0:
256,192,46135,1,8,0:0:0:0:
256,192,46213,1,0,0:0:0:0:
256,192,46445,1,0,0:0:0:0:
256,192,46522,1,8,0:0:0:0:
256,192,46677,1,0,0:0:0:0:
256,192,46754,1,0,0:0:0:0:
256,192,46831,1,0,0:0:0:0:
256,192,46986,1,0,0:0:0:0:
256,192,47140,1,8,0:0:0:0:
256,192,47218,1,8,0:0:0:0:
256,192,47295,1,8,0:0:0:0:
256,192,47449,1,0,0:0:0:0:
256,192,47604,1,8,0:0:0:0:
256,192,47682,1,8,0:0:0:0:
256,192,47759,1,0,0:0:0:0:
256,192,47914,1,0,0:0:0:0:
256,192,48068,1,0,0:0:0:0:
256,192,48146,1,0,0:0:0:0:
256,192,48223,1,0,0:0:0:0:
256,192,48378,1,0,0:0:0:0:
256,192,48532,1,8,0:0:0:0:
256,192,48609,1,0,0:0:0:0:
256,192,48687,1,0,0:0:0:0:
256,192,48841,1,0,0:0:0:0:
256,192,48996,1,8,0:0:0:0:
256,192,49073,1,0,0:0:0:0:
256,192,49151,1,8,0:0:0:0:
256,192,49305,1,0,0:0:0:0:
256,192,49460,1,8,0:0:0:0:
256,192,49615,1,8,0:0:0:0:
256,192,49692,1,8,0:0:0:0:
256,192,49769,1,8,0:0:0:0:
256,192,49847,1,8,0:0:0:0:
256,192,49924,1,4,0:0:0:0:
256,192,50079,1,8,0:0:0:0:
256,192,50233,1,0,0:0:0:0:
256,192,50388,1,8,0:0:0:0:
256,192,50465,1,8,0:0:0:0:
256,192,50542,1,0,0:0:0:0:
256,192,50697,1,8,0:0:0:0:
256,192,50852,1,0,0:0:0:0:
256,192,50929,1,0,0:0:0:0:
256,192,51006,1,8,0:0:0:0:
256,192,51161,1,0,0:0:0:0:
256,192,51238,1,0,0:0:0:0:
256,192,51316,1,0,0:0:0:0:
256,192,51470,1,0,0:0:0:0:
256,192,51625,1,8,0:0:0:0:
256,192,51702,1,8,0:0:0:0:
256,192,51780,1,0,0:0:0:0:
256,192,51934,1,0,0:0:0:0:
256,192,52089,1,8,0:0:0:0:
256,192,52244,1,8,0:0:0:0:
256,192,52398,1,0,0:0:0:0:
256,192,52475,1,0,0:0:0:0:
256,192,52553,1,8,0:0:0:0:
256,192,52707,1,0,0:0:0:0:
256,192,52785,1,0,0:0:0:0:
256,192,52862,1,0,0:0:0:0:
256,192,53017,1,8,0:0:0:0:
256,192,53171,1,0,0:0:0:0:
256,192,53249,1,0,0:0:0:0:
256,192,53326,1,8,0:0:0:0:
256,192,53481,1,8,0:0:0:0:
256,192,53635,1,0,0:0:0:0:
256,192,53713,1,0,0:0:0:0:
256,192,53790,1,0,0:0:0:0:
256,192,53945,1,8,0:0:0:0:
256,192,54099,1,8,0:0:0:0:
256,192,54177,1,8,0:0:0:0:
256,192,54254,1,0,0:0:0:0:
256,192,54408,1,8,0:0:0:0:
256,192,54486,1,8,0:0:0:0:
256,192,54563,1,8,0:0:0:0:
256,192,54640,1,8,0:0:0:0:
256,192,54718,1,8,0:0:0:0:
256,192,54872,1,0,0:0:0:0:
256,192,55027,1,8,0:0:0:0:
256,192,55182,1,0,0:0:0:0:
256,192,55336,1,8,0:0:0:0:
256,192,55414,1,0,0:0:0:0:
256,192,55491,1,0,0:0:0:0:
256,192,55568,1,8,0:0:0:0:
256,192,55646,1,8,0:0:0:0:
256,192,55800,1,0,0:0:0:0:
256,192,55955,1,8,0:0:0:0:
256,192,56109,1,0,0:0:0:0:
256,192,56187,1,0,0:0:0:0:
256,192,56264,1,0,0:0:0:0:
256,192,56419,1,0,0:0:0:0:
256,192,56573,1,8,0:0:0:0:
256,192,56651,1,8,0:0:0:0:
256,192,56728,1,0,0:0:0:0:
256,192,56883,1,0,0:0:0:0:
256,192,57037,1,8,0:0:0:0:
256,192,57192,1,8,0:0:0:0:
256,192,57347,1,0,0:0:0:0:
256,192,57501,1,8,0:0:0:0:
256,192,57579,1,8,0:0:0:0:
256,192,57656,1,0,0:0:0:0:
256,192,57733,1,0,0:0:0:0:
256,192,57811,1,0,0:0:0:0:
256,192,57965,1,8,0:0:0:0:
256,192,58120,1,0,0:0:0:0:
256,192,58197,1,0,0:0:0:0:
256,192,58274,1,0,0:0:0:0:
256,192,58429,1,8,0:0:0:0:
256,192,58584,1,0,0:0:0:0:
256,192,58661,1,8,0:0:0:0:
256,192,58738,1,0,0:0:0:0:
256,192,58893,1,8,0:0:0:0:
256,192,59048,1,8,0:0:0:0:
256,192,59202,1,0,0:0:0:0:
256,192,59357,1,8,0:0:0:0:
256,192,59434,1,8,0:0:0:0:
256,192,59512,1,8,0:0:0:0:
256,192,59589,1,8,0:0:0:0:
256,192,59666,1,8,0:0:0:0:
256,192,59744,1,8,0:0:0:0:
256,192,59821,1,4,0:0:0:0:
256,192,64769,1,0,0:0:0:0:
256,192,64924,1,0,0:0:0:0:
256,192,65079,1,8,0:0:0:0:
256,192,65233,1,0,0:0:0:0:
256,192,65542,1,0,0:0:0:0:
256,192,65697,1,8,0:0:0:0:
256,192,66006,1,0,0:0:0:0:
256,192,66161,1,8,0:0:0:0:
256,192,66316,1,8,0:0:0:0:
256,192,66470,1,0,0:0:0:0:
256,192,66702,1,0,0:0:0:0:
256,192,66780,1,8,0:0:0:0:
256,192,66857,1,8,0:0:0:0:
256,192,66934,1,0,0:0:0:0:
256,192,67089,1,8,0:0:0:0:
256,192,67244,1,0,0:0:0:0:
256,192,67398,1,0,0:0:0:0:
256,192,67553,1,8,0:0:0:0:
256,192,67707,1,0,0:0:0:0:
256,192,68017,1,0,0:0:0:0:
256,192,68171,1,8,0:0:0:0:
256,192,68481,1,0,0:0:0:0:
256,192,68635,1,8,0:0:0:0:
256,192,68790,1,8,0:0:0:0:
256,192,68945,1,0,0:0:0:0:
256,192,69254,1,0,0:0:0:0:
256,192,69408,1,0,0:0:0:0:
256,192,69563,1,8,0:0:0:0:
256,192,69718,1,0,0:0:0:0:
256,192,69795,1,0,0:0:0:0:
256,192,69872,1,0,0:0:0:0:
256,192,70027,1,8,0:0:0:0:
256,192,70182,1,0,0:0:0:0:
256,192,70259,1,0,0:0:0:0:
256,192,70336,1,0,0:0:0:0:
256,192,70414,1,0,0:0:0:0:
256,192,70491,1,8,0:0:0:0:
256,192,70568,1,8,0:0:0:0:
256,192,70646,1,0,0:0:0:0:
256,192,70800,1,8,0:0:0:0:
256,192,70955,1,0,0:0:0:0:
256,192,71109,1,8,0:0:0:0:
256,192,71187,1,0,0:0:0:0:
256,192,71264,1,8,0:0:0:0:
256,192,71419,1,8,0:0:0:0:
256,192,71496,1,8,0:0:0:0:
256,192,71573,1,8,0:0:0:0:
256,192,71651,1,8,0:0:0:0:
256,192,71728,1,0,0:0:0:0:
256,192,71780,1,8,0:0:0:0:
256,192,71831,1,8,0:0:0:0:
256,192,71883,1,0,0:0:0:0:
256,192,72037,1,8,0:0:0:0:
256,192,72192,1,0,0:0:0:0:
256,192,72269,1,0,0:0:0:0:
256,192,72347,1,0,0:0:0:0:
256,192,72501,1,8,0:0:0:0:
256,192,72656,1,8,0:0:0:0:
256,192,72733,1,0,0:0:0:0:
256,192,72811,1,0,0:0:0:0:
256,192,72888,1,0,0:0:0:0:
256,192,72965,1,8,0:0:0:0:
256,192,73042,1,8,0:0:0:0:
256,192,73120,1,0,0:0:0:0:
256,192,73274,1,8,0:0:0:0:
256,192,73429,1,0,0:0:0:0:
256,192,73584,1,0,0:0:0:0:
256,192,73738,1,8,0:0:0:0:
256,192,73893,1,0,0:0:0:0:
256,192,73970,1,0,0:0:0:0:
256,192,74048,1,0,0:0:0:0:
256,192,74202,1,0,0:0:0:0:
256,192,74357,1,8,0:0:0:0:
256,192,74512,1,8,0:0:0:0:
256,192,74666,1,4,0:0:0:0:
256,192,74821,1,0,0:0:0:0:
256,192,74976,1,8,0:0:0:0:
256,192,75131,1,0,0:0:0:0:
256,192,75208,1,0,0:0:0:0:
256,192,75285,1,0,0:0:0:0:
256,192,75363,1,0,0:0:0:0:
256,192,75440,1,8,0:0:0:0:
256,192,75517,1,8,0:0:0:0:
256,192,75595,1,0,0:0:0:0:
256,192,75749,1,8,0:0:0:0:
256,192,75904,1,0,0:0:0:0:
256,192,76058,1,8,0:0:0:0:
256,192,76136,1,0,0:0:0:0:
256,192,76213,1,8,0:0:0:0:
256,192,76368,1,8,0:0:0:0:
256,192,76445,1,8,0:0:0:0:
256,192,76522,1,8,0:0:0:0:
256,192,76600,1,8,0:0:0:0:
256,192,76677,1,0,0:0:0:0:
256,192,76729,1,8,0:0:0:0:
256,192,76780,1,8,0:0:0:0:
256,192,76832,1,0,0:0:0:0:
256,192,76986,1,8,0:0:0:0:
256,192,77141,1,0,0:0:0:0:
256,192,77218,1,0,0:0:0:0:
256,192,77296,1,0,0:0:0:0:
256,192,77450,1,8,0:0:0:0:
256,192,77605,1,8,0:0:0:0:
256,192,77682,1,0,0:0:0:0:
256,192,77760,1,0,0:0:0:0:
256,192,77837,1,0,0:0:0:0:
256,192,77914,1,8,0:0:0:0:
256,192,77991,1,8,0:0:0:0:
256,192,78069,1,0,0:0:0:0:
256,192,78223,1,8,0:0:0:0:
256,192,78378,1,0,0:0:0:0:
256,192,78533,1,0,0:0:0:0:
256,192,78687,1,8,0:0:0:0:
256,192,78842,1,0,0:0:0:0:
256,192,78997,1,8,0:0:0:0:
256,192,79151,1,0,0:0:0:0:
256,192,79306,1,8,0:0:0:0:
256,192,79461,1,8,0:0:0:0:
256,192,79615,1,0,0:0:0:0:
256,192,79692,1,0,0:0:0:0:
256,192,79769,1,0,0:0:0:0:
256,192,79847,1,0,0:0:0:0:
256,192,79924,1,0,0:0:0:0:
256,192,80079,1,8,0:0:0:0:
256,192,80156,1,0,0:0:0:0:
256,192,80233,1,0,0:0:0:0:
256,192,80311,1,0,0:0:0:0:
256,192,80388,1,8,0:0:0:0:
256,192,80542,1,8,0:0:0:0:
256,192,80620,1,0,0:0:0:0:
256,192,80697,1,0,0:0:0:0:
256,192,80852,1,0,0:0:0:0:
256,192,81006,1,8,0:0:0:0:
256,192,81084,1,8,0:0:0:0:
256,192,81161,1,0,0:0:0:0:
256,192,81316,1,0,0:0:0:0:
256,192,81470,1,8,0:0:0:0:
256,192,81548,1,8,0:0:0:0:
256,192,81625,1,8,0:0:0:0:
256,192,81780,1,0,0:0:0:0:
256,192,81934,1,8,0:0:0:0:
256,192,82012,1,0,0:0:0:0:
256,192,82089,1,0,0:0:0:0:
256,192,82244,1,0,0:0:0:0:
256,192,82398,1,8,0:0:0:0:
256,192,82475,1,8,0:0:0:0:
256,192,82553,1,0,0:0:0:0:
256,192,82707,1,0,0:0:0:0:
256,192,82862,1,8,0:0:0:0:
256,192,82939,1,0,0:0:0:0:
256,192,83017,1,8,0:0:0:0:
256,192,83094,1,0,0:0:0:0:
256,192,83171,1,8,0:0:0:0:
256,192,83326,1,8,0:0:0:0:
256,192,83403,1,0,0:0:0:0:
256,192,83481,1,0,0:0:0:0:
256,192,83558,1,0,0:0:0:0:
256,192,83635,1,0,0:0:0:0:
256,192,83713,1,0,0:0:0:0:
256,192,83790,1,8,0:0:0:0:
256,192,83867,1,0,0:0:0:0:
256,192,83945,1,0,0:0:0:0:
256,192,84022,1,0,0:0:0:0:
256,192,84099,1,8,0:0:0:0:
256,192,84177,1,0,0:0:0:0:
256,192,84254,1,8,0:0:0:0:
256,192,84331,1,0,0:0:0:0:
256,192,84408,1,0,0:0:0:0:
256,192,84486,1,0,0:0:0:0:
256,192,84563,1,8,0:0:0:0:
256,192,84640,1,0,0:0:0:0:
256,192,84718,1,8,0:0:0:0:
256,192,84795,1,0,0:0:0:0:
256,192,84872,1,0,0:0:0:0:
256,192,84950,1,0,0:0:0:0:
256,192,85027,1,0,0:0:0:0:
256,192,85104,1,0,0:0:0:0:
256,192,85182,1,8,0:0:0:0:
256,192,85336,1,0,0:0:0:0:
256,192,85414,1,0,0:0:0:0:
256,192,85491,1,0,0:0:0:0:
256,192,85646,1,8,0:0:0:0:
256,192,85723,1,8,0:0:0:0:
256,192,85800,1,0,0:0:0:0:
256,192,85955,1,0,0:0:0:0:
256,192,86109,1,8,0:0:0:0:
256,192,86264,1,0,0:0:0:0:
256,192,86341,1,0,0:0:0:0:
256,192,86419,1,0,0:0:0:0:
256,192,86573,1,8,0:0:0:0:
256,192,86651,1,0,0:0:0:0:
256,192,86728,1,8,0:0:0:0:
256,192,86805,1,0,0:0:0:0:
256,192,86883,1,8,0:0:0:0:
256,192,87037,1,4,0:0:0:0:
256,192,87192,1,8,0:0:0:0:
256,192,87269,1,8,0:0:0:0:
256,192,87347,1,8,0:0:0:0:
256,192,87501,1,0,0:0:0:0:
256,192,87579,1,0,0:0:0:0:
256,192,87656,1,8,0:0:0:0:
256,192,87811,1,8,0:0:0:0:
256,192,87965,1,0,0:0:0:0:
256,192,88042,1,0,0:0:0:0:
256,192,88120,1,0,0:0:0:0:
256,192,88274,1,0,0:0:0:0:
256,192,88429,1,8,0:0:0:0:
256,192,88584,1,0,0:0:0:0:
256,192,88661,1,0,0:0:0:0:
256,192,88738,1,8,0:0:0:0:
256,192,88893,1,0,0:0:0:0:
256,192,89048,1,0,0:0:0:0:
256,192,89125,1,0,0:0:0:0:
256,192,89202,1,0,0:0:0:0:
256,192,89357,1,8,0:0:0:0:
256,192,89512,1,8,0:0:0:0:
256,192,89589,1,0,0:0:0:0:
256,192,89666,1,8,0:0:0:0:
256,192,89821,1,0,0:0:0:0:
256,192,89898,1,0,0:0:0:0:
256,192,89975,1,0,0:0:0:0:
256,192,90053,1,0,0:0:0:0:
256,192,90130,1,8,0:0:0:0:
256,192,90285,1,8,0:0:0:0:
256,192,90362,1,0,0:0:0:0:
256,192,90439,1,8,0:0:0:0:
256,192,90517,1,0,0:0:0:0:
256,192,90594,1,8,0:0:0:0:
256,192,90749,1,8,0:0:0:0:
256,192,90826,1,0,0:0:0:0:
256,192,90903,1,0,0:0:0:0:
256,192,90981,1,0,0:0:0:0:
256,192,91058,1,0,0:0:0:0:
256,192,91135,1,0,0:0:0:0:
256,192,91213,1,8,0:0:0:0:
256,192,91290,1,0,0:0:0:0:
256,192,91367,1,0,0:0:0:0:
256,192,91445,1,0,0:0:0:0:
256,192,91522,1,8,0:0:0:0:
256,192,91599,1,0,0:0:0:0:
256,192,91677,1,8,0:0:0:0:
256,192,91754,1,0,0:0:0:0:
256,192,91831,1,0,0:0:0:0:
256,192,91908,1,0,0:0:0:0:
256,192,91986,1,8,0:0:0:0:
256,192,92063,1,0,0:0:0:0:
256,192,92140,1,8,0:0:0:0:
256,192,92218,1,0,0:0:0:0:
256,192,92295,1,0,0:0:0:0:
256,192,92372,1,0,0:0:0:0:
256,192,92450,1,0,0:0:0:0:
256,192,92527,1,0,0:0:0:0:
256,192,92604,1,8,0:0:0:0:
256,192,92759,1,0,0:0:0:0:
256,192,92836,1,0,0:0:0:0:
256,192,92914,1,0,0:0:0:0:
256,192,93068,1,8,0:0:0:0:
256,192,93146,1,8,0:0:0:0:
256,192,93223,1,0,0:0:0:0:
256,192,93300,1,0,0:0:0:0:
256,192,93378,1,8,0:0:0:0:
256,192,93532,1,0,0:0:0:0:
256,192,93609,1,0,0:0:0:0:
256,192,93687,1,0,0:0:0:0:
256,192,93764,1,0,0:0:0:0:
256,192,93841,1,0,0:0:0:0:
256,192,93996,1,8,0:0:0:0:
256,192,94073,1,0,0:0:0:0:
256,192,94151,1,8,0:0:0:0:
256,192,94228,1,0,0:0:0:0:
256,192,94305,1,8,0:0:0:0:
256,192,94460,1,4,0:0:0:0:
256,192,94615,1,8,0:0:0:0:
256,192,94692,1,8,0:0:0:0:
256,192,94769,1,0,0:0:0:0:
256,192,94924,1,8,0:0:0:0:
256,192,95079,1,0,0:0:0:0:
256,192,95156,1,0,0:0:0:0:
256,192,95233,1,8,0:0:0:0:
256,192,95311,1,0,0:0:0:0:
256,192,95388,1,8,0:0:0:0:
256,192,95542,1,8,0:0:0:0:
256,192,95697,1,0,0:0:0:0:
256,192,95774,1,0,0:0:0:0:
256,192,95852,1,0,0:0:0:0:
256,192,96006,1,8,0:0:0:0:
256,192,96161,1,0,0:0:0:0:
256,192,96393,1,0,0:0:0:0:
256,192,96470,1,8,0:0:0:0:
256,192,96625,1,0,0:0:0:0:
256,192,96780,1,8,0:0:0:0:
256,192,96934,1,8,0:0:0:0:
256,192,97089,1,0,0:0:0:0:
256,192,97166,1,0,0:0:0:0:
256,192,97244,1,0,0:0:0:0:
256,192,97398,1,8,0:0:0:0:
256,192,97553,1,8,0:0:0:0:
256,192,97630,1,8,0:0:0:0:
256,192,97707,1,0,0:0:0:0:
256,192,97862,1,8,0:0:0:0:
256,192,98017,1,0,0:0:0:0:
256,192,98094,1,0,0:0:0:0:
256,192,98171,1,8,0:0:0:0:
256,192,98326,1,0,0:0:0:0:
256,192,98481,1,8,0:0:0:0:
256,192,98558,1,0,0:0:0:0:
256,192,98635,1,8,0:0:0:0:
256,192,98790,1,0,0:0:0:0:
256,192,98945,1,8,0:0:0:0:
256,192,99022,1,8,0:0:0:0:
256,192,99099,1,8,0:0:0:0:
256,192,99177,1,8,0:0:0:0:
256,192,99254,1,8,0:0:0:0:
256,192,99408,1,0,0:0:0:0:
256,192,99563,1,8,0:0:0:0:
256,192,99640,1,0,0:0:0:0:
256,192,99718,1,0,0:0:0:0:
256,192,99872,1,8,0:0:0:0:
256,192,99950,1,0,0:0:0:0:
256,192,100027,1,0,0:0:0:0:
256,192,100104,1,0,0:0:0:0:
256,192,100182,1,8,0:0:0:0:
256,192,100336,1,0,0:0:0:0:
256,192,100491,1,8,0:0:0:0:
256,192,100568,1,8,0:0:0:0:
256,192,100646,1,0,0:0:0:0:
256,192,100878,1,0,0:0:0:0:
256,192,100955,1,8,0:0:0:0:
256,192,101110,1,0,0:0:0:0:
256,192,101187,1,0,0:0:0:0:
256,192,101264,1,0,0:0:0:0:
256,192,101419,1,0,0:0:0:0:
256,192,101573,1,8,0:0:0:0:
256,192,101651,1,8,0:0:0:0:
256,192,101728,1,8,0:0:0:0:
256,192,101882,1,0,0:0:0:0:
256,192,102037,1,8,0:0:0:0:
256,192,102115,1,8,0:0:0:0:
256,192,102192,1,0,0:0:0:0:
256,192,102347,1,0,0:0:0:0:
256,192,102501,1,0,0:0:0:0:
256,192,102579,1,0,0:0:0:0:
256,192,102656,1,0,0:0:0:0:
256,192,102811,1,0,0:0:0:0:
256,192,102965,1,8,0:0:0:0:
256,192,103042,1,0,0:0:0:0:
256,192,103120,1,0,0:0:0:0:
256,192,103274,1,0,0:0:0:0:
256,192,103429,1,8,0:0:0:0:
256,192,103506,1,0,0:0:0:0:
256,192,103584,1,8,0:0:0:0:
256,192,103738,1,0,0:0:0:0:
256,192,103893,1,8,0:0:0:0:
256,192,104048,1,8,0:0:0:0:
256,192,104125,1,8,0:0:0:0:
256,192,104202,1,8,0:0:0:0:
256,192,104280,1,8,0:0:0:0:
256,192,104357,1,4,0:0:0:0:
256,192,104512,1,8,0:0:0:0:
256,192,104589,1,8,0:0:0:0:
256,192,104666,1,0,0:0:0:0:
256,192,104821,1,8,0:0:0:0:
256,192,104975,1,0,0:0:0:0:
256,192,105053,1,0,0:0:0:0:
256,192,105130,1,0,0:0:0:0:
256,192,105207,1,0,0:0:0:0:
256,192,105285,1,8,0:0:0:0:
256,192,105439,1,0,0:0:0:0:
256,192,105594,1,8,0:0:0:0:
256,192,105671,1,8,0:0:0:0:
256,192,105749,1,8,0:0:0:0:
256,192,105903,1,0,0:0:0:0:
256,192,106058,1,8,0:0:0:0:
256,192,106135,1,0,0:0:0:0:
256,192,106213,1,0,0:0:0:0:
256,192,106367,1,8,0:0:0:0:
256,192,106522,1,0,0:0:0:0:
256,192,106599,1,8,0:0:0:0:
256,192,106677,1,0,0:0:0:0:
256,192,106831,1,8,0:0:0:0:
256,192,106986,1,0,0:0:0:0:
256,192,107063,1,0,0:0:0:0:
256,192,107140,1,0,0:0:0:0:
256,192,107218,1,0,0:0:0:0:
256,192,107295,1,8,0:0:0:0:
256,192,107450,1,0,0:0:0:0:
256,192,107604,1,8,0:0:0:0:
256,192,107682,1,8,0:0:0:0:
256,192,107759,1,0,0:0:0:0:
256,192,107914,1,8,0:0:0:0:
256,192,107965,1,8,0:0:0:0:
256,192,108017,1,8,0:0:0:0:
256,192,108068,1,0,0:0:0:0:
256,192,108223,1,8,0:0:0:0:
256,192,108378,1,0,0:0:0:0:
256,192,108532,1,8,0:0:0:0:
256,192,108687,1,0,0:0:0:0:
256,192,108764,1,0,0:0:0:0:
256,192,108841,1,8,0:0:0:0:
256,192,108919,1,8,0:0:0:0:
256,192,108996,1,8,0:0:0:0:
256,192,109073,1,8,0:0:0:0:
256,192,109151,1,0,0:0:0:0:
256,192,109228,1,8,0:0:0:0:
256,192,109305,1,4,0:0:0:0:
256,192,109460,1,8,0:0:0:0:
256,192,109615,1,0,0:0:0:0:
256,192,109769,1,8,0:0:0:0:
256,192,109847,1,8,0:0:0:0:
256,192,109924,1,0,0:0:0:0:
256,192,110001,1,0,0:0:0:0:
256,192,110079,1,8,0:0:0:0:
256,192,110233,1,0,0:0:0:0:
256,192,110388,1,8,0:0:0:0:
256,192,110465,1,8,0:0:0:0:
256,192,110542,1,0,0:0:0:0:
256,192,110620,1,0,0:0:0:0:
256,192,110697,1,0,0:0:0:0:
256,192,110852,1,0,0:0:0:0:
256,192,111006,1,8,0:0:0:0:
256,192,111084,1,0,0:0:0:0:
256,192,111161,1,0,0:0:0:0:
256,192,111316,1,8,0:0:0:0:
256,192,111470,1,0,0:0:0:0:
256,192,111625,1,0,0:0:0:0:
256,192,111702,1,8,0:0:0:0:
256,192,111780,1,0,0:0:0:0:
256,192,111934,1,8,0:0:0:0:
256,192,112012,1,8,0:0:0:0:
256,192,112089,1,0,0:0:0:0:
256,192,112244,1,0,0:0:0:0:
256,192,112398,1,8,0:0:0:0:
256,192,112475,1,0,0:0:0:0:
256,192,112553,1,0,0:0:0:0:
256,192,112630,1,0,0:0:0:0:
256,192,112707,1,8,0:0:0:0:
256,192,112862,1,0,0:0:0:0:
256,192,113017,1,8,0:0:0:0:
256,192,113094,1,8,0:0:0:0:
256,192,113171,1,0,0:0:0:0:
256,192,113326,1,8,0:0:0:0:
256,192,113481,1,0,0:0:0:0:
256,192,113532,1,0,0:0:0:0:
256,192,113584,1,0,0:0:0:0:
256,192,113635,1,0,0:0:0:0:
148,96,113790,2,0,B|180:384|180:384|148:64|148:64|394:31|394:31|149:64|149:64|161:192|161:192|257:192,1,1330
