osu file format v14

[General]
AudioFilename: audio.mp3
AudioLeadIn: 0
PreviewTime: 94458
Countdown: 0
SampleSet: None
StackLeniency: 0.7
Mode: 0
LetterboxInBreaks: 0
WidescreenStoryboard: 0

[Editor]
DistanceSpacing: 1
BeatDivisor: 6
GridSize: 32
TimelineZoom: 3.499999

[Metadata]
Title:Further
TitleUnicode:퍼더
Artist:Doin
ArtistUnicode:도인
Creator:Down
Version:Ultra
Source:PUMP IT UP – 2017 PRIME 2
Tags:andamiro piu milr_ [_white_music_] beomsan supporter_plz zzx ancul garalulu
BeatmapID:1640136
BeatmapSetID:780833

[Difficulty]
HPDrainRate:5
CircleSize:4.2
OverallDifficulty:9
ApproachRate:9.6
SliderMultiplier:2
SliderTickRate:1

[Events]
//Background and Video events
0,0,"doin.jpg",0,0
//Break Periods
2,30336,32100
2,60020,64259
//Storyboard Layer 0 (Background)
//Storyboard Layer 1 (Fail)
//Storyboard Layer 2 (Pass)
//Storyboard Layer 3 (Foreground)
//Storyboard Sound Samples

[TimingPoints]
5394,309.278350515464,4,3,1,40,1,0
5394,-200,4,3,1,40,0,0
10342,-100,4,3,1,70,0,0
11038,-100,4,3,1,5,0,0
11115,-100,4,3,1,70,0,0
12275,-100,4,3,1,5,0,0
12352,-100,4,3,1,70,0,0
13512,-100,4,3,1,5,0,0
13589,-100,4,3,1,70,0,0
14749,-100,4,3,1,5,0,0
14826,-100,4,3,1,70,0,0
15986,-100,4,3,1,5,0,0
16064,-100,4,3,1,70,0,0
17223,-100,4,3,1,5,0,0
17301,-100,4,3,1,70,0,0
18461,-100,4,3,1,5,0,0
18538,-100,4,3,1,70,0,0
20935,-100,4,3,1,5,0,0
21012,-100,4,3,1,70,0,0
22172,-100,4,3,1,5,0,0
22249,-100,4,3,1,70,0,0
23409,-100,4,3,1,5,0,0
23486,-100,4,3,1,70,0,0
24646,-100,4,3,1,5,0,0
24723,-100,4,3,1,70,0,0
25883,-100,4,3,1,5,0,0
25961,-100,4,3,1,70,0,0
27120,-100,4,3,1,5,0,0
27198,-100,4,3,1,70,0,0
30136,-100,4,3,1,50,0,0
35084,-100,4,3,1,70,0,0
40033,-100,4,3,1,80,0,1
41270,463.918721440004,3,3,1,80,1,0
41270,-58.8233956408111,3,3,1,80,0,0
42661,463.918721440004,4,3,1,80,1,0
42661,-66.6664948453608,4,3,1,80,0,0
43588,463.918721440004,3,3,1,80,1,0
43588,-66.6664948453608,3,3,1,80,0,0
44979,309.278350515464,4,3,1,80,1,1
46216,463.918721440004,3,3,1,80,1,0
46216,-58.8233956408111,3,3,1,80,0,0
48999,463.918721440004,4,3,1,80,1,0
48999,-66.6664948453608,4,3,1,80,0,0
49926,309.278350515464,4,3,1,80,1,1
51163,463.918721440004,3,3,1,80,1,0
51163,-58.8233956408111,3,3,1,80,0,0
52554,463.918721440004,4,3,1,80,1,0
52554,-66.6666666666667,4,3,1,80,0,0
53481,463.918721440004,3,3,1,80,1,0
53481,-66.6666666666667,3,3,1,80,0,0
54873,309.278350515464,4,3,1,80,1,1
56110,463.918721440004,3,3,1,80,1,0
56110,-58.8233956408111,3,3,1,80,0,0
58893,463.918721440004,4,3,1,80,1,0
58893,-66.6664948453608,4,3,1,80,0,0
59356,-100,4,3,1,69,0,0
59743,-100,4,3,1,5,0,0
59820,309.278350515464,4,3,1,80,1,0
64768,-200,4,3,1,50,0,0
69716,-100,4,3,1,70,0,0
70412,-100,4,3,1,5,0,0
70490,-100,4,3,1,70,0,0
71649,-100,4,3,1,5,0,0
71727,-100,4,3,1,70,0,0
72887,-100,4,3,1,5,0,0
72964,-100,4,3,1,70,0,0
74124,-100,4,3,1,5,0,0
74201,-100,4,3,1,70,0,0
75361,-100,4,3,1,5,0,0
75438,-100,4,3,1,70,0,0
76598,-100,4,3,1,5,0,0
76675,-100,4,3,1,70,0,0
79613,463.918721440004,4,3,1,80,1,0
79613,-66.6664948453608,4,3,1,80,0,0
82860,-50,4,3,1,80,0,0
83324,-66.6666666666667,4,3,1,80,0,0
86571,-50,4,3,1,80,0,0
87035,-66.6666666666667,4,3,1,80,0,0
90283,-50,4,3,1,80,0,0
90747,-66.6666666666667,4,3,1,80,0,0
93994,-50,4,3,1,80,0,0
94458,309.278350515464,4,3,1,80,1,1
95695,463.918721440004,3,3,1,70,1,0
95695,-58.8233956408111,3,3,1,70,0,0
97086,463.918721440004,4,3,1,70,1,0
97086,-66.6664948453608,4,3,1,70,0,0
98013,463.918721440004,3,3,1,70,1,0
98013,-66.6664948453608,3,3,1,70,0,0
99404,309.278350515464,4,3,1,80,1,1
100641,463.918721440004,3,3,1,70,1,0
100641,-58.8233956408111,3,3,1,70,0,0
103424,463.918721440004,4,3,1,70,1,0
103424,-66.6664948453608,4,3,1,70,0,0
104351,309.278350515464,4,3,1,80,1,1
105588,463.918721440004,3,3,1,80,1,0
105588,-58.8233956408111,3,3,1,80,0,0
106979,-66.6666666666667,3,3,1,80,0,0
107443,309.278350515464,4,3,1,80,1,0
108061,309.278350515464,4,3,1,80,1,0
108679,-100,4,3,1,50,0,0
109298,-100,4,3,1,80,0,1
110535,463.918721440004,3,3,1,80,1,0
110535,-66.6664948453608,3,3,1,80,0,0
113318,463.918721440004,4,3,1,80,1,0
113318,-66.6664948453608,4,3,1,80,0,0
116739,-66.6664948453608,4,3,1,5,0,0

[Colours]
Combo1 : 128,128,255
Combo2 : 0,64,128
Combo3 : 0,128,128
SliderTrackOverride : 192,192,192

[HitObjects]
102,203,5394,5,0,0:0:0:0:
115,211,5548,1,0,0:0:0:0:
199,222,5702,5,2,0:2:0:0:
124,305,5856,5,0,0:0:0:0:
137,297,6012,1,0,0:0:0:0:
150,289,6167,1,0,0:0:0:0:
199,222,6321,5,2,0:2:0:0:
213,228,6476,1,0,0:0:0:0:
282,279,6631,5,0,0:0:0:0:
295,271,6785,1,0,0:0:0:0:
342,203,6940,5,2,0:2:0:0:
380,296,7095,5,0,0:0:0:0:
387,282,7248,1,0,0:0:0:0:
394,269,7404,1,0,0:0:0:0:
342,203,7557,5,2,0:2:0:0:
330,194,7712,1,0,0:0:0:0:
421,166,7868,6,0,P|419:146|412:111,1,50
345,66,8176,5,2,0:2:0:0:
424,36,8331,5,0,0:0:0:0:
431,22,8485,1,0,0:0:0:0:
438,9,8641,1,0,0:0:0:0:
345,66,8795,5,2,0:2:0:0:
334,57,8949,1,0,0:0:0:0:
413,116,9104,5,0,0:0:0:0:
373,186,9258,1,0,0:0:0:0:
423,249,9413,1,2,0:2:0:0:
356,256,10341,5,4,0:1:0:0:
247,349,10496,1,0,0:0:0:0:
128,150,10651,2,0,P|146:180|154:206,1,50,8|0,0:0|0:0,0:0:0:0:
113,300,10806,6,0,P|188:276|276:265,1,150,2|0,0:1|0:0,0:0:0:0:
274,274,11115,2,0,L|283:199,1,50,2|0,0:1|0:0,0:0:0:0:
265,80,11269,2,0,P|227:123|225:172,1,100,8|0,0:0|0:0,0:0:0:0:
356,256,11578,5,0,0:0:0:0:
405,153,11733,2,0,P|417:185|415:201,1,50,0|0,0:0|0:0,0:0:0:0:
339,335,11887,1,10,0:0:0:0:
200,241,12043,6,0,P|139:193|49:220,1,150,2|0,0:1|0:0,0:0:0:0:
57,213,12351,1,0,0:0:0:0:
46,227,12429,1,0,0:0:0:0:
42,244,12506,2,0,P|48:273|63:310,1,50,10|0,0:0|0:0,0:0:0:0:
158,355,12661,2,0,P|152:326|137:289,1,50,0|0,0:0|0:0,0:0:0:0:
153,173,12815,5,0,0:0:0:0:
270,295,12970,1,0,0:0:0:0:
308,116,13125,2,0,P|317:153|329:198,1,50,8|0,0:0|0:0,0:0:0:0:
449,250,13280,6,0,B|415:246|391:202|391:202|374:242|321:248,1,150,2|0,0:0|0:0,0:0:0:0:
344,261,13589,2,0,P|353:292|350:324,1,50,2|0,0:0|0:0,0:0:0:0:
472,174,13744,2,0,P|495:121|483:66,1,100,8|0,0:0|0:0,0:0:0:0:
342,39,14053,5,0,0:0:0:0:
254,216,14208,1,0,0:0:0:0:
85,122,14362,2,0,L|158:106,1,50,10|0,0:0|0:0,0:0:0:0:
332,193,14517,2,0,P|279:138|208:149,1,150,2|0,0:1|0:0,0:0:0:0:
197,160,14826,5,0,0:0:0:0:
321,273,14981,1,8,0:0:0:0:
302,56,15136,1,2,0:1:0:0:
254,216,15290,5,0,0:0:0:0:
419,179,15445,1,0,0:0:0:0:
261,332,15600,2,0,P|233:328|207:323,1,50,8|0,0:0|0:0,0:0:0:0:
321,273,15754,6,0,B|416:263|369:317|470:306,1,150,2|0,0:1|0:0,0:0:0:0:
478,315,16064,2,0,P|476:287|464:247,1,50,2|0,0:1|0:0,0:0:0:0:
291,101,16218,2,0,P|281:155|284:212,1,100,8|0,0:0|0:0,0:0:0:0:
342,351,16528,5,0,0:0:0:0:
282,199,16682,2,0,P|260:184|205:169,1,50
85,249,16837,1,10,0:0:0:0:
158,138,16991,6,0,B|152:196|152:196|171:224|171:224|165:295,1,150,2|0,0:1|0:0,0:0:0:0:
160,298,17301,1,0,0:0:0:0:
177,293,17378,1,0,0:0:0:0:
194,289,17455,2,0,P|228:275|254:260,1,50,10|0,0:0|0:0,0:0:0:0:
288,150,17610,2,0,P|282:186|283:216,1,50
315,318,17765,5,0,0:0:0:0:
512,223,17919,1,0,0:0:0:0:
371,129,18074,2,0,P|363:106|365:71,1,50,8|0,0:0|0:0,0:0:0:0:
471,0,18229,6,0,P|485:91|441:147,1,150,2|0,0:1|0:0,0:0:0:0:
447,152,18538,2,0,L|510:143,1,50,2|0,0:1|0:0,0:0:0:0:
382,211,18692,2,0,L|259:196,1,100,8|0,0:0|0:0,0:0:0:0:
151,54,19002,5,0,0:0:0:0:
231,268,19156,1,0,0:0:0:0:
284,119,19311,5,10,0:0:0:0:
126,166,19466,1,2,0:1:0:0:
277,252,19620,6,0,P|244:259|217:277,1,50,8|0,0:0|0:0,0:0:0:0:
78,248,19775,2,0,P|110:255|137:273,1,50
280,334,19930,5,8,0:0:0:0:
142,154,20084,1,2,0:1:0:0:
79,331,20239,5,4,0:1:0:0:
231,268,20394,1,0,0:0:0:0:
0,216,20548,2,0,L|88:202,1,50,8|0,0:0|0:0,0:0:0:0:
262,191,20704,6,0,P|193:193|147:273,1,150,2|0,0:1|0:0,0:0:0:0:
134,244,21013,2,0,P|132:278|120:315,1,50,2|0,0:1|0:0,0:0:0:0:
265,361,21168,2,0,P|250:311|222:251,1,100,8|0,0:0|0:0,0:0:0:0:
111,151,21476,5,0,0:1:0:0:
322,80,21631,2,0,P|319:105|311:128,1,50,0|0,0:1|0:0,0:0:0:0:
230,267,21785,1,10,0:0:0:0:
347,202,21941,6,0,B|406:191|406:191|439:201|439:201|508:188,1,150,2|0,0:1|0:0,0:0:0:0:
501,175,22250,1,0,0:0:0:0:
494,158,22326,1,0,0:0:0:0:
487,142,22404,2,0,P|468:108|450:91,1,50,10|0,0:0|0:0,0:0:0:0:
405,277,22558,2,0,P|424:311|442:328,1,50,0|0,0:0|0:0,0:0:0:0:
510,359,22713,5,0,0:0:0:0:
406,170,22868,1,0,0:1:0:0:
333,331,23022,2,0,L|248:322,1,50,8|0,0:0|0:0,0:0:0:0:
123,288,23177,6,0,B|231:262|231:262|206:286|199:312,1,150,2|0,0:1|0:0,0:0:0:0:
203,309,23486,2,0,P|203:343|214:370,1,50,2|0,0:1|0:0,0:0:0:0:
319,249,23641,2,0,P|316:197|266:145,1,100,8|0,0:0|0:0,0:0:0:0:
128,122,23950,5,0,0:0:0:0:
283,325,24105,1,0,0:0:0:0:
123,288,24259,2,0,P|126:263|136:228,1,50,10|0,0:0|0:0,0:0:0:0:
159,45,24414,6,0,P|208:106|172:193,1,150,2|0,0:1|0:0,0:0:0:0:
199,189,24723,2,0,P|232:183|270:178,1,50,0|0,0:0|0:0,0:0:0:0:
309,113,24878,5,8,0:0:0:0:
207,280,25033,1,2,0:1:0:0:
128,122,25187,5,0,0:0:0:0:
324,224,25342,1,0,0:0:0:0:
436,48,25497,2,0,L|433:97,1,50,8|0,0:0|0:0,0:0:0:0:
306,137,25651,6,0,B|362:146|362:146|390:174|390:174|451:185,1,150,2|0,0:1|0:0,0:0:0:0:
453,198,25961,2,0,P|420:212|385:234,1,50,2|0,0:1|0:0,0:0:0:0:
327,316,26115,2,0,P|309:273|331:215,1,100,8|0,0:0|0:0,0:0:0:0:
433,97,26424,5,0,0:0:0:0:
464,307,26579,2,0,P|429:302|403:305,1,50,0|0,0:0|0:0,0:0:0:0:
262,369,26734,1,10,0:0:0:0:
323,223,26888,6,0,B|321:124|321:124|303:149|274:159,1,150,2|0,0:1|0:0,0:0:0:0:
265,159,27198,1,0,0:0:0:0:
248,153,27275,1,0,0:0:0:0:
231,148,27352,2,0,P|224:126|224:98,1,50,10|0,0:0|0:0,0:0:0:0:
393,52,27507,2,0,P|400:74|399:101,1,50
245,239,27662,5,0,0:0:0:0:
379,291,27816,1,0,0:0:0:0:
209,363,27971,6,0,P|201:326|204:282,1,50,8|0,0:0|0:0,0:0:0:0:
315,185,28125,1,2,0:1:0:0:
289,328,28280,5,0,0:0:0:0:
235,162,28435,1,2,0:1:0:0:
453,329,28589,6,0,P|461:292|458:248,1,50,8|0,0:0|0:0,0:0:0:0:
399,67,28744,1,0,0:0:0:0:
289,327,28899,5,8,0:0:0:0:
509,210,29053,1,0,0:0:0:0:
166,214,29208,5,10,0:0:0:0:
379,291,29362,1,2,0:0:0:0:
210,87,29517,5,8,0:0:0:0:
289,327,29672,1,0,0:0:0:0:
296,43,29826,5,8,0:0:0:0:
206,369,29981,1,2,0:0:0:0:
35,173,30136,5,4,0:1:0:0:
96,276,32609,5,4,0:0:0:0:
96,276,32918,1,6,0:0:0:0:
96,276,33228,1,4,0:0:0:0:
96,276,33537,1,4,0:0:0:0:
96,276,33846,5,6,0:0:0:0:
96,276,34155,1,4,0:0:0:0:
96,276,34465,1,6,0:0:0:0:
96,276,34774,1,4,0:0:0:0:
168,320,34929,5,10,0:0:0:0:
246,285,35083,5,4,0:0:0:0:
246,285,35238,1,0,0:0:0:0:
192,140,35393,2,0,B|164:188|164:188|174:240,1,100,14|0,0:0|0:0,0:0:0:0:
313,346,35702,5,4,0:0:0:0:
377,289,35857,2,0,P|372:244|359:177,1,100,2|12,0:0|0:0,0:0:0:0:
259,91,36166,1,0,0:0:0:0:
362,190,36321,6,0,P|416:180|452:137,1,100,6|0,0:0|0:0,0:0:0:0:
276,171,36631,1,12,0:0:0:0:
458,254,36785,1,2,0:0:0:0:
373,111,36940,5,6,0:0:0:0:
295,250,37095,1,2,0:0:0:0:
449,337,37249,1,12,0:0:0:0:
214,226,37404,2,0,P|198:204|195:172,1,50,2|0,0:0|0:0,0:0:0:0:
229,107,37558,5,4,0:0:0:0:
229,107,37713,1,0,0:0:0:0:
401,86,37868,2,0,B|358:62|358:62|289:71,1,100,14|0,0:0|0:0,0:0:0:0:
194,181,38177,5,4,0:0:0:0:
126,132,38332,2,0,P|132:79|148:15,1,100,2|12,0:0|0:0,0:0:0:0:
25,253,38641,1,0,0:0:0:0:
194,181,38796,6,0,P|207:234|176:283,1,100,6|0,0:0|0:0,0:0:0:0:
126,132,39105,1,12,0:0:0:0:
248,333,39259,1,2,0:0:0:0:
126,224,39414,5,14,0:0:0:0:
325,85,39569,1,2,0:0:0:0:
164,346,39723,5,12,0:0:0:0:
53,180,39878,1,2,0:0:0:0:
293,262,40033,6,0,P|343:234|406:239,1,100,4|0,0:1|0:0,0:0:0:0:
248,333,40342,1,8,0:0:0:0:
193,99,40497,2,0,P|213:130|218:170,1,50
220,224,40651,6,0,L|97:207,1,100,0|0,0:0|0:0,0:0:0:0:
301,166,40961,1,8,0:0:0:0:
364,323,41115,1,0,0:0:0:0:
364,323,41192,1,0,0:0:0:0:
364,323,41270,6,0,P|405:305|419:213,1,113.333592733341,8|0,0:0|0:0,0:0:0:0:
407,119,41500,1,0,0:0:0:0:
407,119,41578,2,0,P|394:153|391:201,1,56.6667963666706,0|0,0:0|0:0,0:0:0:0:
349,242,41733,6,0,L|198:277,1,113.333592733341,8|0,0:0|0:0,0:0:0:0:
130,359,41965,1,0,0:0:0:0:
130,359,42043,2,0,B|127:330|127:330|138:295,1,56.6667963666706
167,227,42197,6,0,B|179:188|179:188|170:167|170:167|182:109,2,113.333592733341,8|8|0,0:0|0:0|0:0,0:0:0:0:
214,343,42661,5,8,0:0:0:0:
84,244,42815,1,0,0:0:0:0:
84,244,42892,1,0,0:0:0:0:
84,244,42970,2,0,P|75:221|69:195,1,50.000127792685
48,316,43124,5,8,0:0:0:0:
263,157,43279,1,0,0:0:0:0:
263,157,43356,1,0,0:0:0:0:
263,157,43434,2,0,P|272:134|278:108,1,50.000127792685
141,48,43588,5,8,0:0:0:0:
167,227,43742,1,0,0:0:0:0:
167,227,43819,1,0,0:0:0:0:
167,227,43897,2,0,L|241:220,1,50.000127792685
426,253,44051,6,0,P|377:253|327:314,1,100.00025558537,8|0,0:0|0:0,0:0:0:0:
338,283,44283,1,0,0:0:0:0:
338,283,44361,1,0,0:0:0:0:
212,355,44515,6,0,P|205:331|203:306,1,50.000127792685,10|0,0:0|0:0,0:0:0:0:
295,200,44670,2,0,P|294:180|281:140,3,50.000127792685,10|8|10|8,0:0|0:0|0:0|0:0,0:0:0:0:
280,221,44979,6,0,L|399:207,1,100
202,181,45288,1,8,0:0:0:0:
297,15,45442,2,0,P|311:46|304:84,1,50
281,141,45597,6,0,L|400:127,1,100
203,100,45906,1,8,0:0:0:0:
258,300,46061,1,0,0:0:0:0:
258,300,46138,1,0,0:0:0:0:
258,300,46216,6,0,P|186:284|128:337,1,113.333592733341,8|0,0:0|0:0,0:0:0:0:
20,274,46447,1,0,0:0:0:0:
20,274,46525,2,0,P|52:271|94:262,1,56.6667963666706
122,92,46679,6,0,B|155:127|155:127|133:214,1,113.333592733341,8|0,0:0|0:0,0:0:0:0:
0,194,46911,1,0,0:0:0:0:
0,194,46989,2,0,P|32:191|74:182,1,56.6667963666706
208,243,47143,6,0,P|266:228|294:164,2,113.333592733341,8|8|0,0:0|0:0|0:0,0:0:0:0:
122,92,47607,5,8,0:0:0:0:
76,266,47762,1,0,0:0:0:0:
76,266,47839,1,0,0:0:0:0:
76,266,47917,2,0,P|73:305|58:350,1,56.6667963666706
42,68,48071,5,8,0:0:0:0:
208,243,48225,1,0,0:0:0:0:
208,243,48302,1,0,0:0:0:0:
208,243,48380,2,0,P|211:282|226:327,1,56.6667963666706,0|0,0:0|0:0,0:0:0:0:
129,194,48534,5,8,0:0:0:0:
280,107,48690,1,0,0:0:0:0:
280,107,48767,1,0,0:0:0:0:
280,107,48844,2,0,P|319:110|364:125,1,56.6667963666706
428,251,48999,5,8,0:0:0:0:
362,352,49153,2,0,P|361:329|373:284,1,50.000127792685
473,132,49308,2,0,P|474:157|470:182,1,50.000127792685,0|0,0:0|0:0,0:0:0:0:
291,253,49462,6,0,P|288:219|305:188,1,50.000127792685,10|0,0:0|0:0,0:0:0:0:
359,121,49617,2,0,L|340:54,3,50.000127792685,10|8|10|8,0:0|0:0|0:0|0:0,0:0:0:0:
380,140,49927,6,0,P|454:112|491:121,1,100
363,225,50235,1,8,0:0:0:0:
222,123,50389,2,0,L|239:52,1,50
140,141,50544,6,0,P|121:177|151:269,1,100,0|0,0:0|0:0,0:0:0:0:
242,369,50853,1,8,0:0:0:0:
64,308,51008,1,0,0:0:0:0:
64,308,51085,1,0,0:0:0:0:
64,308,51164,6,0,P|139:313|205:323,1,113.333592733341,8|0,0:0|0:0,0:0:0:0:
252,285,51394,1,0,0:0:0:0:
252,285,51472,2,0,P|264:258|255:210,1,56.6666677474976
250,66,51626,6,0,P|214:116|220:177,1,113.333335494995,8|0,0:0|0:0,0:0:0:0:
185,240,51858,1,0,0:0:0:0:
185,240,51936,2,0,L|94:226,1,56.6666677474976
297,139,52090,6,0,P|352:130|421:109,2,113.333335494995,8|8|0,0:0|0:0|0:0,0:0:0:0:
157,49,52555,5,8,0:0:0:0:
21,177,52708,1,0,0:0:0:0:
21,177,52785,1,0,0:0:0:0:
21,177,52863,2,0,L|92:165,1,50.0000019073487
250,66,53017,5,8,0:0:0:0:
185,240,53172,1,0,0:0:0:0:
185,240,53249,1,0,0:0:0:0:
185,240,53327,2,0,L|114:228,1,50.0000019073487
34,89,53481,5,8,0:0:0:0:
75,298,53635,1,0,0:0:0:0:
75,298,53712,1,0,0:0:0:0:
75,298,53790,2,0,P|77:337|88:375,1,50.0000019073487
266,207,53945,6,0,P|277:157|246:110,1,100.00025558537,8|0,0:0|0:0,0:0:0:0:
254,116,54176,1,0,0:0:0:0:
254,116,54254,1,0,0:0:0:0:
129,22,54408,6,0,P|122:55|120:90,1,50.000127792685,10|0,0:0|0:0,0:0:0:0:
166,187,54563,2,0,P|173:154|175:119,3,50.000127792685,10|8|10|8,0:0|0:0|0:0|0:0,0:0:0:0:
152,209,54873,6,0,L|277:192,1,100
82,164,55182,1,8,0:0:0:0:
237,277,55336,2,0,L|306:266,1,50
337,203,55491,6,0,P|358:152|344:110,1,100
374,277,55800,1,8,0:0:0:0:
264,45,55955,1,0,0:0:0:0:
264,45,56032,1,0,0:0:0:0:
264,45,56110,6,0,P|246:119|285:140,1,113.333592733341,8|0,0:0|0:0,0:0:0:0:
344,111,56341,1,0,0:0:0:0:
344,111,56419,2,0,P|364:98|405:93,1,56.6667963666706
447,205,56573,6,0,L|308:187,1,113.333592733341,8|0,0:0|0:0,0:0:0:0:
258,221,56805,1,0,0:0:0:0:
258,221,56883,2,0,P|276:253|273:300,1,56.6667963666706
185,380,57037,6,0,P|170:335|211:271,2,113.333592733341,8|8|0,0:0|0:0|0:0,0:0:0:0:
334,334,57501,5,8,0:0:0:0:
177,200,57656,1,0,0:0:0:0:
177,200,57733,1,0,0:0:0:0:
177,200,57811,2,0,L|102:219,1,56.6667963666706
82,314,57965,5,8,0:0:0:0:
211,121,58120,1,0,0:0:0:0:
211,121,58197,1,0,0:0:0:0:
211,121,58274,2,0,L|286:140,1,56.6667963666706
253,338,58429,5,8,0:0:0:0:
362,132,58584,1,0,0:0:0:0:
362,132,58661,1,0,0:0:0:0:
362,132,58738,2,0,P|365:99|349:61,1,56.6667963666706
416,203,58893,5,8,0:0:0:0:
336,359,59047,2,0,P|358:351|393:346,1,50.000127792685
512,286,59202,2,0,P|490:278|455:273,1,50.000127792685,2|0,0:0|0:0,0:0:0:0:
266,307,59356,6,2,P|239:255|288:157,1,166.666666666667,10|0,0:0|2:0,0:0:0:0:
307,150,59820,5,4,0:1:0:0:
307,150,64768,5,0,0:0:0:0:
318,138,64923,1,0,0:0:0:0:
399,159,65076,5,2,0:2:0:0:
381,265,65232,5,0,0:0:0:0:
392,253,65387,1,0,0:0:0:0:
403,241,65541,1,0,0:0:0:0:
327,324,65696,5,2,0:2:0:0:
316,312,65850,1,0,0:0:0:0:
305,230,66005,5,0,0:0:0:0:
227,202,66160,1,0,0:0:0:0:
145,216,66314,1,2,0:2:0:0:
305,230,66469,5,0,0:0:0:0:
290,148,66624,1,0,0:0:0:0:
237,84,66778,1,0,0:0:0:0:
305,230,66933,5,2,0:2:0:0:
368,176,67088,1,0,0:0:0:0:
336,303,67242,5,0,0:0:0:0:
346,316,67397,1,0,0:0:0:0:
253,293,67551,5,2,0:2:0:0:
218,217,67706,5,0,0:0:0:0:
201,219,67861,1,0,0:0:0:0:
184,221,68015,1,0,0:0:0:0:
254,144,68170,5,2,0:2:0:0:
243,130,68325,1,0,0:0:0:0:
343,159,68479,5,0,0:0:0:0:
381,234,68634,1,0,0:0:0:0:
436,314,68789,5,2,0:2:0:0:
398,239,68943,1,0,0:0:0:0:
332,143,69098,5,0,0:0:0:0:
381,234,69252,1,0,0:0:0:0:
447,330,69407,5,2,0:2:0:0:
398,239,69561,1,0,0:0:0:0:
512,278,69715,5,4,0:1:0:0:
341,303,69870,1,0,0:0:0:0:
464,190,70025,2,0,P|470:170|468:127,1,50,8|0,0:0|0:0,0:0:0:0:
401,28,70180,6,0,P|361:86|397:160,1,150,2|0,0:0|0:0,0:0:0:0:
376,168,70490,2,0,P|351:166|310:158,1,50,2|0,0:0|0:0,0:0:0:0:
164,140,70644,2,0,P|214:115|268:109,1,100,8|0,0:0|0:0,0:0:0:0:
402,249,70953,5,0,0:0:0:0:
493,91,71108,2,0,P|469:95|420:92,1,50
290,37,71263,1,10,0:0:0:0:
249,193,71417,6,0,P|229:246|281:340,1,150,2|0,0:0|0:0,0:0:0:0:
280,336,71727,1,0,0:0:0:0:
296,341,71803,1,0,0:0:0:0:
313,341,71881,2,0,P|339:336|386:329,1,50,10|0,0:0|0:0,0:0:0:0:
249,193,72036,2,0,P|223:188|176:181,1,50
147,333,72191,5,0,0:0:0:0:
318,252,72344,1,0,0:0:0:0:
167,61,72499,2,0,P|182:86|186:128,1,50,8|0,0:0|0:0,0:0:0:0:
108,257,72655,6,0,B|82:216|82:216|112:101,1,150,2|0,0:0|0:0,0:0:0:0:
95,106,72964,2,0,L|39:120,1,50,2|0,0:0|0:0,0:0:0:0:
171,204,73118,2,0,L|286:220,1,100,8|0,0:0|0:0,0:0:0:0:
60,325,73428,5,0,0:0:0:0:
0,186,73582,1,0,0:0:0:0:
171,204,73737,2,0,P|195:198|222:188,1,50,10|0,0:0|0:0,0:0:0:0:
201,81,73892,6,0,P|124:88|112:165,1,150,2|0,0:0|0:0,0:0:0:0:
95,164,74201,1,0,0:0:0:0:
299,222,74356,1,8,0:0:0:0:
134,280,74510,1,2,0:0:0:0:
272,128,74665,5,0,0:0:0:0:
355,282,74820,1,0,0:0:0:0:
481,38,74974,2,0,P|480:62|473:86,1,50,8|0,0:0|0:0,0:0:0:0:
428,240,75129,6,0,B|407:135|407:135|429:159|449:163,1,150,2|0,0:0|0:0,0:0:0:0:
454,170,75438,2,0,P|486:169|508:163,1,50,2|0,0:0|0:0,0:0:0:0:
397,57,75593,2,0,P|351:76|329:139,1,100,8|0,0:0|0:0,0:0:0:0:
355,282,75901,5,0,0:0:0:0:
243,123,76057,2,0,P|252:144|261:176,1,50
299,345,76210,1,10,0:0:0:0:
477,184,76366,6,0,P|427:166|331:217,1,150,2|0,0:0|0:0,0:0:0:0:
340,185,76674,1,0,0:0:0:0:
342,167,76751,1,0,0:0:0:0:
345,150,76829,2,0,P|350:122|355:82,1,50,10|0,0:0|0:0,0:0:0:0:
386,272,76984,2,0,P|381:300|376:340,1,50
259,170,77139,5,0,0:0:0:0:
434,82,77294,1,0,0:0:0:0:
263,11,77448,2,0,P|277:37|283:67,1,50,8|0,0:0|0:0,0:0:0:0:
337,197,77603,2,0,P|321:222|298:242,1,50,2|0,0:0|0:0,0:0:0:0:
188,210,77758,5,0,0:0:0:0:
92,79,77912,1,2,0:0:0:0:
76,280,78067,2,0,P|100:268|147:260,1,50,8|0,0:0|0:0,0:0:0:0:
237,145,78222,2,0,P|213:133|166:125,1,50
46,147,78375,5,8,0:0:0:0:
133,345,78530,1,0,0:0:0:0:
300,89,78684,5,10,0:0:0:0:
188,210,78839,1,2,0:0:0:0:
221,46,78994,5,8,0:0:0:0:
316,318,79148,1,0,0:0:0:0:
387,91,79303,5,8,0:0:0:0:
240,357,79458,1,2,0:0:0:0:
361,249,79612,5,4,0:1:0:0:
375,228,79689,1,0,0:0:0:0:
395,214,79766,1,0,0:0:0:0:
419,206,79843,1,0,0:0:0:0:
444,207,79921,2,0,P|435:242|426:282,1,50.000127792685,0|0,0:0|0:0,0:0:0:0:
316,318,80075,5,8,0:0:0:0:
291,315,80154,1,0,0:0:0:0:
269,304,80231,1,0,0:0:0:0:
250,287,80308,1,0,0:0:0:0:
238,267,80386,2,0,P|236:241|236:206,1,50.000127792685
225,46,80540,5,8,0:0:0:0:
260,56,80618,1,0,0:0:0:0:
287,81,80695,1,0,0:0:0:0:
299,116,80772,1,0,0:0:0:0:
292,153,80850,2,0,L|365:133,1,50.000127792685
461,41,81004,5,8,0:0:0:0:
450,77,81082,1,0,0:0:0:0:
440,113,81159,1,0,0:0:0:0:
430,149,81236,1,0,0:0:0:0:
420,185,81314,2,0,P|427:218|432:249,1,50.000127792685
472,344,81468,5,8,0:0:0:0:
459,342,81545,1,0,0:0:0:0:
447,340,81623,1,0,0:0:0:0:
434,338,81700,1,0,0:0:0:0:
422,336,81777,2,0,P|401:318|377:288,1,50.000127792685
292,153,81932,5,8,0:0:0:0:
256,141,82009,1,0,0:0:0:0:
220,149,82087,1,0,0:0:0:0:
193,174,82164,1,0,0:0:0:0:
181,209,82241,2,0,P|180:237|184:268,1,50.000127792685
68,103,82396,6,0,P|69:75|65:44,5,50.000127792685,8|0|0|0|0|0,0:0|0:0|0:0|0:0|0:0|0:0,0:0:0:0:
80,116,82860,6,0,P|117:111|161:85,1,66.6666666666667,10|0,0:0|2:0,0:0:0:0:
192,218,83015,2,0,P|206:183|205:132,1,66.6666666666667,10|0,0:0|2:0,0:0:0:0:
333,171,83169,2,0,P|310:141|265:116,1,66.6666666666667,10|0,0:0|2:0,0:0:0:0:
262,47,83324,5,8,0:0:0:0:
280,30,83400,1,0,0:0:0:0:
303,20,83477,1,0,0:0:0:0:
328,18,83556,1,0,0:0:0:0:
352,23,83632,2,0,P|366:58|379:89,1,50.0000019073487
359,256,83788,5,8,0:0:0:0:
339,240,83865,1,0,0:0:0:0:
327,218,83942,1,0,0:0:0:0:
325,194,84020,1,0,0:0:0:0:
332,170,84097,2,0,P|350:156|392:145,1,50.0000019073487
444,234,84252,5,8,0:0:0:0:
464,265,84329,1,0,0:0:0:0:
466,302,84406,1,0,0:0:0:0:
450,335,84484,1,0,0:0:0:0:
420,357,84561,2,0,L|353:343,1,50.0000019073487
150,326,84715,5,8,0:0:0:0:
186,318,84792,1,0,0:0:0:0:
223,310,84869,1,0,0:0:0:0:
260,302,84947,1,0,0:0:0:0:
296,295,85024,2,0,B|306:269|298:236,1,50.0000019073487
244,87,85179,5,8,0:0:0:0:
248,98,85256,1,0,0:0:0:0:
252,110,85333,1,0,0:0:0:0:
256,122,85410,1,0,0:0:0:0:
260,134,85488,2,0,P|252:169|240:214,1,50.0000019073487,0|0,0:0|0:0,0:0:0:0:
296,19,85642,5,8,0:0:0:0:
332,25,85720,1,0,0:0:0:0:
364,44,85797,1,0,0:0:0:0:
388,73,85874,1,0,0:0:0:0:
400,109,85952,2,0,P|392:144|380:189,1,50.0000019073487,0|0,0:0|0:0,0:0:0:0:
464,273,86107,6,0,P|472:308|484:353,5,50.0000019073487,8|0|0|0|0|0,0:0|0:0|0:0|0:0|0:0|0:0,0:0:0:0:
449,263,86571,6,0,P|405:257|370:229,1,66.6666666666667,10|0,0:0|2:0,0:0:0:0:
333,354,86726,2,0,P|316:312|322:268,1,66.6666666666667,10|0,0:0|2:0,0:0:0:0:
194,303,86881,2,0,P|221:267|262:251,1,66.6666666666667,10|0,0:0|2:0,0:0:0:0:
309,205,87035,5,4,0:1:0:0:
316,181,87112,1,0,0:0:0:0:
315,156,87189,1,0,0:0:0:0:
308,132,87266,1,0,0:0:0:0:
295,111,87344,2,0,P|261:118|237:135,1,50.0000019073487
144,227,87499,5,8,0:0:0:0:
119,225,87576,1,0,0:0:0:0:
95,217,87654,1,0,0:0:0:0:
74,203,87731,1,0,0:0:0:0:
58,184,87808,2,0,P|60:156|75:109,1,50.0000019073487
221,36,87963,5,8,0:0:0:0:
238,68,88040,1,0,0:0:0:0:
243,105,88118,1,0,0:0:0:0:
234,142,88195,1,0,0:0:0:0:
213,172,88272,2,0,L|273:166,1,50.0000019073487
487,122,88427,5,8,0:0:0:0:
449,116,88504,1,0,0:0:0:0:
412,110,88582,1,0,0:0:0:0:
375,105,88659,1,0,0:0:0:0:
338,99,88736,2,0,P|341:132|350:161,1,50.0000019073487
368,295,88891,5,8,0:0:0:0:
369,282,88968,1,0,0:0:0:0:
371,270,89046,1,0,0:0:0:0:
373,257,89123,1,0,0:0:0:0:
375,245,89200,2,0,P|345:233|305:229,1,50.0000019073487
139,138,89355,5,8,0:0:0:0:
106,156,89432,1,0,0:0:0:0:
86,187,89509,1,0,0:0:0:0:
82,224,89587,1,0,0:0:0:0:
96,258,89664,2,0,P|132:259|169:242,1,50.0000019073487
272,295,89819,6,0,P|290:325|294:366,5,50.0000019073487,8|0|0|0|0|0,0:0|0:0|0:0|0:0|0:0|0:0,0:0:0:0:
249,296,90283,6,0,P|257:262|261:220,1,66.6666666666667,10|0,0:0|2:0,0:0:0:0:
326,132,90437,2,0,P|292:142|254:159,1,66.6666666666667,10|0,0:0|2:0,0:0:0:0:
139,140,90592,2,0,P|164:163|198:188,1,66.6666666666667,10|0,0:0|2:0,0:0:0:0:
348,247,90746,5,4,0:1:0:0:
372,245,90823,1,0,0:0:0:0:
396,238,90900,1,0,0:0:0:0:
417,224,90978,1,0,0:0:0:0:
433,205,91055,2,0,P|437:182|432:155,1,50.0000019073487,0|0,0:0|0:0,0:0:0:0:
330,37,91209,5,8,0:0:0:0:
318,59,91287,1,0,0:0:0:0:
313,83,91364,1,0,0:0:0:0:
315,108,91441,1,0,0:0:0:0:
325,131,91519,2,0,L|260:127,1,50.0000019073487,0|0,0:0|0:0,0:0:0:0:
81,236,91673,5,8,0:0:0:0:
102,205,91751,1,0,0:0:0:0:
133,185,91828,1,0,0:0:0:0:
170,178,91905,1,0,0:0:0:0:
206,187,91983,2,0,P|201:225|197:260,1,50.0000019073487,0|0,0:0|0:0,0:0:0:0:
89,311,92137,5,8,0:0:0:0:
85,273,92215,1,0,0:0:0:0:
81,236,92292,1,0,0:0:0:0:
77,199,92369,1,0,0:0:0:0:
74,161,92447,2,0,P|77:139|92:96,1,50.0000019073487,0|0,0:0|0:0,0:0:0:0:
169,18,92601,5,8,0:0:0:0:
167,30,92679,1,0,0:0:0:0:
165,42,92756,1,0,0:0:0:0:
164,55,92833,1,0,0:0:0:0:
162,67,92911,2,0,L|223:57,1,50.0000019073487,0|0,0:0|0:0,0:0:0:0:
413,86,93065,5,8,0:0:0:0:
436,114,93142,1,0,0:0:0:0:
445,150,93220,1,0,0:0:0:0:
436,187,93297,1,0,0:0:0:0:
412,215,93375,2,0,L|340:199,1,50.0000019073487
220,255,93530,6,0,L|148:239,5,50.0000019073487,8|0|0|0|0|0,0:0|0:0|0:0|0:0|0:0|0:0,0:0:0:0:
232,274,93994,6,0,P|264:259|312:257,1,66.6666666666667,10|0,0:0|2:0,0:0:0:0:
378,140,94149,2,0,P|374:175|352:217,1,66.6666666666667,10|0,0:0|2:0,0:0:0:0:
424,330,94303,2,0,P|395:309|369:269,1,66.6666666666667,10|0,0:0|2:0,0:0:0:0:
282,174,94458,6,0,P|260:126|201:97,1,100,4|0,0:1|0:0,0:0:0:0:
294,255,94767,1,8,0:0:0:0:
450,98,94921,2,0,L|466:169,1,50
458,231,95076,6,0,P|406:217|330:192,1,100
200,182,95385,1,8,0:0:0:0:
250,326,95540,1,0,0:0:0:0:
250,326,95617,1,0,0:0:0:0:
250,326,95695,6,0,B|281:291|281:291|268:204,1,113.333592733341,8|0,0:0|0:0,0:0:0:0:
200,182,95926,1,0,0:0:0:0:
200,182,96004,2,0,P|201:158|212:124,1,56.6667963666706
290,6,96158,6,0,P|310:76|272:126,1,113.333592733341,8|0,0:0|0:0,0:0:0:0:
346,179,96390,1,0,0:0:0:0:
346,179,96468,2,0,P|386:173|423:168,1,56.6667963666706
476,294,96622,6,0,L|340:315,2,113.333592733341,8|8|0,0:0|0:0|0:0,0:0:0:0:
467,118,97086,5,8,0:0:0:0:
364,312,97240,1,0,0:0:0:0:
364,312,97317,1,0,0:0:0:0:
364,312,97395,2,0,L|378:376,1,50.000127792685
293,108,97549,5,8,0:0:0:0:
486,245,97704,1,0,0:0:0:0:
486,245,97781,1,0,0:0:0:0:
486,245,97859,2,0,L|472:309,1,50.000127792685
289,266,98013,5,8,0:0:0:0:
408,61,98167,1,0,0:0:0:0:
408,61,98244,1,0,0:0:0:0:
408,61,98322,2,0,P|375:56|343:52,1,50.000127792685
221,68,98476,6,0,P|207:115|227:159,1,100.00025558537,8|0,0:0|0:0,0:0:0:0:
227,159,98708,1,0,0:0:0:0:
227,159,98786,1,0,0:0:0:0:
279,315,98940,6,0,L|290:255,1,50.000127792685,10|0,0:0|0:0,0:0:0:0:
133,162,99095,2,0,L|122:102,3,50.000127792685,10|8|10|8,0:0|0:0|0:0|0:0,0:0:0:0:
123,190,99404,6,0,B|106:242|106:242|123:287,1,100
44,155,99713,1,8,0:0:0:0:
195,242,99867,2,0,L|245:225,1,50
323,260,100022,6,0,P|337:306|319:352,1,100
313,176,100331,1,8,0:0:0:0:
480,321,100486,1,0,0:0:0:0:
480,321,100563,1,0,0:0:0:0:
480,321,100641,6,0,B|455:270|455:270|468:190,1,113.333592733341,8|0,0:0|0:0,0:0:0:0:
408,101,100872,1,0,0:0:0:0:
408,101,100950,2,0,L|392:186,1,56.6667963666706
323,260,101104,6,0,P|282:257|208:320,1,113.333592733341,8|0,0:0|0:0,0:0:0:0:
152,379,101336,1,0,0:0:0:0:
152,379,101414,2,0,P|151:350|138:310,1,56.6667963666706
74,194,101568,6,0,P|58:143|88:66,2,113.333592733341,8|8|0,0:0|0:0|0:0,0:0:0:0:
68,361,102032,5,8,0:0:0:0:
158,243,102187,1,0,0:0:0:0:
158,243,102264,1,0,0:0:0:0:
158,243,102342,2,0,L|164:178,1,56.6667963666706
245,373,102496,5,8,0:0:0:0:
74,194,102651,1,0,0:0:0:0:
74,194,102728,1,0,0:0:0:0:
74,194,102805,2,0,L|80:129,1,56.6667963666706
251,64,102960,5,8,0:0:0:0:
312,315,103115,1,0,0:0:0:0:
312,315,103192,1,0,0:0:0:0:
312,315,103269,2,0,L|377:309,1,56.6667963666706
439,144,103424,5,8,0:0:0:0:
488,253,103578,2,0,L|502:177,1,50.000127792685,8|0,0:0|0:0,0:0:0:0:
391,31,103733,2,0,L|377:107,1,50.000127792685
246,265,103887,6,0,P|231:235|234:200,1,50.000127792685,10|0,0:0|0:0,0:0:0:0:
197,90,104042,2,8,P|237:80|266:89,3,50.000127792685,10|8|10|8,0:0|0:0|0:0|0:0,0:0:0:0:
176,107,104351,6,0,P|186:66|166:7,1,100
142,183,104660,1,8,0:0:0:0:
312,198,104814,2,0,L|386:184,1,50
435,231,104969,6,0,B|453:198|453:198|433:131,1,100
492,293,105278,1,8,0:0:0:0:
356,80,105433,1,0,0:0:0:0:
356,80,105510,1,0,0:0:0:0:
356,80,105588,6,0,P|344:135|365:195,1,113.333592733341,8|0,0:0|0:0,0:0:0:0:
333,268,105819,1,0,0:0:0:0:
333,268,105897,2,0,P|297:258|243:257,1,56.6667963666706
43,269,106051,6,0,P|102:255|149:203,1,113.333592733341,8|0,0:0|0:0,0:0:0:0:
227,134,106283,1,0,0:0:0:0:
227,134,106361,2,0,L|217:209,1,56.6667963666706
96,151,106515,6,0,P|73:108|65:38,2,113.333592733341,8|8|0,0:0|0:0|0:0,0:0:0:0:
199,285,106979,5,8,0:0:0:0:
307,90,107134,1,0,0:0:0:0:
307,90,107211,1,0,0:0:0:0:
307,90,107289,2,0,P|304:59|288:17,1,50.0000019073487
389,247,107443,5,8,0:0:0:0:
227,134,107597,1,0,0:0:0:0:
391,55,107752,5,0,0:0:0:0:
321,276,107906,2,0,L|331:309,3,25,8|8|8|8,0:0|0:0|0:0|0:0,0:0:0:0:
310,265,108061,6,0,P|310:231|318:202,1,50,4|0,0:1|0:0,0:0:0:0:
410,324,108214,2,0,P|410:358|402:387,1,50,0|0,0:0|0:0,0:0:0:0:
301,277,108369,6,0,P|292:244|292:214,1,50,8|0,0:0|0:0,0:0:0:0:
412,307,108524,2,0,P|420:339|420:369,1,50
271,351,108679,5,10,0:0:0:0:
222,375,108756,1,8,0:0:0:0:
179,368,108834,1,10,0:0:0:0:
160,344,108911,1,8,0:0:0:0:
158,327,108988,1,10,0:0:0:0:
160,315,109066,1,8,0:0:0:0:
165,308,109143,1,10,0:0:0:0:
171,305,109220,1,8,0:0:0:0:
177,306,109298,6,0,P|193:255|180:208,1,100,4|0,0:1|0:0,0:0:0:0:
111,362,109607,1,8,0:0:0:0:
54,114,109762,2,0,P|46:143|41:184,1,50
84,232,109916,6,0,L|208:205,1,100
46,305,110225,1,8,0:0:0:0:
239,145,110380,1,0,0:0:0:0:
239,145,110457,1,0,0:0:0:0:
239,145,110535,6,0,P|265:192|248:269,1,100.00025558537,8|0,0:0|0:0,0:0:0:0:
328,304,110766,1,0,0:0:0:0:
328,304,110844,2,0,L|319:372,1,50.000127792685
428,220,110998,6,0,L|412:109,1,100.00025558537,8|0,0:0|0:0,0:0:0:0:
345,80,111230,1,0,0:0:0:0:
345,80,111308,2,0,P|335:120|343:155,1,50.000127792685
417,301,111462,6,0,P|465:294|503:251,2,100.00025558537,8|8|0,0:0|0:0|0:0,0:0:0:0:
296,200,111926,5,8,0:0:0:0:
234,372,112081,1,0,0:0:0:0:
234,372,112158,1,0,0:0:0:0:
234,372,112236,2,0,P|222:344|215:303,1,50.000127792685
352,141,112390,5,8,0:0:0:0:
144,289,112545,1,0,0:0:0:0:
144,289,112622,1,0,0:0:0:0:
144,289,112699,2,0,P|162:264|194:238,1,50.000127792685
429,164,112854,5,8,0:0:0:0:
167,168,113008,1,0,0:0:0:0:
167,168,113085,1,0,0:0:0:0:
167,168,113163,2,0,P|197:171|236:186,1,50.000127792685
308,328,113317,5,8,0:0:0:0:
480,236,113472,2,0,L|473:277,4,25.0000638963425
256,192,113781,12,0,116739,0:0:0:0:
