osu file format v14

[General]
AudioFilename: audio.mp3
AudioLeadIn: 0
PreviewTime: 94458
Countdown: 0
SampleSet: None
StackLeniency: 0.7
Mode: 0
LetterboxInBreaks: 0
WidescreenStoryboard: 0

[Editor]
DistanceSpacing: 0.86
BeatDivisor: 6
GridSize: 32
TimelineZoom: 2.4

[Metadata]
Title:Further
TitleUnicode:퍼더
Artist:Doin
ArtistUnicode:도인
Creator:Down
Version:Normal
Source:PUMP IT UP – 2017 PRIME 2
Tags:andamiro piu milr_ [_white_music_] beomsan supporter_plz zzx ancul garalulu
BeatmapID:1640134
BeatmapSetID:780833

[Difficulty]
HPDrainRate:4
CircleSize:3.5
OverallDifficulty:4.5
ApproachRate:5
SliderMultiplier:1.1
SliderTickRate:1

[Events]
//Background and Video events
0,0,"doin.jpg",0,0
//Break Periods
2,59820,63568
//Storyboard Layer 0 (Background)
//Storyboard Layer 1 (Fail)
//Storyboard Layer 2 (Pass)
//Storyboard Layer 3 (Foreground)
//Storyboard Sound Samples

[TimingPoints]
5394,309.278350515464,4,3,1,40,1,0
10342,-100,4,3,1,70,0,0
30136,-100,4,3,1,50,0,0
35084,-100,4,3,1,70,0,0
40033,-100,4,3,1,80,0,1
41270,463.918721440004,3,3,1,80,1,0
41270,-66.6666666666667,3,3,1,80,0,0
42661,463.918721440004,4,3,1,80,1,0
42661,-66.6666666666667,4,3,1,80,0,0
43588,463.918721440004,3,3,1,80,1,0
43588,-66.6666666666667,3,3,1,80,0,0
44979,309.278350515464,4,3,1,80,1,1
46216,463.918721440004,3,3,1,80,1,0
46216,-66.6666666666667,3,3,1,80,0,0
48999,463.918721440004,4,3,1,80,1,0
48999,-66.6666666666667,4,3,1,80,0,0
49926,309.278350515464,4,3,1,80,1,1
51163,463.918721440004,3,3,1,80,1,0
51163,-66.6666666666667,3,3,1,80,0,0
52554,463.918721440004,4,3,1,80,1,0
52554,-66.6666666666667,4,3,1,80,0,0
53481,463.918721440004,3,3,1,80,1,0
53481,-66.6666666666667,3,3,1,80,0,0
54873,309.278350515464,4,3,1,80,1,1
56110,463.918721440004,3,3,1,80,1,0
56110,-66.6666666666667,3,3,1,80,0,0
58893,463.918721440004,4,3,1,80,1,0
58893,-66.6666666666667,4,3,1,80,0,0
59820,309.278350515464,4,3,1,80,1,0
64768,-100,4,3,1,50,0,0
69716,-100,4,3,1,70,0,0
79613,463.918721440004,4,3,1,80,1,0
79613,-66.6666666666667,4,3,1,80,0,0
94458,309.278350515464,4,3,1,80,1,1
95695,463.918721440004,3,3,1,70,1,0
95695,-66.6666666666667,3,3,1,70,0,0
97086,463.918721440004,4,3,1,70,1,0
97086,-66.6666666666667,4,3,1,70,0,0
98013,463.918721440004,3,3,1,70,1,0
98013,-66.6666666666667,3,3,1,70,0,0
99404,309.278350515464,4,3,1,80,1,1
100641,463.918721440004,3,3,1,70,1,0
100641,-66.6666666666667,3,3,1,70,0,0
103424,463.918721440004,4,3,1,70,1,0
103424,-66.6666666666667,4,3,1,70,0,0
104351,309.278350515464,4,3,1,80,1,1
105588,463.918721440004,3,3,1,80,1,0
105588,-66.6666666666667,3,3,1,80,0,0
107443,309.278350515464,4,3,1,80,1,0
108061,309.278350515464,4,3,1,80,1,0
109298,-100,4,3,1,80,0,1
110535,463.918721440004,3,3,1,80,1,0
110535,-66.6666666666667,3,3,1,80,0,0
113318,463.918721440004,4,3,1,80,1,0
113318,-66.6666666666667,4,3,1,80,0,0
116739,-66.6666666666667,4,3,1,5,0,0

[Colours]
Combo1 : 128,128,255
Combo2 : 0,64,128
Combo3 : 0,128,128
SliderTrackOverride : 192,192,192

[HitObjects]
205,182,5394,6,0,B|220:236|220:236|186:301,2,110,0|2|0,0:0|0:2|0:0,0:0:0:0:
122,135,6321,1,2,0:2:0:0:
208,95,6631,2,0,P|263:84|317:53,1,110,0|2,0:0|0:2,0:0:0:0:
390,108,7249,2,0,P|445:118|499:150,1,110,0|2,0:0|0:2,0:0:0:0:
443,225,7868,6,0,B|428:279|428:279|462:344,2,110,0|2|0,0:0|0:2|0:0,0:0:0:0:
491,144,8796,1,2,0:2:0:0:
396,139,9105,2,0,L|366:67,2,55,0|0|2,0:0|0:0|0:2,0:0:0:0:
396,139,10342,6,0,P|351:140|264:120,1,110,4|8,0:1|0:0,0:0:0:0:
246,104,10806,2,0,P|225:150|248:228,1,110,2|2,0:1|0:1,0:0:0:0:
264,243,11270,1,8,0:0:0:0:
183,291,11579,2,0,L|166:361,2,55,0|0|10,0:0|0:0|0:0,0:0:0:0:
148,258,12043,2,0,P|86:252|28:236,1,110,2|0,0:1|0:0,0:0:0:0:
11,202,12507,1,10,0:0:0:0:
93,156,12816,6,0,P|100:115|64:47,1,110,0|8,0:0|0:0,0:0:0:0:
107,23,13280,2,0,P|166:33|217:40,1,110,2|2,0:0|0:0,0:0:0:0:
262,31,13744,1,8,0:0:0:0:
312,110,14053,2,0,P|339:106|379:79,1,55,0|0,0:0|0:0,0:0:0:0:
399,61,14363,1,10,0:0:0:0:
399,61,14517,2,0,P|421:116|410:185,1,110,2|0,0:1|0:0,0:0:0:0:
384,200,14981,1,8,0:0:0:0:
416,288,15290,6,0,P|354:288|311:258,1,110,0|8,0:0|0:0,0:0:0:0:
280,230,15754,2,0,P|218:229|175:259,1,110,2|2,0:1|0:1,0:0:0:0:
167,301,16218,1,8,0:0:0:0:
83,255,16528,2,0,P|69:289|70:315,2,55,0|0|10,0:0|0:0|0:0,0:0:0:0:
100,211,16991,2,0,P|99:160|72:100,1,110,2|0,0:1|0:0,0:0:0:0:
49,67,17455,1,10,0:0:0:0:
138,34,17765,6,0,P|192:35|259:43,1,110,0|8,0:0|0:0,0:0:0:0:
287,66,18229,2,0,P|299:114|271:171,1,110,2|2,0:1|0:1,0:0:0:0:
233,189,18692,1,8,0:0:0:0:
296,259,19002,2,0,L|373:242,1,55,0|0,0:0|0:0,0:0:0:0:
388,273,19311,2,0,L|465:256,1,55,10|2,0:0|0:1,0:0:0:0:
479,232,19620,1,8,0:0:0:0:
406,170,19930,1,8,0:0:0:0:
494,136,20239,6,0,P|492:83|470:25,1,110,4|8,0:1|0:0,0:0:0:0:
428,45,20703,2,0,P|382:83|321:82,1,110,2|2,0:1|0:1,0:0:0:0:
290,66,21167,1,8,0:0:0:0:
206,110,21476,2,0,P|196:84|202:43,2,55,0|0|10,0:1|0:1|0:0,0:0:0:0:
238,144,21940,2,0,B|258:190|258:190|241:261,1,110,2|0,0:1|0:0,0:0:0:0:
212,283,22404,1,10,0:0:0:0:
282,346,22713,6,0,L|408:324,1,110,0|8,0:0|0:0,0:0:0:0:
435,341,23177,2,0,B|456:290|456:290|437:237,1,110,2|2,0:1|0:1,0:0:0:0:
398,210,23641,1,8,0:0:0:0:
457,136,23950,2,0,L|469:70,2,55,0|0|10,0:0|0:0|0:0,0:0:0:0:
411,121,24414,2,0,P|355:131|310:191,1,110,2|0,0:1|0:0,0:0:0:0:
308,213,24878,1,8,0:0:0:0:
222,172,25187,6,0,B|208:215|208:215|234:294,1,110,0|8,0:0|0:0,0:0:0:0:
254,316,25651,2,0,L|129:308,1,110,2|2,0:1|0:1,0:0:0:0:
103,333,26115,1,8,0:0:0:0:
55,251,26424,2,0,L|-9:260,2,55,0|0|10,0:0|0:0|0:0,0:0:0:0:
99,233,26888,2,0,P|114:186|95:108,1,110,2|0,0:1|0:0,0:0:0:0:
69,95,27352,1,10,0:0:0:0:
146,39,27662,6,0,L|226:27,1,55,0|0,0:0|0:0,0:0:0:0:
243,51,27971,2,0,L|323:39,1,55,8|2,0:0|0:1,0:0:0:0:
337,68,28280,1,0,0:0:0:0:
280,143,28589,1,8,0:0:0:0:
365,184,28899,2,0,P|403:240|387:298,2,110,8|10|8,0:0|0:0|0:0,0:0:0:0:
280,143,29826,1,8,0:0:0:0:
337,68,30136,5,4,0:1:0:0:
337,68,32610,6,0,P|328:126|375:182,1,110,4|6,0:0|0:0,0:0:0:0:
438,208,33229,1,4,0:0:0:0:
438,208,33538,1,4,0:0:0:0:
361,262,33847,2,0,L|242:250,1,110,6|4,0:0|0:0,0:0:0:0:
167,294,34466,2,0,L|135:351,2,55,6|0|4,0:0|0:0|0:0,0:0:0:0:
171,199,35084,6,0,L|125:98,1,110,4|14,0:0|0:0,0:0:0:0:
38,61,35703,1,4,0:0:0:0:
38,61,36012,1,12,0:0:0:0:
117,9,36321,2,0,P|172:19|208:63,1,110,6|12,0:0|0:0,0:0:0:0:
274,123,36940,2,0,L|262:187,2,55,6|2|12,0:0|0:0|0:0,0:0:0:0:
368,118,37558,6,0,L|346:227,1,110,4|14,0:0|0:0,0:0:0:0:
437,250,38177,2,0,L|459:141,1,110,4|12,0:0|0:0,0:0:0:0:
429,52,38796,1,6,0:0:0:0:
429,52,39105,1,12,0:0:0:0:
349,103,39414,1,14,0:0:0:0:
273,45,39723,1,12,0:0:0:0:
184,85,40033,6,0,B|165:125|165:125|188:204,1,110,4|8,0:1|0:0,0:0:0:0:
266,233,40651,2,0,B|285:273|285:273|262:352,1,110,0|8,0:0|0:0,0:0:0:0:
181,293,41270,6,0,P|125:266|45:334,2,165.000006294251,8|8|8,0:0|0:0|0:0,0:0:0:0:
211,329,42352,1,8,0:0:0:0:
288,274,42661,2,0,B|350:281|350:281|377:269|377:269|466:278,2,165.000006294251,8|8|8,0:0|0:0|0:0,0:0:0:0:
176,186,44051,2,0,P|233:126|303:154,1,165.000006294251,8|10,0:0|0:0,0:0:0:0:
331,188,44670,1,10,0:0:0:0:
403,127,44979,6,0,L|526:110,1,110,0|8,0:0|0:0,0:0:0:0:
476,24,45597,2,0,L|353:41,1,110,0|8,0:0|0:0,0:0:0:0:
296,102,46216,6,0,P|241:69|114:100,2,165.000006294251,8|8|8,0:0|0:0|0:0,0:0:0:0:
311,146,47298,1,8,0:0:0:0:
265,228,47607,2,0,B|321:242|321:242|433:204,2,165.000006294251,8|8|8,0:0|0:0|0:0,0:0:0:0:
131,178,48999,2,0,P|115:255|179:318,1,165.000006294251,8|10,0:0|0:0,0:0:0:0:
216,310,49617,1,10,0:0:0:0:
265,228,49926,6,0,P|270:184|232:127,1,110,0|8,0:0|0:0,0:0:0:0:
304,64,50544,2,0,P|268:37|200:42,1,110,0|8,0:0|0:0,0:0:0:0:
143,112,51163,6,0,B|127:117|109:146|109:146|110:98|97:28,2,165.000006294251,8|8|8,0:0|0:0|0:0,0:0:0:0:
187,128,52245,1,8,0:0:0:0:
181,222,52553,2,0,B|228:224|257:189|257:189|306:188|341:218,2,165.000006294251,8|8|8,0:0|0:0|0:0,0:0:0:0:
98,337,53945,2,0,P|223:347|261:311,1,165.000006294251,8|10,0:0|0:0,0:0:0:0:
278,289,54563,1,10,0:0:0:0:
360,335,54872,6,0,B|377:282|377:282|355:224,1,110,0|8,0:0|0:0,0:0:0:0:
442,188,55491,2,0,B|404:146|404:146|343:136,1,110,0|8,0:0|0:0,0:0:0:0:
270,188,56110,6,0,P|168:196|114:146,2,165.000006294251,8|8|8,0:0|0:0|0:0,0:0:0:0:
304,155,57192,1,8,0:0:0:0:
385,202,57501,2,0,P|397:137|334:67,2,165.000006294251,8|8|8,0:0|0:0|0:0,0:0:0:0:
300,316,58893,2,0,L|174:302,1,110.000004196167,8|2,0:0|0:0,0:0:0:0:
147,322,59356,1,10,0:0:0:0:
147,322,64768,6,0,B|130:282|130:282|145:218,2,110,0|2|0,0:0|0:2|0:0,0:0:0:0:
226,270,65696,1,2,0:2:0:0:
303,324,66005,2,0,P|356:303|407:264,1,110,0|2,0:0|0:2,0:0:0:0:
482,316,66624,2,0,P|493:261|459:202,1,110,0|2,0:0|0:2,0:0:0:0:
383,178,67242,6,0,P|372:123|406:64,2,110,0|2|0,0:0|0:2|0:0,0:0:0:0:
398,272,68170,1,2,0:2:0:0:
309,237,68479,2,0,P|254:222|187:225,1,110,0|2,0:0|0:2,0:0:0:0:
122,275,69098,2,0,L|106:333,2,55,0|0|2,0:0|0:0|0:2,0:0:0:0:
117,180,69716,6,0,L|84:75,1,110,4|8,0:1|0:0,0:0:0:0:
113,37,70180,2,0,P|168:63|222:56,1,110,2|2,0:0|0:0,0:0:0:0:
256,34,70644,1,8,0:0:0:0:
323,100,70954,2,0,L|390:87,2,55,0|0|10,0:0|0:0|0:0,0:0:0:0:
286,129,71417,2,0,B|266:171|266:171|290:251,1,110,2|0,0:0|0:0,0:0:0:0:
325,254,71881,1,10,0:0:0:0:
407,207,72191,6,0,P|421:261|395:318,1,110,0|8,0:0|0:0,0:0:0:0:
374,348,72655,2,0,P|315:341|245:336,1,110,2|2,0:0|0:0,0:0:0:0:
219,350,73118,1,8,0:0:0:0:
143,292,73428,2,0,L|126:221,1,55,0|0,0:0|0:0,0:0:0:0:
163,205,73737,1,10,0:0:0:0:
163,205,73892,2,0,P|184:157|165:92,1,110,2|0,0:0|0:0,0:0:0:0:
134,73,74356,1,8,0:0:0:0:
215,24,74665,6,0,L|324:13,1,110,0|8,0:0|0:0,0:0:0:0:
365,36,75129,2,0,P|333:88|334:155,1,110,2|2,0:0|0:0,0:0:0:0:
360,171,75593,1,8,0:0:0:0:
453,182,75902,2,0,B|455:154|455:154|438:116,2,55,0|0|10,0:0|0:0|0:0,0:0:0:0:
436,226,76366,2,0,B|415:263|415:263|431:349,1,110,2|0,0:0|0:0,0:0:0:0:
439,375,76830,1,10,0:0:0:0:
345,364,77139,6,0,L|332:304,2,55,0|0|8,0:0|0:0|0:0,0:0:0:0:
251,351,77758,2,0,L|239:297,2,55,0|2|8,0:0|0:0|0:0,0:0:0:0:
158,332,78376,2,0,L|146:278,1,55,8|0,0:0|0:0,0:0:0:0:
174,240,78685,2,0,L|162:186,1,55,10|2,0:0|0:0,0:0:0:0:
121,162,78995,1,8,0:0:0:0:
195,104,79304,1,8,0:0:0:0:
285,130,79613,6,0,L|398:109,1,110.000004196167,4|0,0:1|0:0,0:0:0:0:
435,90,80076,2,0,P|452:140|428:203,1,110.000004196167,8|0,0:0|0:0,0:0:0:0:
411,233,80540,1,8,0:0:0:0:
318,213,80850,1,0,0:0:0:0:
318,213,81004,2,0,P|295:261|312:325,1,110.000004196167,8|0,0:0|0:0,0:0:0:0:
342,344,81468,5,8,0:0:0:0:
207,299,81932,1,8,0:0:0:0:
318,213,82396,2,0,P|321:166|281:93,1,110.000004196167,8|0,0:0|0:0,0:0:0:0:
255,85,82860,2,0,P|258:59|272:28,2,55.0000020980836,10|10|10,0:0|0:0|0:0,0:0:0:0:
217,114,83324,6,0,L|90:97,1,110.000004196167,8|0,0:0|0:0,0:0:0:0:
64,80,83788,2,0,P|52:129|78:192,1,110.000004196167,8|0,0:0|0:0,0:0:0:0:
96,223,84252,1,8,0:0:0:0:
186,195,84561,1,0,0:0:0:0:
186,195,84716,2,0,P|181:248|169:317,1,110.000004196167,8|0,0:0|0:0,0:0:0:0:
155,348,85180,5,8,0:0:0:0:
285,294,85643,1,8,0:0:0:0:
186,195,86107,2,0,P|159:149|166:86,1,110.000004196167,8|0,0:0|0:0,0:0:0:0:
200,65,86571,2,0,L|178:1,2,55.0000020980836,10|10|10,0:0|0:0|0:0,0:0:0:0:
245,78,87035,6,0,B|290:82|290:82|308:68|308:68|369:71,1,110.000004196167,4|0,0:1|0:0,0:0:0:0:
392,48,87499,2,0,B|418:90|418:90|402:164,1,110.000004196167,8|0,0:0|0:0,0:0:0:0:
372,183,87963,1,8,0:0:0:0:
448,238,88272,1,0,0:0:0:0:
448,238,88427,2,0,P|432:287|423:356,1,110.000004196167,8|0,0:0|0:0,0:0:0:0:
385,372,88891,5,8,0:0:0:0:
308,252,89355,1,8,0:0:0:0:
190,331,89819,2,0,P|146:307|78:311,1,110.000004196167,8|0,0:0|0:0,0:0:0:0:
39,307,90283,2,0,L|22:369,2,55.0000020980836,10|10|10,0:0|0:0|0:0,0:0:0:0:
23,262,90747,6,0,B|20:224|20:224|43:200|41:143,1,110.000004196167,4|0,0:1|0:0,0:0:0:0:
13,118,91210,2,0,P|89:110|131:79,1,110.000004196167,8|0,0:0|0:0,0:0:0:0:
158,114,91674,1,8,0:0:0:0:
236,61,91984,1,0,0:0:0:0:
236,61,92138,2,0,B|253:117|253:117|234:177,1,110.000004196167,8|0,0:0|0:0,0:0:0:0:
204,200,92602,5,8,0:0:0:0:
289,313,93066,1,8,0:0:0:0:
380,204,93530,2,0,P|356:151|346:86,1,110.000004196167,8|0,0:0|0:0,0:0:0:0:
374,62,93994,2,0,P|380:37|384:0,2,55.0000020980836,10|10|10,0:0|0:0|0:0,0:0:0:0:
419,73,94458,6,0,P|454:105|463:168,1,110,4|8,0:1|0:0,0:0:0:0:
380,204,95076,2,0,P|345:236|336:299,1,110,0|8,0:0|0:0,0:0:0:0:
240,300,95695,6,0,P|226:232|138:158,2,165.000006294251,8|8|8,0:0|0:0|0:0,0:0:0:0:
207,334,96777,1,8,0:0:0:0:
144,263,97086,2,0,B|125:243|103:235|103:235|110:317|51:348,2,165.000006294251,8|8|8,0:0|0:0|0:0,0:0:0:0:
278,218,98476,2,0,P|324:181|298:73,1,165.000006294251,8|10,0:0|0:0,0:0:0:0:
271,58,99095,1,10,0:0:0:0:
189,106,99404,6,0,L|69:84,1,110,0|8,0:0|0:0,0:0:0:0:
48,174,100022,2,0,L|168:196,1,110,0|8,0:0|0:0,0:0:0:0:
250,183,100641,6,0,B|233:220|244:251|244:251|237:266|237:266|261:293|240:349,2,165.000006294251,8|8|8,0:0|0:0|0:0,0:0:0:0:
283,149,101723,1,8,0:0:0:0:
357,207,102032,2,0,B|379:154|379:154|345:44,2,165.000006294251,8|8|8,0:0|0:0|0:0,0:0:0:0:
447,317,103424,2,0,P|401:297|291:339,1,165.000006294251,8|10,0:0|0:0,0:0:0:0:
267,369,104042,1,10,0:0:0:0:
182,326,104351,6,0,P|159:286|177:214,1,110,0|8,0:0|0:0,0:0:0:0:
79,193,104969,2,0,P|102:153|173:132,1,110,0|8,0:0|0:0,0:0:0:0:
247,166,105588,6,0,B|259:122|259:122|248:91|248:91|249:41|287:6,2,165.000006294251,8|8|8,0:0|0:0|0:0,0:0:0:0:
261,211,106670,1,8,0:0:0:0:
348,175,106979,2,0,P|345:247|277:304,1,165.000006294251,8|8,0:0|0:0,0:0:0:0:
190,270,107752,1,0,0:0:0:0:
103,308,108061,6,0,L|91:253,1,55,4|0,0:1|0:0,0:0:0:0:
58,220,108370,2,0,L|79:163,1,55,8|0,0:0|0:0,0:0:0:0:
119,148,108679,2,0,P|165:135|201:81,1,110,10|10,0:0|0:0,0:0:0:0:
275,28,109298,6,0,B|294:72|294:72|283:141,1,110,4|8,0:1|0:0,0:0:0:0:
230,211,109916,2,0,B|211:255|211:255|222:324,1,110,0|8,0:0|0:0,0:0:0:0:
308,281,110535,6,0,B|368:273|368:273|399:291|399:291|483:280,2,165.000006294251,8|8|8,0:0|0:0|0:0,0:0:0:0:
274,314,111617,1,8,0:0:0:0:
206,247,111926,2,0,B|146:239|146:239|115:257|115:257|31:246,2,165.000006294251,8|8|8,0:0|0:0|0:0,0:0:0:0:
336,191,113318,2,0,B|348:142|348:142|315:76,1,110.000004196167,8|0,0:0|0:0,0:0:0:0:
281,63,113781,1,0,0:0:0:0:
256,192,113897,12,0,116739,0:0:0:0:
