osu file format v14

[General]
AudioFilename: audio.mp3
AudioLeadIn: 0
PreviewTime: 72738
Countdown: 0
SampleSet: Soft
StackLeniency: 0.7
Mode: 0
LetterboxInBreaks: 0
WidescreenStoryboard: 0

[Editor]
Bookmarks: 210,10759,37133,58232
DistanceSpacing: 2
BeatDivisor: 4
GridSize: 16
TimelineZoom: 2

[Metadata]
Title:Dziekuje (Cut Ver.)
TitleUnicode:Dziękuję (Cut Ver.)
Artist:Doda
ArtistUnicode:Doda
Creator:beans mcCheese
Version:Yeah, Yeah!
Source:
Tags:Dorota Rabczewska Diamond Bitch polish poland pop vocal swerize
BeatmapID:4326753
BeatmapSetID:2068029

[Difficulty]
HPDrainRate:6
CircleSize:4
OverallDifficulty:8.8
ApproachRate:9.5
SliderMultiplier:1.8
SliderTickRate:1

[Events]
//Background and Video events
0,0,"BG.jpg",0,0
//Break Periods
//Storyboard Layer 0 (Background)
//Storyboard Layer 1 (Fail)
//Storyboard Layer 2 (Pass)
//Storyboard Layer 3 (Foreground)
//Storyboard Layer 4 (Overlay)
//Storyboard Sound Samples

[TimingPoints]
10760,329.67032967033,4,2,0,80,1,0
14386,-400,4,2,0,80,0,0
16034,-100,4,2,0,80,0,0
18672,-200,4,2,0,80,0,0
19990,-133.333333333333,4,2,0,80,0,0
21309,-100,4,2,0,80,0,0
23946,-90.9090909090909,4,2,0,80,0,0
24935,-200,4,2,0,80,0,0
25924,-133.333333333333,4,2,0,80,0,0
26584,-100,4,2,0,80,0,0
29221,-117.647058823529,4,2,0,80,0,0
30540,-100,4,2,0,80,0,0
37133,-133.333333333333,4,2,0,80,0,0
40760,-200,4,2,0,80,0,0
42408,-133.333333333333,4,2,0,80,0,0
47683,-117.647058823529,4,2,0,80,0,0
51474,-192.307692307692,4,2,0,80,0,0
52957,-117.647058823529,4,2,0,80,0,0
58232,-153.846153846154,4,2,0,80,0,0
67463,-125,4,2,0,80,0,0
68781,-100,4,2,0,80,0,0
72738,-83.3333333333333,4,2,0,80,0,0
75375,-83.3333333333333,4,2,0,80,0,1
85924,-66.6666666666667,4,2,0,80,0,1
89551,-57.1428571428571,4,2,0,80,0,1
96474,-100,4,2,0,80,0,0

[Colours]
Combo1 : 255,209,72
Combo2 : 123,49,4
Combo3 : 192,192,192
Combo4 : 128,0,128

[HitObjects]
358,236,10759,6,0,P|387:320|416:285,1,180
200,262,11254,2,0,B|153:251|118:292|118:292|86:324|34:315,1,180
70,77,11749,2,0,P|75:127|78:170,1,90
194,0,12078,6,0,B|303:25|303:25|333:64|333:64|442:88,2,270
25,87,13232,1,0,0:0:0:0:
32,96,13397,2,0,P|112:112|219:139,1,180
485,199,13891,2,0,P|404:215|298:242,1,180
34,310,14386,6,0,P|114:326|221:353,1,180
512,150,16034,6,0,B|444:157|444:157|414:176|414:176|334:184,1,180
336,168,16529,2,0,B|403:160|403:160|437:173|437:173|516:165,1,180
229,0,17023,2,0,P|223:47|219:95,1,90
326,332,17353,2,0,P|267:280|151:309,1,180
378,179,17847,2,0,P|367:84|361:-3,1,180
479,248,18342,2,0,L|468:338,1,90
81,108,18672,6,0,B|181:42|280:121|280:121|253:167|193:170,1,315
13,234,19990,2,0,L|77:255,3,67.5000025749208
231,312,20650,2,0,L|166:333,3,67.5000025749208
0,214,21309,6,0,L|17:26,1,180
231,151,21803,2,0,L|247:330,1,180
379,180,22298,1,0,0:0:0:0:
146,272,22463,1,0,0:0:0:0:
348,289,22628,2,0,B|395:278|430:319|430:319|462:351|514:342,1,180
213,144,23122,2,0,B|166:133|131:174|131:174|99:206|47:197,1,180
356,12,23617,2,0,L|369:106,1,90
244,354,23946,6,0,P|235:264|221:143,1,198.000006042481
376,0,24441,2,0,P|364:98|354:196,1,198.000006042481
9,28,24935,6,0,B|102:50|102:50|128:84|128:84|228:107,1,225
449,161,25924,2,0,L|355:180,3,67.5000025749208
154,228,26584,6,0,L|250:246,1,90
479,295,26913,2,0,L|383:313,1,90
227,332,27243,1,0,0:0:0:0:
268,154,27408,1,0,0:0:0:0:
204,347,27573,2,0,P|158:349|110:332,1,90
39,77,27902,6,0,P|120:63|201:116,1,180
312,270,28397,2,0,P|385:319|473:307,1,180
395,48,28891,2,0,P|352:34|308:37,1,90
28,246,29221,6,0,B|79:302|160:313|226:276|257:218|257:218|257:218|257:218|293:152|369:122|442:142|487:192,1,535.500010213852
358,353,30540,6,0,L|347:254,1,90
384,57,30869,1,0,0:0:0:0:
457,292,31034,1,0,0:0:0:0:
207,189,31199,2,0,L|296:177,1,90
467,150,31529,1,0,0:0:0:0:
238,298,31694,1,0,0:0:0:0:
256,192,31858,12,0,36803,0:0:0:0:
15,136,37133,6,0,P|121:165|215:185,2,202.500007724762
375,135,38452,2,0,P|394:179|345:331,2,202.500007724762
71,333,39770,2,0,B|152:319|152:319|187:287|187:287|283:272,1,202.500007724762
444,148,40760,2,0,B|461:38|373:-8|373:-8|336:21|336:76,1,270
282,299,42408,6,0,B|334:286|374:332|374:332|410:368|468:358,2,202.500007724762
81,295,43727,2,0,B|59:237|59:237|33:220|33:220|35:158|-3:114,1,202.500007724762
0,117,44716,1,0,0:0:0:0:
256,192,45045,12,0,47023,0:0:0:0:
477,34,47683,6,0,P|469:145|463:270,2,229.500004377365
353,216,49001,2,0,P|303:252|167:169,2,229.500004377365
68,0,50320,2,0,L|60:85,1,76.5000014591217
94,327,50650,1,0,0:0:0:0:
185,193,50814,2,0,L|173:38,1,153.000002918243
139,288,51474,6,0,B|267:309|267:309|305:352|305:352|444:373,1,327.599998000488
48,192,52957,6,0,P|42:113|39:22,1,153.000002918243
272,128,53452,2,0,P|269:204|263:280,1,153.000002918243
161,75,53946,1,0,0:0:0:0:
305,20,54276,2,0,B|365:5|410:58|410:58|451:99|518:88,2,229.500004377365
256,192,55595,12,0,57902,0:0:0:0:
477,60,58232,6,0,L|232:49,1,233.999989288331
15,117,59221,1,0,0:0:0:0:
107,202,59551,6,0,L|352:191,1,233.999989288331
473,255,60540,1,0,0:0:0:0:
258,328,60869,2,0,L|13:317,1,233.999989288331
239,84,62188,6,0,P|297:74|240:89,2,175.499991966248
15,269,63507,2,0,B|109:256|109:256|148:275|148:275|244:261,1,233.999989288331
486,225,64496,1,0,0:0:0:0:
190,16,64825,2,0,P|205:132|227:247,1,233.999989288331
386,135,65814,2,0,L|393:77,1,58.4999973220826
371,290,66144,2,0,P|368:335|470:278,1,233.999989288331
140,96,67463,6,0,L|147:250,1,144
306,348,67957,2,0,L|312:204,1,144
320,1,68452,1,0,0:0:0:0:
288,359,68781,6,0,P|208:372|114:325,1,180
251,10,69276,2,0,P|260:92|266:200,1,180
0,115,69770,1,0,0:0:0:0:
272,0,70100,6,0,L|458:29,1,180
284,193,70595,2,0,L|98:222,1,180
27,207,71089,1,0,0:0:0:0:
27,207,71419,6,0,P|5:128|1:16,1,180
212,222,71913,2,0,P|187:300|129:396,1,180
110,120,72408,1,0,0:0:0:0:
311,227,72573,1,0,0:0:0:0:
6,196,72738,6,0,L|19:88,1,107.999996704102
251,0,73067,2,0,L|238:108,1,107.999996704102
172,352,73397,1,0,0:0:0:0:
128,143,73562,1,0,0:0:0:0:
338,279,73727,1,0,0:0:0:0:
31,250,73891,1,0,0:0:0:0:
432,167,74056,6,0,L|446:281,1,107.999996704102
116,134,74386,2,0,L|130:20,1,107.999996704102
291,298,74716,1,0,0:0:0:0:
67,212,74880,1,0,0:0:0:0:
297,163,75045,1,0,0:0:0:0:
128,369,75210,1,0,0:0:0:0:
192,113,75375,6,0,P|281:72|404:51,1,215.999993408203
162,264,75870,1,0,0:0:0:0:
355,212,76035,1,0,0:0:0:0:
111,174,76199,1,0,0:0:0:0:
436,313,76364,1,0,0:0:0:0:
62,361,76529,1,0,0:0:0:0:
370,199,76694,2,0,P|472:203|512:297,1,215.999993408203
164,280,77188,2,0,P|53:269|41:138,1,215.999993408203
234,13,77683,1,0,0:0:0:0:
177,308,77847,1,0,0:0:0:0:
23,0,78012,6,0,P|73:13|129:24,1,107.999996704102
426,86,78342,1,0,0:0:0:0:
135,302,78507,2,0,P|162:195|198:61,1,215.999993408203
375,333,79001,1,0,0:0:0:0:
306,2,79166,1,0,0:0:0:0:
221,275,79331,6,0,P|295:260|450:233,1,215.999993408203
212,151,79825,2,0,P|138:136|-17:109,1,215.999993408203
399,4,80320,2,0,L|390:110,1,107.999996704102
268,384,80650,5,0,0:0:0:0:
316,41,80814,1,0,0:0:0:0:
198,310,80979,1,0,0:0:0:0:
446,151,81144,1,0,0:0:0:0:
96,186,81309,1,0,0:0:0:0:
427,333,81474,1,0,0:0:0:0:
289,57,81639,1,0,0:0:0:0:
212,339,81803,1,0,0:0:0:0:
433,71,81968,5,0,0:0:0:0:
488,374,82133,1,0,0:0:0:0:
296,0,82298,1,0,0:0:0:0:
241,303,82463,1,0,0:0:0:0:
473,28,82628,1,0,0:0:0:0:
510,366,82793,1,0,0:0:0:0:
117,231,82957,1,0,0:0:0:0:
512,187,83122,1,0,0:0:0:0:
207,332,83287,5,0,0:0:0:0:
156,0,83452,1,0,0:0:0:0:
434,208,83617,5,0,0:0:0:0:
50,263,83782,1,0,0:0:0:0:
252,40,83946,5,0,0:0:0:0:
316,384,84111,1,0,0:0:0:0:
22,91,84276,5,0,0:0:0:0:
419,66,84441,1,0,0:0:0:0:
0,176,84606,5,0,0:0:0:0:
464,215,84770,1,0,0:0:0:0:
174,380,84935,5,0,0:0:0:0:
236,0,85100,1,0,0:0:0:0:
366,363,85265,5,0,0:0:0:0:
42,108,85430,1,0,0:0:0:0:
95,384,85595,5,0,0:0:0:0:
153,0,85760,1,0,0:0:0:0:
299,357,85924,6,0,L|281:222,1,135.000005149842
495,0,86254,2,0,L|513:135,1,135.000005149842
161,281,86584,2,0,P|140:149|124:10,1,270.000010299683
505,298,87078,2,0,B|434:280|381:342|381:342|333:390|255:377,1,270.000010299683
0,163,87573,6,0,P|83:153|158:124,1,135.000005149842
497,314,87902,2,0,P|414:304|339:275,1,135.000005149842
285,0,88232,2,0,P|326:65|241:227,1,270.000010299683
59,287,88891,5,0,0:0:0:0:
178,10,89056,1,0,0:0:0:0:
325,278,89221,1,0,0:0:0:0:
8,164,89386,1,0,0:0:0:0:
360,72,89551,2,0,P|436:91|512:112,1,157.500001502037
353,279,89880,6,0,B|266:270|201:313|201:313|136:239|24:257,2,315.000003004074
466,362,90705,1,0,0:0:0:0:
312,33,90869,1,0,0:0:0:0:
144,368,91034,1,0,0:0:0:0:
511,163,91199,6,0,P|369:139|199:116,1,315.000003004074
8,160,91694,1,0,0:0:0:0:
347,384,91858,2,0,P|369:283|373:221,1,157.500001502037
79,0,92188,2,0,P|94:102|113:161,1,157.500001502037
500,364,92518,2,0,P|490:228|466:42,2,315.000003004074
1,255,93507,1,0,0:0:0:0:
447,26,93836,5,0,0:0:0:0:
378,314,94001,1,0,0:0:0:0:
209,68,94166,5,0,0:0:0:0:
284,384,94331,1,0,0:0:0:0:
92,0,94496,5,0,0:0:0:0:
10,344,94661,1,0,0:0:0:0:
389,154,94825,5,0,0:0:0:0:
0,116,94990,1,0,0:0:0:0:
203,375,95155,5,0,0:0:0:0:
409,6,95320,1,0,0:0:0:0:
39,182,95485,5,0,0:0:0:0:
512,354,95650,1,0,0:0:0:0:
1,350,95814,5,0,0:0:0:0:
434,125,95979,1,0,0:0:0:0:
16,35,96144,5,0,0:0:0:0:
512,236,96309,1,0,0:0:0:0:
0,384,96474,5,0,0:0:0:0:
