osu file format v14

[General]
AudioFilename: audio.mp3
AudioLeadIn: 0
PreviewTime: 211199
Countdown: 0
SampleSet: Soft
StackLeniency: 0.2
Mode: 0
LetterboxInBreaks: 0
WidescreenStoryboard: 0

[Editor]
Bookmarks: 15710,18677,19995,21314,31863,37138,79336,83292,84611,105715,147912,151868,169011,170824,170989,209890,216484,224396,225715,248132,253407
DistanceSpacing: 0.6
BeatDivisor: 4
GridSize: 4
TimelineZoom: 2.5

[Metadata]
Title:Dziekuje
TitleUnicode:Dziękuję
Artist:Doda
ArtistUnicode:Doda
Creator:-NeBu-
Version:DominiGG's Oni najwierniej wspierali zawsze mnie
Source:
Tags:Dorota Rabczewska Diamond Bitch polish poland pop vocal dominigg chuuritsutv
BeatmapID:1768240
BeatmapSetID:659007

[Difficulty]
HPDrainRate:5
CircleSize:3.5
OverallDifficulty:8
ApproachRate:9.4
SliderMultiplier:1.8
SliderTickRate:1

[Events]
//Background and Video events
0,0,"doda_120.jpg",0,0
Video,-316,"Untitled.mp4"
//Break Periods
2,185025,194835
//Storyboard Layer 0 (Background)
//Storyboard Layer 1 (Fail)
//Storyboard Layer 2 (Pass)
//Storyboard Layer 3 (Foreground)
//Storyboard Sound Samples

[TimingPoints]
10760,329.67032967033,4,2,1,30,1,0
13891,-125,4,2,1,30,0,0
14386,-200,4,2,1,40,0,0
16034,-125,4,2,1,40,0,0
18672,-200,4,2,1,40,0,0
21309,-125,4,2,1,40,0,0
24935,-200,4,2,1,40,0,0
26584,-125,4,2,1,40,0,0
29221,-200,4,2,1,40,0,0
34496,-333.333333333333,4,2,1,40,0,0
37133,-90.9090909090909,4,2,1,40,0,0
58232,-105.263157894737,4,2,1,55,0,0
68781,-85.4700854700855,4,2,1,55,0,0
72738,-71.4285714285714,4,2,1,55,0,0
74056,-62.5,4,2,1,70,0,1
87243,-74.0740740740741,4,2,1,70,0,1
95155,-100,4,2,1,60,0,0
105705,-83.3333333333333,4,2,1,60,0,0
126803,-153.846153846153,4,2,1,60,0,0
136034,-117.647058823529,4,2,1,60,0,0
137353,-100,4,2,1,60,0,0
142628,-66.6666666666667,4,2,1,75,0,1
155814,-85.4700854700855,4,2,1,75,0,1
157463,-66.6666666666667,4,2,1,75,0,1
163727,-100,4,2,1,60,0,0
169001,-66.6666666666667,4,2,1,60,0,0
169661,-100,4,2,1,60,0,0
171639,-100,4,2,1,60,0,0
174276,-90.9090909090909,4,2,1,60,0,0
179551,-83.3333333333333,4,2,1,60,0,0
184820,-100,4,2,1,50,0,0
195370,-125,4,2,1,55,0,0
199331,-100,4,2,1,55,0,0
200650,-125,4,2,1,55,0,0
205924,-100,4,2,1,55,0,0
208562,-100,4,2,1,55,0,0
211199,-57.1428571428571,4,2,1,80,0,1
224386,-68.9655172413793,4,2,1,80,0,1
225045,-54.054054054054,4,2,1,80,0,1
232298,-50,4,2,1,85,0,1
242847,-47.6190476190476,4,2,1,85,0,1
253397,-45.4545454545455,4,2,1,85,0,1
263946,-50,4,2,1,85,0,1
274496,-100,4,2,1,5,0,0

[Colours]
Combo1 : 191,191,0
Combo2 : 64,0,64
Combo3 : 192,192,192
Combo4 : 30,30,30
Combo5 : 234,234,234
Combo6 : 255,193,164
SliderTrackOverride : 90,70,65

[HitObjects]
359,143,10759,6,0,B|356:109|356:109|175:131,1,180,0|0,0:0|0:0,0:0:0:0:
68,147,11254,2,0,B|71:181|71:181|252:159,1,180,0|0,0:0|0:0,0:0:0:0:
324,64,11749,2,0,P|355:108|348:174,1,90,0|0,0:0|0:0,0:0:0:0:
367,304,12078,2,0,P|336:260|361:139,1,180,0|0,0:0|0:0,0:0:0:0:
474,250,12573,2,0,P|401:231|357:142,1,180,0|0,0:0|0:0,0:0:0:0:
445,156,13067,6,0,L|335:139,1,90,0|0,0:0|0:0,0:0:0:0:
178,168,13397,2,0,L|369:140,1,180,0|0,0:0|0:0,0:0:0:0:
261,290,13891,2,0,L|99:263,1,144,0|0,0:0|0:0,0:0:0:0:
19,26,14386,2,0,B|133:138|-66:232|56:361,1,360,0|0,0:0|0:0,0:0:0:0:
233,103,16034,6,0,P|160:125|74:102,1,144,0|0,0:0|0:0,0:0:0:0:
235,75,16529,2,0,P|308:53|394:76,1,144,0|0,0:0|0:0,0:0:0:0:
443,80,17023,2,0,L|346:59,1,72,0|0,0:0|0:0,0:0:0:0:
233,281,17353,2,0,P|160:259|74:282,1,144,0|0,0:0|0:0,0:0:0:0:
235,309,17848,2,0,P|308:331|394:308,1,144,0|0,0:0|0:0,0:0:0:0:
443,304,18342,2,0,L|346:325,1,72,0|0,0:0|0:0,0:0:0:0:
256,192,18672,12,0,20979,0:0:0:0:
140,114,21309,6,0,P|166:177|140:268,1,144,0|0,0:0|0:0,0:0:0:0:
59,330,21803,2,0,P|33:267|59:176,1,144,0|0,0:0|0:0,0:0:0:0:
223,260,22298,2,0,L|125:245,1,72,0|0,0:0|0:0,0:0:0:0:
140,114,22628,2,0,L|238:99,1,72,0|0,0:0|0:0,0:0:0:0:
296,179,22957,1,0,0:0:0:0:
343,78,23122,2,0,L|500:52,1,144,0|0,0:0|0:0,0:0:0:0:
371,232,23617,2,0,P|390:190|369:136,1,72,0|0,0:0|0:0,0:0:0:0:
318,309,23946,6,0,P|289:270|314:156,1,144,0|0,0:0|0:0,0:0:0:0:
117,244,24441,2,0,P|146:205|121:91,1,144,0|0,0:0|0:0,0:0:0:0:
439,120,24935,2,0,B|403:145|344:128|344:128|358:100|358:100|259:113|259:113|280:93|280:93|215:72|138:113,1,405,0|0,0:0|0:0,0:0:0:0:
186,256,26584,6,0,L|83:236,1,72,0|0,0:0|0:0,0:0:0:0:
195,351,26913,2,0,L|410:312,1,216,0|0,0:0|0:0,0:0:0:0:
334,241,27573,2,0,P|310:290|317:335,1,72,0|0,0:0|0:0,0:0:0:0:
431,292,27902,2,0,P|455:243|448:198,1,72,0|0,0:0|0:0,0:0:0:0:
381,153,28232,1,0,0:0:0:0:
381,13,28397,2,0,P|423:82|401:164,1,144,0|0,0:0|0:0,0:0:0:0:
224,121,28891,2,0,P|271:104|312:108,1,72,0|0,0:0|0:0,0:0:0:0:
256,192,29221,12,0,31694,0:0:0:0:
156,250,31858,6,0,B|161:203|88:224|34:169|44:87|131:41|178:116|178:116|179:24|265:9|314:70|314:147|265:177|203:214|249:306,1,675,0|0,0:0|0:0,0:0:0:0:
339,255,34496,2,0,B|421:243|432:160|432:160|489:144|509:42|444:-5|349:29|363:84,1,404.999987640381,0|0,0:0|0:0,0:0:0:0:
207,96,37133,6,0,B|228:114|228:114|217:200,1,99.0000030212403,0|0,0:0|0:0,0:0:0:0:
260,315,37463,1,0,0:0:0:0:
321,230,37628,2,0,P|278:205|229:205,1,99.0000030212403
239,339,37957,1,0,0:0:0:0:
364,322,38122,2,0,P|410:287|414:219,1,99.0000030212403
327,131,38452,6,0,L|320:242,1,99.0000030212403
439,267,38781,1,0,0:0:0:0:
434,163,38946,2,0,L|427:52,1,99.0000030212403
304,37,39276,1,0,0:0:0:0:
235,108,39441,2,0,P|275:131|327:130,1,99.0000030212403
158,19,39770,6,0,L|146:157,1,99.0000030212403
140,204,40100,1,0,0:0:0:0:
57,244,40265,2,0,P|51:178|76:137,1,99.0000030212403
140,204,40595,1,0,0:0:0:0:
229,241,40760,2,0,P|268:290|273:342,1,99.0000030212403
143,302,41089,6,0,L|139:189,1,99.0000030212403
211,152,41419,1,0,0:0:0:0:
293,189,41584,2,0,L|290:80,1,99.0000030212403
360,41,41913,1,0,0:0:0:0:
385,169,42078,2,0,P|334:192|290:188,1,99.0000030212403
430,95,42408,6,0,P|471:171|405:261,1,198.000006042481
240,265,42902,2,0,L|368:280,1,99.0000030212403
290,357,43232,1,0,0:0:0:0:
174,316,43397,2,0,P|155:258|181:202,1,99.0000030212403
238,172,43727,6,0,B|256:205|256:205|231:297,1,99.0000030212403
144,131,44056,1,0,0:0:0:0:
216,84,44221,2,0,P|286:94|321:151,1,99.0000030212403
337,194,44551,1,0,0:0:0:0:
316,291,44716,2,0,L|418:305,1,99.0000030212403
337,194,45045,6,0,L|235:207,1,99.0000030212403
232,113,45375,1,0,0:0:0:0:
219,234,45540,2,0,L|117:247,1,99.0000030212403
95,138,45869,1,0,0:0:0:0:
100,341,46034,2,0,P|140:299|147:238,1,99.0000030212403
64,155,46364,6,0,L|52:261,1,99.0000030212403
70,116,46694,1,0,0:0:0:0:
164,75,46858,2,0,L|151:184,1,99.0000030212403
170,45,47188,1,0,0:0:0:0:
313,149,47353,2,0,P|332:104|322:57,1,99.0000030212403
390,24,47683,6,0,P|408:121|356:215,1,198.000006042481
197,253,48177,2,0,P|252:222|311:244,1,99.0000030212403
260,304,48507,1,0,0:0:0:0:
181,335,48672,2,0,P|124:298|115:239,1,99.0000030212403
29,154,49001,6,0,L|33:360,1,198.000006042481
114,234,49496,2,0,L|118:28,1,198.000006042481
27,3,49990,2,0,P|73:30|137:32,1,99.0000030212403
236,0,50320,6,0,L|250:112,1,99.0000030212403
213,197,50650,1,0,0:0:0:0:
248,98,50814,2,0,P|300:68|366:83,1,99.0000030212403,0|0,0:0|0:0,0:0:0:0:
427,143,51144,2,0,P|375:173|309:158,1,99.0000030212403
248,98,51474,1,0,0:0:0:0:
212,196,51639,6,0,B|189:230|189:230|239:388,1,198.000006042481,0|0,0:0|0:0,0:0:0:0:
308,253,52133,2,0,L|339:49,1,198.000006042481,0|0,0:0|0:0,0:0:0:0:
239,10,52628,1,0,0:0:0:0:
370,70,52792,1,0,0:0:0:0:
167,62,52957,6,0,B|51:61|8:189,1,198.000006042481,0|0,0:0|0:0,0:0:0:0:
92,318,53452,2,0,P|120:251|101:202,1,99.0000030212403,0|0,0:0|0:0,0:0:0:0:
28,253,53781,1,0,0:0:0:0:
115,227,53946,2,0,P|176:229|232:269,1,99.0000030212403,0|0,0:0|0:0,0:0:0:0:
242,329,54276,6,0,P|295:253|223:161,1,198.000006042481,0|0,0:0|0:0,0:0:0:0:
278,79,54770,2,0,P|251:122|259:199,1,99.0000030212403,0|0,0:0|0:0,0:0:0:0:
364,162,55100,1,0,0:0:0:0:
383,41,55265,2,0,L|266:64,1,99.0000030212403,0|0,0:0|0:0,0:0:0:0:
76,33,55595,6,0,L|203:57,1,99.0000030212403,0|0,0:0|0:0,0:0:0:0:
254,166,55924,1,0,0:0:0:0:
194,33,56089,1,0,0:0:0:0:
115,132,56254,2,0,L|7:153,1,99.0000030212403,0|0,0:0|0:0,0:0:0:0:
109,223,56584,2,0,L|215:241,1,99.0000030212403,0|0,0:0|0:0,0:0:0:0:
296,243,56913,6,0,P|287:195|232:158,1,99.0000030212403
207,240,57243,1,0,0:0:0:0:
253,320,57408,2,0,P|302:331|369:302,1,99.0000030212403
383,246,57738,1,0,0:0:0:0:
252,164,57902,1,0,0:0:0:0:
410,151,58067,1,0,0:0:0:0:
207,240,58232,6,0,P|161:160|207:85,1,170.999994781494,0|0,0:0|0:0,0:0:0:0:
309,59,58727,1,0,0:0:0:0:
252,164,58891,2,0,P|160:181|94:96,1,170.999995433807,0|0,0:0|0:0,0:0:0:0:
88,42,59386,1,0,0:0:0:0:
106,135,59551,6,0,L|103:322,1,170.999994781494,0|0,0:0|0:0,0:0:0:0:
18,239,60045,1,0,0:0:0:0:
103,305,60210,2,0,P|178:329|282:282,1,170.999994781494,0|0,0:0|0:0,0:0:0:0:
320,228,60705,1,0,0:0:0:0:
368,306,60869,6,0,P|392:174|267:155,1,256.499992172241,0|0,0:0|0:0,0:0:0:0:
320,228,61529,2,0,L|449:110,1,170.999994781494,0|0,0:0|0:0,0:0:0:0:
345,38,62023,1,0,0:0:0:0:
235,70,62188,6,0,B|208:118|208:118|239:247,1,170.999994781494,0|0,0:0|0:0,0:0:0:0:
297,140,62683,1,0,0:0:0:0:
235,70,62847,2,0,P|190:43|139:46,2,85.4999973907472,0|0|0,0:0|0:0|0:0,0:0:0:0:
126,120,63342,1,0,0:0:0:0:
128,215,63507,6,0,P|106:288|9:323,1,170.999994781494,0|0,0:0|0:0,0:0:0:0:
31,219,64001,1,0,0:0:0:0:
128,215,64166,2,0,L|277:315,1,170.999994781494,0|0,0:0|0:0,0:0:0:0:
320,228,64661,1,0,0:0:0:0:
256,164,64825,6,0,P|249:101|322:27,1,170.999994781494,0|0,0:0|0:0,0:0:0:0:
423,41,65320,1,0,0:0:0:0:
355,117,65485,2,0,L|506:210,1,170.999994781494,0|0,0:0|0:0,0:0:0:0:
415,263,65979,1,0,0:0:0:0:
320,228,66144,6,0,P|328:325|468:351,1,256.499992172241,0|0,0:0|0:0,0:0:0:0:
415,263,66803,2,0,L|254:348,1,170.999994781494,0|0,0:0|0:0,0:0:0:0:
200,261,67298,5,0,0:0:0:0:
254,179,67463,2,0,B|271:137|271:137|257:61,1,85.4999973907472,0|0,0:0|0:0,0:0:0:0:
191,36,67792,1,0,0:0:0:0:
139,119,67957,2,0,B|122:161|122:161|136:237,1,85.4999973907472,0|0,0:0|0:0,0:0:0:0:
200,261,68287,1,0,0:0:0:0:
254,179,68452,2,0,L|370:151,1,85.4999973907472,0|0,0:0|0:0,0:0:0:0:
434,155,68781,6,0,P|400:241|289:250,1,210.600000803375
275,74,69276,2,0,L|346:171,1,105.300000401688
294,255,69606,1,0,0:0:0:0:
198,259,69770,2,0,L|87:262,1,105.300000401688
27,104,70100,6,0,P|97:143|90:266,1,210.600000803375
16,203,70595,1,0,0:0:0:0:
110,129,70760,2,0,L|195:65,1,105.300000401688
336,158,71089,2,0,P|281:187|229:178,1,105.300000401688
349,52,71419,6,0,P|426:107|432:216,1,210.600000803375
418,321,71913,2,0,P|341:266|337:155,1,210.600000803375
429,213,72408,1,0,0:0:0:0:
432,348,72573,1,0,0:0:0:0:
270,364,72738,6,0,L|296:231,1,125.999996154785
425,66,73067,2,0,L|449:189,1,125.999996154785
179,191,73397,5,0,0:0:0:0:
335,156,73562,1,0,0:0:0:0:
96,160,73727,1,0,0:0:0:0:
416,192,73891,1,0,0:0:0:0:
32,221,74056,6,0,P|45:86|88:68,1,144
315,66,74386,1,8,0:0:0:0:
96,160,74551,1,0,0:0:0:0:
349,323,74716,1,8,0:0:0:0:
282,48,74880,1,0,0:0:0:0:
155,364,75045,2,0,P|175:282|136:214,1,144,8|0,0:0|0:0,0:0:0:0:
41,31,75375,6,0,B|107:67|107:67|214:-26|366:56,1,288,2|2,0:0|0:0,0:0:0:0:
430,236,75869,1,2,0:0:0:0:
232,172,76034,1,0,0:0:0:0:
495,126,76199,1,2,0:0:0:0:
273,320,76364,2,0,P|247:245|272:168,1,144,0|0,0:0|0:0,0:0:0:0:
451,42,76694,6,0,B|421:65|421:65|293:52,1,144,0|0,0:0|0:0,0:0:0:0:
170,45,77023,1,0,0:0:0:0:
389,242,77188,1,0,0:0:0:0:
328,27,77353,1,0,0:0:0:0:
210,187,77518,1,0,0:0:0:0:
494,245,77683,2,0,P|425:283|360:261,1,144,0|0,0:0|0:0,0:0:0:0:
64,178,78012,2,0,P|133:140|198:162,1,144,2|0,0:0|0:0,0:0:0:0:
335,264,78342,5,2,0:0:0:0:
282,129,78507,1,2,0:0:0:0:
221,262,78672,1,0,0:0:0:0:
416,189,78836,1,2,0:0:0:0:
206,40,79001,1,0,0:0:0:0:
277,353,79166,1,0,0:0:0:0:
437,88,79331,2,0,B|359:118|271:76,1,144,8|0,0:0|0:0,0:0:0:0:
181,13,79661,5,8,0:0:0:0:
252,249,79825,1,0,0:0:0:0:
301,55,79990,1,8,0:0:0:0:
94,181,80155,1,0,0:0:0:0:
149,12,80320,5,8,0:0:0:0:
285,250,80485,1,0,0:0:0:0:
335,45,80650,1,8,0:0:0:0:
66,192,80814,1,0,0:0:0:0:
162,39,80979,5,8,0:0:0:0:
181,349,81144,1,0,0:0:0:0:
252,131,81309,1,8,0:0:0:0:
32,196,81474,1,0,0:0:0:0:
309,281,81639,2,0,P|394:253|498:281,1,144,8|0,0:0|0:0,0:0:0:0:
172,186,81968,6,0,P|212:48|334:88,1,288,2|2,0:0|0:0,0:0:0:0:
462,239,82463,1,2,0:0:0:0:
301,307,82628,2,0,B|205:212|140:360|-3:253,1,288,0|0,0:0|0:0,0:0:0:0:
111,121,83122,1,0,0:0:0:0:
374,251,83287,6,0,P|390:330|351:387,1,144,8|0,0:0|0:0,0:0:0:0:
62,264,83617,2,0,P|46:185|85:128,1,144,8|0,0:0|0:0,0:0:0:0:
376,108,83946,5,8,0:0:0:0:
135,205,84111,1,0,0:0:0:0:
462,187,84276,5,8,0:0:0:0:
78,114,84441,1,0,0:0:0:0:
301,307,84606,6,0,P|229:280|142:297,1,144,0|0,0:0|0:0,0:0:0:0:
405,119,84935,2,0,P|370:179|411:270,1,144,0|0,0:0|0:0,0:0:0:0:
137,42,85265,2,0,P|172:102|131:193,1,144,8|0,0:0|0:0,0:0:0:0:
30,332,85595,2,0,B|75:305|75:305|203:328,1,144,8|0,0:0|0:0,0:0:0:0:
408,196,85924,6,0,P|293:241|142:150,1,288,2|0,0:0|0:0,0:0:0:0:
288,71,86419,1,2,0:0:0:0:
385,315,86584,2,0,L|397:167,1,144,0|0,0:0|0:0,0:0:0:0:
143,140,86913,2,0,L|155:288,1,144,2|0,0:0|0:0,0:0:0:0:
512,115,87243,6,0,B|339:-32|207:244|38:51,1,486.000001853943,6|0,0:0|0:0,0:0:0:0:
286,58,88067,1,0,0:0:0:0:
188,294,88232,2,0,P|127:326|66:316,1,121.500000463486,0|0,0:0|0:0,0:0:0:0:
351,201,88562,2,0,P|377:265|368:341,1,121.500000463486,2|0,0:0|0:0,0:0:0:0:
111,226,88891,5,8,0:0:0:0:
321,195,89056,1,0,0:0:0:0:
116,123,89221,1,8,0:0:0:0:
348,200,89386,1,0,0:0:0:0:
86,250,89551,1,8,0:0:0:0:
382,206,89716,1,0,0:0:0:0:
87,114,89880,6,0,B|140:74|140:74|328:110,1,243.000000926971,2|2,0:0|0:0,0:0:0:0:
389,338,90375,2,0,P|360:282|371:210,1,121.500000463486,2|0,0:0|0:0,0:0:0:0:
417,69,90705,1,2,0:0:0:0:
348,200,90869,2,0,L|201:222,1,121.500000463486,0|0,0:0|0:0,0:0:0:0:
80,81,91199,6,0,L|227:103,1,121.500000463486,2|0,0:0|0:0,0:0:0:0:
278,291,91529,1,2,0:0:0:0:
184,195,91694,1,2,0:0:0:0:
145,362,91858,1,0,0:0:0:0:
312,294,92023,1,2,0:0:0:0:
45,208,92188,2,0,P|121:228|212:207,1,121.500000463486,0|0,0:0|0:0,0:0:0:0:
315,45,92518,6,0,B|271:96|271:96|333:170|323:291,1,243.000000926971,0|0,0:0|0:0,0:0:0:0:
146,336,93012,1,0,0:0:0:0:
237,98,93177,1,0,0:0:0:0:
312,294,93342,1,0,0:0:0:0:
62,116,93507,2,0,P|76:193|53:266,1,121.500000463486,0|0,0:0|0:0,0:0:0:0:
253,127,93836,6,0,B|312:88|312:88|504:118,1,243.000000926971,8|8,0:0|0:0,0:0:0:0:
426,344,94331,1,0,0:0:0:0:
226,103,94496,1,8,0:0:0:0:
312,294,94661,1,0,0:0:0:0:
457,36,94825,1,8,0:0:0:0:
364,216,94990,1,0,0:0:0:0:
213,69,95155,6,0,P|137:46|20:65,1,180,0|0,0:0|0:0,0:0:0:0:
93,237,95650,1,0,0:0:0:0:
262,140,95814,2,0,P|296:98|290:40,1,90,0|0,0:0|0:0,0:0:0:0:
81,209,96144,2,0,L|196:214,1,90,0|0,0:0|0:0,0:0:0:0:
355,304,96474,6,0,B|272:273|278:372|146:335,1,180,0|0,0:0|0:0,0:0:0:0:
277,168,96968,1,0,0:0:0:0:
367,337,97133,1,0,0:0:0:0:
450,140,97298,1,0,0:0:0:0:
262,190,97463,1,0,0:0:0:0:
475,262,97628,1,0,0:0:0:0:
284,100,97792,6,0,P|229:102|166:212,1,180,0|0,0:0|0:0,0:0:0:0:
424,162,98287,1,0,0:0:0:0:
295,1,98452,2,0,P|313:58|308:96,1,90,0|0,0:0|0:0,0:0:0:0:
277,276,98781,2,0,P|259:219|264:181,1,90,0|0,0:0|0:0,0:0:0:0:
449,306,99111,6,0,L|245:303,1,180,0|0,0:0|0:0,0:0:0:0:
113,235,99606,1,0,0:0:0:0:
168,359,99770,1,0,0:0:0:0:
193,128,99935,1,0,0:0:0:0:
90,249,100100,1,0,0:0:0:0:
277,276,100265,1,0,0:0:0:0:
23,150,100430,6,0,B|60:129|60:129|216:156,1,180,0|0,0:0|0:0,0:0:0:0:
277,305,100924,1,0,0:0:0:0:
327,102,101089,2,0,P|298:144|295:189,1,90,0|0,0:0|0:0,0:0:0:0:
336,377,101419,2,0,P|365:335|368:290,1,90,0|0,0:0|0:0,0:0:0:0:
222,153,101749,5,0,0:0:0:0:
277,305,101913,1,0,0:0:0:0:
336,75,102078,1,0,0:0:0:0:
432,218,102243,1,0,0:0:0:0:
118,187,102408,1,0,0:0:0:0:
308,297,102573,1,0,0:0:0:0:
115,319,102738,1,0,0:0:0:0:
255,163,102902,1,0,0:0:0:0:
160,323,103067,6,0,B|83:281|83:281|-16:328,1,180,0|0,0:0|0:0,0:0:0:0:
284,279,103562,1,0,0:0:0:0:
172,117,103727,2,0,P|160:179|175:212,1,90,0|0,0:0|0:0,0:0:0:0:
361,325,104056,2,0,P|373:263|358:230,1,90,0|0,0:0|0:0,0:0:0:0:
145,102,104386,5,0,0:0:0:0:
317,137,104551,1,0,0:0:0:0:
155,216,104716,1,0,0:0:0:0:
406,133,104880,1,0,0:0:0:0:
77,163,105045,1,0,0:0:0:0:
231,269,105210,1,0,0:0:0:0:
225,22,105375,1,0,0:0:0:0:
437,153,105540,1,0,0:0:0:0:
231,269,105705,6,0,P|337:236|464:283,1,215.999993408203,0|0,0:0|0:0,0:0:0:0:
249,362,106199,1,0,0:0:0:0:
178,161,106364,2,0,P|193:227|184:277,1,107.999996704102,0|0,0:0|0:0,0:0:0:0:
51,167,106694,2,0,P|36:101|45:51,1,107.999996704102,0|0,0:0|0:0,0:0:0:0:
352,149,107023,6,0,L|130:108,1,215.999993408203,0|0,0:0|0:0,0:0:0:0:
241,92,107518,1,0,0:0:0:0:
350,272,107683,2,0,P|375:223|365:158,1,107.999996704102,0|0,0:0|0:0,0:0:0:0:
163,238,108012,2,0,P|218:211|263:205,1,107.999996704102,0|0,0:0|0:0,0:0:0:0:
454,127,108342,6,0,L|225:89,1,215.999993408203,0|0,0:0|0:0,0:0:0:0:
44,233,108836,2,0,L|159:216,1,107.999996704102,0|0,0:0|0:0,0:0:0:0:
225,115,109166,1,0,0:0:0:0:
261,331,109331,2,0,L|146:314,1,107.999996704102,0|0,0:0|0:0,0:0:0:0:
294,186,109661,6,0,P|318:132|226:8,1,215.999993408203,0|0,0:0|0:0,0:0:0:0:
150,217,110155,1,0,0:0:0:0:
227,120,110320,1,0,0:0:0:0:
70,95,110485,1,0,0:0:0:0:
166,247,110650,2,0,P|223:228|311:241,1,107.999996704102,0|0,0:0|0:0,0:0:0:0:
413,336,110979,6,0,P|386:264|404:125,1,215.999993408203,0|0,0:0|0:0,0:0:0:0:
474,16,111474,1,0,0:0:0:0:
501,161,111639,2,0,P|451:132|383:132,1,107.999996704102,0|0,0:0|0:0,0:0:0:0:
196,113,111968,2,0,P|246:142|314:142,1,107.999996704102,0|0,0:0|0:0,0:0:0:0:
172,320,112298,2,0,P|179:262|150:95,1,215.999993408203,0|0,0:0|0:0,0:0:0:0:
19,165,112792,1,0,0:0:0:0:
82,312,112957,2,0,L|194:293,1,107.999996704102,0|0,0:0|0:0,0:0:0:0:
378,198,113287,2,0,L|266:179,1,107.999996704102,0|0,0:0|0:0,0:0:0:0:
290,357,113617,6,0,P|358:327|505:347,1,215.999993408203,0|0,0:0|0:0,0:0:0:0:
348,218,114111,2,0,L|236:199,1,107.999996704102,0|0,0:0|0:0,0:0:0:0:
293,65,114441,1,0,0:0:0:0:
406,122,114606,2,0,L|518:103,1,107.999996704102,0|0,0:0|0:0,0:0:0:0:
262,50,114935,6,0,P|206:34|136:39,1,107.999996704102,0|0,0:0|0:0,0:0:0:0:
76,216,115265,1,0,0:0:0:0:
186,130,115430,1,0,0:0:0:0:
220,299,115595,1,0,0:0:0:0:
45,207,115760,1,0,0:0:0:0:
249,286,115924,1,0,0:0:0:0:
73,341,116089,1,0,0:0:0:0:
281,199,116254,6,0,P|338:269|281:384,1,215.999993408203,0|0,0:0|0:0,0:0:0:0:
186,130,116749,1,0,0:0:0:0:
311,180,116913,2,0,L|437:171,1,107.999996704102,0|0,0:0|0:0,0:0:0:0:
209,101,117243,2,0,L|83:92,1,107.999996704102,0|0,0:0|0:0,0:0:0:0:
159,339,117573,2,0,P|129:273|-3:300,1,215.999993408203,0|0,0:0|0:0,0:0:0:0:
209,101,118067,2,0,P|239:167|371:140,1,215.999993408203,0|0,0:0|0:0,0:0:0:0:
79,96,118562,2,0,L|189:77,1,107.999996704102,0|0,0:0|0:0,0:0:0:0:
272,324,118891,6,0,P|251:258|277:174,1,107.999996704102,0|0,0:0|0:0,0:0:0:0:
379,125,119221,1,0,0:0:0:0:
456,298,119386,2,0,L|340:257,1,107.999996704102,0|0,0:0|0:0,0:0:0:0:
375,97,119716,1,0,0:0:0:0:
254,220,119880,2,0,L|138:179,1,107.999996704102,0|0,0:0|0:0,0:0:0:0:
178,28,120210,2,0,P|256:83|383:64,1,215.999993408203,0|0,0:0|0:0,0:0:0:0:
152,156,120705,1,0,0:0:0:0:
277,208,120869,2,0,L|292:325,1,107.999996704102,0|0,0:0|0:0,0:0:0:0:
125,373,121199,2,0,L|140:256,1,107.999996704102,0|0,0:0|0:0,0:0:0:0:
421,242,121529,6,0,P|369:271|242:193,1,215.999993408203,0|0,0:0|0:0,0:0:0:0:
268,47,122023,1,0,0:0:0:0:
237,175,122188,2,0,L|100:175,1,107.999996704102,0|0,0:0|0:0,0:0:0:0:
290,74,122518,2,0,L|427:74,1,107.999996704102,0|0,0:0|0:0,0:0:0:0:
339,276,122847,2,0,B|317:246|317:246|341:177,1,107.999996704102,0|0,0:0|0:0,0:0:0:0:
467,243,123177,2,0,B|489:273|489:273|465:342,1,107.999996704102,0|0,0:0|0:0,0:0:0:0:
249,342,123507,1,0,0:0:0:0:
371,271,123672,1,0,0:0:0:0:
229,216,123836,2,0,P|167:223|108:195,1,107.999996704102,0|0,0:0|0:0,0:0:0:0:
167,17,124166,6,0,P|192:85|180:131,1,107.999996704102,0|0,0:0|0:0,0:0:0:0:
329,182,124496,2,0,P|304:114|316:68,1,107.999996704102,0|0,0:0|0:0,0:0:0:0:
446,217,124825,1,0,0:0:0:0:
405,116,124990,1,0,0:0:0:0:
370,271,125155,2,0,L|361:389,1,107.999996704102,0|0,0:0|0:0,0:0:0:0:
213,326,125485,5,0,0:0:0:0:
364,237,125650,1,0,0:0:0:0:
156,177,125814,1,0,0:0:0:0:
233,297,125979,1,0,0:0:0:0:
251,100,126144,1,0,0:0:0:0:
72,156,126309,1,0,0:0:0:0:
329,231,126474,1,0,0:0:0:0:
27,283,126639,1,0,0:0:0:0:
277,84,126803,6,0,B|242:48|242:48|31:67,1,233.999989288331,0|0,0:0|0:0,0:0:0:0:
152,235,127792,2,0,L|156:170,1,58.4999973220826,0|0,0:0|0:0,0:0:0:0:
294,219,128122,6,0,B|329:255|329:255|540:236,1,233.999989288331,0|0,0:0|0:0,0:0:0:0:
379,76,129111,2,0,L|383:141,1,58.4999973220826,0|0,0:0|0:0,0:0:0:0:
279,334,129441,6,0,P|207:270|73:304,1,233.999989288331,0|0,0:0|0:0,0:0:0:0:
157,156,130430,1,0,0:0:0:0:
335,195,130760,6,0,B|361:168|361:168|347:62,1,116.999994644165,0|0,0:0|0:0,0:0:0:0:
246,177,131255,1,0,0:0:0:0:
271,263,131419,2,0,P|303:286|349:289,2,58.4999973220826,0|0|0,0:0|0:0|0:0,0:0:0:0:
240,87,131914,1,0,0:0:0:0:
51,251,132078,6,0,P|122:224|287:278,1,233.999989288331,0|0,0:0|0:0,0:0:0:0:
305,341,133067,2,0,B|281:311|281:311|279:275,1,58.4999973220826,0|0,0:0|0:0,0:0:0:0:
494,177,133397,6,0,P|423:204|258:150,1,233.999989288331,0|0,0:0|0:0,0:0:0:0:
240,87,134386,2,0,B|264:117|264:117|266:153,1,58.4999973220826,0|0,0:0|0:0,0:0:0:0:
7,110,134716,6,0,L|265:84,1,233.999989288331,0|0,0:0|0:0,0:0:0:0:
337,76,135705,1,0,0:0:0:0:
187,298,136034,6,0,L|174:129,1,153.000002918243,0|0,0:0|0:0,0:0:0:0:
263,52,136529,1,0,0:0:0:0:
326,197,136694,2,0,L|316:303,2,76.5000014591217,0|0|0,0:0|0:0|0:0,0:0:0:0:
228,47,137188,1,0,0:0:0:0:
204,168,137353,6,0,L|17:200,1,180,0|0,0:0|0:0,0:0:0:0:
315,300,137847,2,0,L|502:332,1,180,0|0,0:0|0:0,0:0:0:0:
252,241,138342,2,0,P|232:288|240:337,1,90,0|0,0:0|0:0,0:0:0:0:
335,213,138672,2,0,P|317:158|369:16,1,180,0|0,0:0|0:0,0:0:0:0:
463,161,139166,2,0,P|413:144|344:30,1,180,0|0,0:0|0:0,0:0:0:0:
155,68,139661,2,0,L|247:43,1,90,0|0,0:0|0:0,0:0:0:0:
215,236,139990,6,0,P|169:212|124:204,1,90,0|0,0:0|0:0,0:0:0:0:
300,149,140320,2,0,P|346:125|391:117,1,90,0|0,0:0|0:0,0:0:0:0:
206,278,140650,1,0,0:0:0:0:
372,213,140814,1,0,0:0:0:0:
209,123,140979,2,0,P|163:99|118:91,1,90,0|0,0:0|0:0,0:0:0:0:
196,305,141309,5,8,0:0:0:0:
236,100,141474,1,0,0:0:0:0:
361,312,141639,1,8,0:0:0:0:
263,74,141803,1,0,0:0:0:0:
182,340,141968,1,8,0:0:0:0:
287,47,142133,1,0,0:0:0:0:
393,308,142298,1,8,0:0:0:0:
76,239,142463,1,0,0:0:0:0:
453,183,142628,6,0,B|403:189|403:189|281:142,1,135.000005149842,8|0,0:0|0:0,0:0:0:0:
115,67,142957,1,8,0:0:0:0:
412,83,143122,1,0,0:0:0:0:
220,286,143287,1,8,0:0:0:0:
118,35,143452,1,0,0:0:0:0:
223,316,143617,2,0,P|282:274|347:279,1,135.000005149842,8|0,0:0|0:0,0:0:0:0:
415,104,143946,6,0,L|111:39,1,270.000010299683,2|2,0:0|0:0,0:0:0:0:
77,277,144441,1,2,0:0:0:0:
145,69,144606,1,0,0:0:0:0:
229,344,144770,1,2,0:0:0:0:
68,127,144935,2,0,P|131:162|208:146,1,135.000005149842,0|0,0:0|0:0,0:0:0:0:
412,83,145265,6,0,P|369:173|428:349,1,270.000010299683,2|2,0:0|0:0,0:0:0:0:
501,117,145760,1,2,0:0:0:0:
271,231,145924,2,0,L|426:211,1,135.000005149842,0|2,0:0|0:0,0:0:0:0:
278,86,146254,2,0,L|123:66,1,135.000005149842,0|0,0:0|0:0,0:0:0:0:
189,298,146584,6,0,P|223:174|131:63,1,270.000010299683,0|0,0:0|0:0,0:0:0:0:
31,326,147078,1,0,0:0:0:0:
257,201,147243,1,0,0:0:0:0:
10,135,147408,1,0,0:0:0:0:
207,334,147573,2,0,P|274:296|354:302,1,135.000005149842,0|0,0:0|0:0,0:0:0:0:
417,154,147902,6,0,P|359:101|484:104,1,270.000010299683,8|8,0:0|0:0,0:0:0:0:
354,305,148397,1,0,0:0:0:0:
226,138,148562,1,8,0:0:0:0:
451,168,148727,1,0,0:0:0:0:
193,223,148891,1,8,0:0:0:0:
376,115,149056,1,0,0:0:0:0:
161,304,149221,6,0,P|91:278|0:287,1,135.000005149842,8|0,0:0|0:0,0:0:0:0:
116,97,149551,1,8,0:0:0:0:
221,235,149716,1,0,0:0:0:0:
293,26,149880,1,8,0:0:0:0:
86,102,150045,1,0,0:0:0:0:
308,215,150210,2,0,P|231:150|160:171,1,135.000005149842,8|0,0:0|0:0,0:0:0:0:
430,337,150540,6,0,P|401:248|446:68,1,270.000010299683,2|2,0:0|0:0,0:0:0:0:
264,27,151034,1,2,0:0:0:0:
279,258,151199,2,0,P|242:187|192:144,1,135.000005149842,0|2,0:0|0:0,0:0:0:0:
28,361,151529,2,0,P|65:290|115:247,1,135.000005149842,0|0,0:0|0:0,0:0:0:0:
417,218,151858,6,0,P|333:182|266:8,1,270.000010299683,8|8,0:0|0:0,0:0:0:0:
436,49,152353,1,0,0:0:0:0:
356,285,152518,2,0,P|329:221|364:135,1,135.000005149842,8|0,0:0|0:0,0:0:0:0:
138,65,152847,1,8,0:0:0:0:
215,301,153012,1,0,0:0:0:0:
372,133,153177,6,0,L|100:93,1,270.000010299683,0|0,0:0|0:0,0:0:0:0:
210,330,153672,1,0,0:0:0:0:
451,187,153836,2,0,P|463:110|425:51,1,135.000005149842,0|0,0:0|0:0,0:0:0:0:
54,242,154166,2,0,L|215:205,1,135.000005149842,0|0,0:0|0:0,0:0:0:0:
239,12,154496,6,0,P|148:74|218:226,1,270.000010299683,2|2,0:0|0:0,0:0:0:0:
424,201,154990,1,2,0:0:0:0:
246,126,155155,2,0,P|284:190|271:273,1,135.000005149842,0|2,0:0|0:0,0:0:0:0:
451,350,155485,2,0,P|413:286|426:203,1,135.000005149842,0|0,0:0|0:0,0:0:0:0:
463,75,155814,6,0,B|294:181|253:-2|60:126,1,421.20000160675,6|0,0:0|0:0,0:0:0:0:
254,327,156639,1,0,0:0:0:0:
229,152,156803,2,0,L|251:30,1,105.300000401688,0|0,0:0|0:0,0:0:0:0:
424,201,157133,2,0,L|446:323,1,105.300000401688,2|0,0:0|0:0,0:0:0:0:
231,335,157463,5,8,0:0:0:0:
460,199,157628,1,0,0:0:0:0:
137,152,157792,1,8,0:0:0:0:
361,253,157957,1,0,0:0:0:0:
88,313,158122,1,8,0:0:0:0:
361,147,158287,1,0,0:0:0:0:
210,362,158452,6,0,P|228:262|120:115,1,270.000010299683,2|2,0:0|0:0,0:0:0:0:
69,296,158946,1,2,0:0:0:0:
213,152,159111,2,0,L|382:112,1,135.000005149842,0|2,0:0|0:0,0:0:0:0:
466,294,159441,2,0,L|297:254,1,135.000005149842,0|0,0:0|0:0,0:0:0:0:
195,60,159770,6,0,P|283:105|191:245,1,270.000010299683,2|2,0:0|0:0,0:0:0:0:
168,33,160265,1,2,0:0:0:0:
370,73,160430,1,0,0:0:0:0:
185,172,160595,1,2,0:0:0:0:
436,238,160760,2,0,P|366:201|261:216,1,135.000005149842,0|0,0:0|0:0,0:0:0:0:
80,365,161089,6,0,P|158:294|93:132,1,270.000010299683,8|8,0:0|0:0,0:0:0:0:
58,249,161584,1,0,0:0:0:0:
337,76,161749,2,0,P|259:147|324:309,1,270.000010299683,8|8,0:0|0:0,0:0:0:0:
359,192,162244,1,0,0:0:0:0:
155,99,162408,5,8,0:0:0:0:
397,195,162573,1,0,0:0:0:0:
154,303,162738,1,8,0:0:0:0:
435,198,162902,1,0,0:0:0:0:
71,67,163067,1,8,0:0:0:0:
475,203,163232,1,0,0:0:0:0:
183,328,163397,1,8,0:0:0:0:
265,25,163562,1,0,0:0:0:0:
332,325,163727,6,0,L|143:301,1,180,2|2,0:0|0:0,0:0:0:0:
46,183,164221,2,0,L|235:159,1,180,2|2,0:0|0:0,0:0:0:0:
368,251,164716,2,0,P|355:175|360:127,1,90,0|0,0:0|0:0,0:0:0:0:
456,47,165045,2,0,L|351:66,1,90,2|0,0:0|0:0,0:0:0:0:
171,126,165375,2,0,L|276:145,1,90,2|2,0:0|0:0,0:0:0:0:
431,177,165705,5,0,0:0:0:0:
304,253,165869,1,2,0:0:0:0:
460,160,166034,1,0,0:0:0:0:
410,328,166199,1,0,0:0:0:0:
278,245,166364,6,0,L|165:259,1,90,2|0,0:0|0:0,0:0:0:0:
126,327,166694,1,2,0:0:0:0:
42,139,166858,2,0,L|155:153,1,90,0|8,0:0|0:0,0:0:0:0:
194,221,167188,1,0,0:0:0:0:
239,47,167353,2,0,P|216:103|225:149,1,90,2|0,0:0|0:0,0:0:0:0:
365,217,167683,6,0,P|295:147|199:133,1,180,2|0,0:0|0:0,0:0:0:0:
215,255,168177,1,0,0:0:0:0:
317,316,168342,2,0,L|203:295,1,90,8|0,0:0|0:0,0:0:0:0:
130,147,168672,2,0,L|244:126,1,90,8|0,0:0|0:0,0:0:0:0:
414,125,169001,6,0,B|316:220|459:264|399:376,1,270.000010299683,2|0,0:0|0:0,0:0:0:0:
215,255,169496,1,0,0:0:0:0:
333,207,169661,2,0,L|443:199,1,90,0|0,0:0|0:0,0:0:0:0:
253,134,169990,2,0,L|128:124,1,90,0|0,0:0|0:0,0:0:0:0:
160,327,170320,2,0,B|175:290|175:290|155:128,1,180,0|0,0:0|0:0,0:0:0:0:
86,52,170814,1,2,0:0:0:0:
56,187,170979,2,0,P|98:161|146:150,1,90,0|0,0:0|0:0,0:0:0:0:
329,81,171309,2,0,P|287:55|239:44,1,90,0|0,0:0|0:0,0:0:0:0:
196,226,171639,5,0,0:0:0:0:
246,137,171803,1,0,0:0:0:0:
296,303,171968,1,0,0:0:0:0:
161,201,172133,1,2,0:0:0:0:
288,110,172298,2,0,L|286:209,1,90,0|2,0:0|0:0,0:0:0:0:
112,276,172628,2,0,P|165:288|226:263,1,90,0|0,0:0|0:0,0:0:0:0:
404,215,172957,6,0,P|351:203|290:228,1,90,8|0,0:0|0:0,0:0:0:0:
454,307,173287,2,0,P|499:246|452:123,1,180,8|2,0:0|0:0,0:0:0:0:
395,85,173781,1,0,0:0:0:0:
301,229,173946,1,0,0:0:0:0:
503,130,174111,1,2,0:0:0:0:
296,62,174276,6,0,L|184:66,1,99.0000030212403,0|0,0:0|0:0,0:0:0:0:
100,221,174606,2,0,L|212:225,1,99.0000030212403,0|0,0:0|0:0,0:0:0:0:
352,234,174935,1,0,0:0:0:0:
190,92,175100,1,0,0:0:0:0:
175,323,175265,1,0,0:0:0:0:
233,208,175430,1,0,0:0:0:0:
404,328,175595,6,0,P|325:328|255:215,1,198.000006042481,2|2,0:0|0:0,0:0:0:0:
281,134,176089,1,0,0:0:0:0:
352,234,176254,1,2,0:0:0:0:
173,122,176419,1,0,0:0:0:0:
354,60,176584,2,0,L|475:82,1,99.0000030212403,2|0,0:0|0:0,0:0:0:0:
233,208,176913,6,0,L|112:230,1,99.0000030212403,0|0,0:0|0:0,0:0:0:0:
39,127,177243,1,0,0:0:0:0:
173,94,177408,2,0,L|294:116,1,99.0000030212403,0|0,0:0|0:0,0:0:0:0:
324,264,177738,1,0,0:0:0:0:
395,105,177902,2,0,P|342:100|292:116,1,99.0000030212403,0|0,0:0|0:0,0:0:0:0:
391,319,178232,6,0,P|411:266|391:211,1,99.0000030212403,0|0,0:0|0:0,0:0:0:0:
191,276,178562,2,0,L|307:261,1,99.0000030212403,0|0,0:0|0:0,0:0:0:0:
261,149,178891,1,0,0:0:0:0:
188,307,179056,1,0,0:0:0:0:
106,103,179221,2,0,L|146:219,1,99.0000030212403,0|0,0:0|0:0,0:0:0:0:
340,111,179551,6,0,P|291:70|224:72,1,107.999996704102,2|0,0:0|0:0,0:0:0:0:
30,143,179880,2,0,P|79:184|146:182,1,107.999996704102,2|2,0:0|0:0,0:0:0:0:
224,41,180210,1,0,0:0:0:0:
249,169,180375,1,2,0:0:0:0:
444,139,180540,2,0,L|318:105,1,107.999996704102,0|0,0:0|0:0,0:0:0:0:
216,254,180869,2,0,P|284:252|332:204,1,107.999996704102,2|0,0:0|0:0,0:0:0:0:
150,186,181199,2,0,P|123:238|140:311,1,107.999996704102,2|2,0:0|0:0,0:0:0:0:
312,363,181529,1,0,0:0:0:0:
215,284,181694,1,2,0:0:0:0:
415,231,181858,2,0,L|288:208,1,107.999996704102,0|0,0:0|0:0,0:0:0:0:
136,160,182188,6,0,P|190:131|259:148,1,107.999996704102,8|0,0:0|0:0,0:0:0:0:
306,238,182518,1,8,0:0:0:0:
317,75,182683,1,0,0:0:0:0:
417,203,182847,1,8,0:0:0:0:
340,99,183012,1,0,0:0:0:0:
292,269,183177,1,8,0:0:0:0:
445,184,183342,1,0,0:0:0:0:
243,170,183507,6,0,L|129:159,1,107.999996704102,8|0,0:0|0:0,0:0:0:0:
79,63,183836,1,8,0:0:0:0:
134,251,184001,1,0,0:0:0:0:
261,79,184166,1,8,0:0:0:0:
243,170,184331,1,0,0:0:0:0:
278,260,184496,1,8,0:0:0:0:
364,304,184661,1,0,0:0:0:0:
325,141,184825,5,8,0:0:0:0:
423,51,195375,6,0,L|129:83,1,288,0|0,0:0|0:0,0:0:0:0:
53,100,196364,1,0,0:0:0:0:
88,333,196694,6,0,L|382:301,1,288,0|0,0:0|0:0,0:0:0:0:
459,284,197683,1,0,0:0:0:0:
158,110,198012,6,0,P|197:213|68:334,1,288,0|0,0:0|0:0,0:0:0:0:
83,203,199001,1,0,0:0:0:0:
414,150,199331,6,0,B|296:62|179:209|60:103,1,360,0|0,0:0|0:0,0:0:0:0:
166,25,200155,1,0,0:0:0:0:
294,247,200320,2,0,P|293:165|273:120,1,90,0|0,0:0|0:0,0:0:0:0:
98,307,200650,6,0,L|396:271,1,288,0|0,0:0|0:0,0:0:0:0:
469,258,201639,1,0,0:0:0:0:
414,77,201968,6,0,L|116:113,1,288,0|0,0:0|0:0,0:0:0:0:
43,126,202957,1,0,0:0:0:0:
270,238,203287,6,0,P|229:164|20:137,1,288,0|0,0:0|0:0,0:0:0:0:
110,271,204276,1,0,0:0:0:0:
246,213,204606,6,0,L|391:233,1,144,0|0,0:0|0:0,0:0:0:0:
288,340,205100,1,0,0:0:0:0:
138,300,205265,2,0,L|39:314,2,72,0|0|0,0:0|0:0|0:0,0:0:0:0:
232,189,205760,1,0,0:0:0:0:
33,149,205924,6,0,L|222:166,1,180,0|0,0:0|0:0,0:0:0:0:
462,54,206419,2,0,L|273:71,1,180,0|0,0:0|0:0,0:0:0:0:
263,235,206913,2,0,P|296:172|286:121,1,90,0|0,0:0|0:0,0:0:0:0:
73,306,207243,6,0,P|131:274|273:269,1,180,0|0,0:0|0:0,0:0:0:0:
465,198,207738,2,0,P|407:166|265:161,1,180,0|0,0:0|0:0,0:0:0:0:
320,322,208232,2,0,P|336:267|320:224,1,90,0|0,0:0|0:0,0:0:0:0:
99,144,208562,6,0,L|217:162,1,90,0|0,0:0|0:0,0:0:0:0:
416,250,208891,2,0,L|298:232,1,90,0|0,0:0|0:0,0:0:0:0:
172,260,209221,1,0,0:0:0:0:
340,124,209386,1,0,0:0:0:0:
161,117,209551,2,0,L|72:103,1,90,0|0,0:0|0:0,0:0:0:0:
198,284,209880,5,8,0:0:0:0:
256,48,210045,1,0,0:0:0:0:
314,284,210210,1,8,0:0:0:0:
256,16,210375,1,0,0:0:0:0:
112,240,210540,5,8,0:0:0:0:
400,144,210705,1,0,0:0:0:0:
64,144,210869,5,8,0:0:0:0:
448,240,211034,1,0,0:0:0:0:
127,334,211199,2,0,P|191:275|183:189,1,157.500001502037,8|0,0:0|0:0,0:0:0:0:
74,51,211529,5,8,0:0:0:0:
300,314,211694,1,0,0:0:0:0:
185,36,211858,1,8,0:0:0:0:
105,352,212023,1,0,0:0:0:0:
295,70,212188,1,0,0:0:0:0:
19,203,212353,1,0,0:0:0:0:
382,320,212518,6,0,P|315:230|225:360,1,315.000003004074,2|2,0:0|0:0,0:0:0:0:
299,39,213012,1,2,0:0:0:0:
300,314,213177,1,0,0:0:0:0:
151,104,213342,1,2,0:0:0:0:
410,119,213507,2,0,L|250:63,1,157.500001502037,0|0,0:0|0:0,0:0:0:0:
74,352,213836,6,0,P|161:269|104:87,1,315.000003004074,8|8,0:0|0:0,0:0:0:0:
40,212,214331,1,0,0:0:0:0:
278,297,214496,2,0,L|107:238,1,157.500001502037,8|0,0:0|0:0,0:0:0:0:
297,133,214825,2,0,P|389:127|446:69,1,157.500001502037,0|0,0:0|0:0,0:0:0:0:
237,52,215155,6,0,P|198:153|244:222,1,157.500001502037,2|0,0:0|0:0,0:0:0:0:
328,384,215485,2,0,P|367:283|321:214,1,157.500001502037,2|2,0:0|0:0,0:0:0:0:
156,139,215814,5,0,0:0:0:0:
454,217,215979,1,2,0:0:0:0:
58,217,216144,1,0,0:0:0:0:
356,139,216309,1,0,0:0:0:0:
119,300,216474,6,0,P|156:218|117:142,1,157.500001502037,8|0,0:0|0:0,0:0:0:0:
21,46,216803,1,8,0:0:0:0:
123,333,216968,1,0,0:0:0:0:
254,84,217133,1,8,0:0:0:0:
58,217,217298,1,0,0:0:0:0:
309,352,217463,1,8,0:0:0:0:
249,53,217628,1,0,0:0:0:0:
216,295,217792,5,8,0:0:0:0:
396,124,217957,1,0,0:0:0:0:
107,47,218122,1,8,0:0:0:0:
310,250,218287,1,0,0:0:0:0:
417,24,218452,1,8,0:0:0:0:
475,315,218617,1,0,0:0:0:0:
233,160,218781,2,0,P|314:130|399:175,1,157.500001502037,8|0,0:0|0:0,0:0:0:0:
170,371,219111,6,0,B|213:288|213:288|164:71,1,315.000003004074,2|0,0:0|0:0,0:0:0:0:
82,292,219606,1,2,0:0:0:0:
142,98,219770,2,0,P|231:59|290:72,1,157.500001502037
464,224,220100,2,0,P|375:263|314:249,1,157.500001502037
85,177,220430,6,0,B|124:148|124:148|161:163|200:173|200:173|282:110|393:171,1,315.000003004074,8|0,0:0|0:0,0:0:0:0:
494,244,220924,1,0,0:0:0:0:
311,344,221089,5,8,0:0:0:0:
346,52,221254,1,0,0:0:0:0:
201,344,221419,5,8,0:0:0:0:
166,52,221584,1,0,0:0:0:0:
396,294,221749,6,0,P|324:251|256:279,1,157.500001502037,8|0,0:0|0:0,0:0:0:0:
41,334,222078,2,0,P|78:257|66:186,1,157.500001502037
321,61,222408,2,0,L|164:27,1,157.500001502037
201,344,222738,2,0,L|359:309,1,157.500001502037
347,75,223067,6,0,P|343:206|414:109,1,315.000003004074,2|0,0:0|0:0,0:0:0:0:
247,125,223562,1,2,0:0:0:0:
206,320,223727,2,0,L|48:288,1,157.500001502037
218,112,224056,2,0,L|378:78,1,157.500001502037,2|0,0:0|0:0,0:0:0:0:
512,275,224386,6,0,B|427:249|427:249|400:271|400:271|331:247|331:247|289:262|289:262|213:194|115:256,1,391.500011947632,6|0,0:0|0:0,0:0:0:0:
336,362,225045,1,0,0:0:0:0:
270,122,225210,1,0,0:0:0:0:
41,342,225375,2,0,L|245:314,1,166.499999364853,0|0,0:0|0:0,0:0:0:0:
401,144,225705,2,0,P|317:161|231:123,1,166.499999364853,2|0,0:0|0:0,0:0:0:0:
417,45,226034,5,0,0:0:0:0:
480,284,226199,1,0,0:0:0:0:
256,72,226364,5,0,0:0:0:0:
256,312,226528,1,0,0:0:0:0:
95,45,226694,5,0,0:0:0:0:
32,284,226859,1,0,0:0:0:0:
341,268,227023,6,0,P|258:224|182:249,1,166.499999364853,8|0,0:0|0:0,0:0:0:0:
34,319,227353,1,8,0:0:0:0:
284,346,227518,2,0,P|378:353|341:168,1,332.999998729706,2|2,0:0|0:0,0:0:0:0:
101,155,228012,2,0,L|302:127,1,166.499999364853,0|0,0:0|0:0,0:0:0:0:
460,62,228342,5,8,0:0:0:0:
363,213,228507,1,0,0:0:0:0:
304,24,228672,1,8,0:0:0:0:
245,268,228836,1,0,0:0:0:0:
465,165,229001,1,8,0:0:0:0:
94,120,229166,1,0,0:0:0:0:
342,312,229331,2,0,L|116:340,1,166.499999364853,8|0,0:0|0:0,0:0:0:0:
171,67,229661,6,0,P|180:158|-3:111,1,332.999998729706,0|0,0:0|0:0,0:0:0:0:
140,41,230155,1,0,0:0:0:0:
341,67,230320,2,0,P|332:158|433:220,1,166.499999364853,0|0,0:0|0:0,0:0:0:0:
366,37,230650,1,0,0:0:0:0:
469,236,230814,1,0,0:0:0:0:
190,344,230979,6,0,P|212:236|299:366,1,332.999998729706,8|8,0:0|0:0,0:0:0:0:
147,246,231474,1,0,0:0:0:0:
365,246,231639,1,8,0:0:0:0:
72,168,231803,1,0,0:0:0:0:
440,168,231968,1,8,0:0:0:0:
0,92,232133,1,0,0:0:0:0:
512,92,232298,6,0,B|424:57|424:57|373:78|373:78|262:15|114:66,1,360,2|2,0:0|0:0,0:0:0:0:
151,347,232792,1,2,0:0:0:0:
234,60,232957,1,0,0:0:0:0:
295,298,233122,1,2,0:0:0:0:
103,114,233287,1,0,0:0:0:0:
396,172,233452,1,0,0:0:0:0:
47,299,233617,6,0,P|133:239|244:273,1,180,8|0,0:0|0:0,0:0:0:0:
415,373,233946,1,8,0:0:0:0:
357,62,234111,1,0,0:0:0:0:
262,313,234276,1,8,0:0:0:0:
512,254,234441,1,0,0:0:0:0:
227,155,234606,2,0,P|123:129|56:48,1,180,8|0,0:0|0:0,0:0:0:0:
490,159,234935,6,0,P|409:116|455:273,1,360,0|0,0:0|0:0,0:0:0:0:
370,93,235430,1,0,0:0:0:0:
256,348,235595,1,0,0:0:0:0:
512,254,235760,1,0,0:0:0:0:
161,105,235924,1,0,0:0:0:0:
417,199,236089,1,0,0:0:0:0:
123,301,236254,5,8,0:0:0:0:
173,68,236419,1,0,0:0:0:0:
365,288,236584,1,8,0:0:0:0:
185,37,236749,1,0,0:0:0:0:
92,297,236913,1,8,0:0:0:0:
396,269,237078,1,0,0:0:0:0:
38,157,237243,1,8,0:0:0:0:
421,106,237408,1,0,0:0:0:0:
192,354,237573,6,0,P|196:248|98:186,1,180,2|0,0:0|0:0,0:0:0:0:
31,51,237902,1,2,0:0:0:0:
229,130,238067,2,0,P|338:200|512:61,1,360,2|2,0:0|0:0,0:0:0:0:
187,31,238562,2,0,P|126:124|165:213,1,180,0|0,0:0|0:0,0:0:0:0:
432,308,238891,5,8,0:0:0:0:
352,62,239056,1,0,0:0:0:0:
267,209,239221,1,8,0:0:0:0:
508,83,239386,1,0,0:0:0:0:
446,338,239551,1,8,0:0:0:0:
268,172,239716,1,0,0:0:0:0:
181,363,239880,1,8,0:0:0:0:
267,136,240045,1,0,0:0:0:0:
425,325,240210,6,0,B|331:281|331:281|58:371,1,360,8|8,0:0|0:0,0:0:0:0:
91,119,240705,1,0,0:0:0:0:
211,345,240869,1,8,0:0:0:0:
268,100,241034,1,0,0:0:0:0:
317,314,241199,2,0,P|239:246|165:249,1,180,8|0,0:0|0:0,0:0:0:0:
57,108,241529,6,0,L|435:46,1,360,8|8,0:0|0:0,0:0:0:0:
313,345,242023,1,0,0:0:0:0:
235,131,242188,2,0,L|-5:99,1,180,8|0,0:0|0:0,0:0:0:0:
175,352,242518,1,8,0:0:0:0:
422,24,242683,1,0,0:0:0:0:
495,323,242847,2,0,B|457:347|457:347|290:307,1,188.999994232178,8|0,0:0|0:0,0:0:0:0:
128,24,243177,5,8,0:0:0:0:
203,367,243342,1,0,0:0:0:0:
300,17,243507,1,8,0:0:0:0:
20,271,243672,1,0,0:0:0:0:
451,177,243836,1,8,0:0:0:0:
0,68,244001,1,0,0:0:0:0:
227,365,244166,6,0,B|274:255|274:255|244:140|244:140|343:-15,1,377.999988464356,2|2,0:0|0:0,0:0:0:0:
414,304,244661,1,2,0:0:0:0:
117,229,244825,1,0,0:0:0:0:
441,135,244990,1,2,0:0:0:0:
89,345,245155,2,0,P|19:272|33:150,1,188.999994232178,0|0,0:0|0:0,0:0:0:0:
468,122,245485,6,0,B|378:87|378:87|281:121|281:121|206:61|99:84,1,377.999988464356,2|2,0:0|0:0,0:0:0:0:
267,304,245979,1,2,0:0:0:0:
468,92,246144,1,0,0:0:0:0:
149,208,246309,1,2,0:0:0:0:
461,328,246474,2,0,P|371:269|266:280,1,188.999994232178,8|0,0:0|0:0,0:0:0:0:
112,340,246803,5,2,0:0:0:0:
164,168,246968,1,0,0:0:0:0:
299,330,247133,1,2,0:0:0:0:
144,140,247298,1,2,0:0:0:0:
387,197,247463,1,0,0:0:0:0:
121,115,247628,1,2,0:0:0:0:
436,31,247792,1,0,0:0:0:0:
92,88,247957,1,0,0:0:0:0:
350,363,248122,2,0,P|331:255|361:176,1,188.999994232178,0|0,0:0|0:0,0:0:0:0:
436,31,248452,5,8,0:0:0:0:
475,244,248617,1,0,0:0:0:0:
245,64,248781,1,0,0:0:0:0:
485,130,248946,1,0,0:0:0:0:
196,282,249111,1,8,0:0:0:0:
257,36,249276,1,0,0:0:0:0:
433,267,249441,5,8,0:0:0:0:
76,123,249606,1,0,0:0:0:0:
361,344,249770,1,8,0:0:0:0:
45,319,249935,1,0,0:0:0:0:
238,27,250100,1,8,0:0:0:0:
166,328,250265,1,0,0:0:0:0:
456,126,250430,1,8,0:0:0:0:
263,363,250595,1,0,0:0:0:0:
3,61,250760,6,0,B|79:102|79:102|405:40,1,377.999988464356,8|8,0:0|0:0,0:0:0:0:
353,315,251254,1,0,0:0:0:0:
224,98,251419,1,8,0:0:0:0:
154,360,251584,1,0,0:0:0:0:
229,60,251749,2,0,B|281:26|281:26|356:55|446:47,1,188.999994232178,8|0,0:0|0:0,0:0:0:0:
272,291,252078,6,0,P|305:382|350:227,1,377.999988464356,8|8,0:0|0:0,0:0:0:0:
79,132,252573,1,0,0:0:0:0:
499,3,252738,1,8,0:0:0:0:
13,381,252902,1,0,0:0:0:0:
499,381,253067,1,8,0:0:0:0:
13,3,253231,1,0,0:0:0:0:
499,252,253397,2,0,B|410:179|272:219,1,198.000006042481,0|0,0:0|0:0,0:0:0:0:
21,355,253727,5,0,0:0:0:0:
267,39,253891,1,0,0:0:0:0:
361,363,254056,1,2,0:0:0:0:
37,47,254221,1,0,0:0:0:0:
495,102,254386,1,2,0:0:0:0:
46,340,254551,1,0,0:0:0:0:
384,111,254716,6,0,P|237:176|8:33,1,396.000012084961,2|0,0:0|0:0,0:0:0:0:
419,24,255210,1,2,0:0:0:0:
347,328,255375,2,0,B|321:230|321:230|370:119,1,198.000006042481,0|0,0:0|0:0,0:0:0:0:
132,54,255705,2,0,B|158:152|158:152|109:263,1,198.000006042481,2|0,0:0|0:0,0:0:0:0:
462,337,256034,6,0,P|361:221|251:406,1,396.000012084961,2|2,0:0|0:0,0:0:0:0:
451,226,256529,1,2,0:0:0:0:
118,240,256694,2,0,L|315:200,1,198.000006042481,0|2,0:0|0:0,0:0:0:0:
503,86,257023,2,0,L|306:46,1,198.000006042481,8|0,0:0|0:0,0:0:0:0:
101,268,257353,5,0,0:0:0:0:
188,94,257518,1,0,0:0:0:0:
275,303,257683,1,8,0:0:0:0:
153,77,257847,1,0,0:0:0:0:
413,217,258012,1,0,0:0:0:0:
120,58,258177,1,0,0:0:0:0:
475,66,258342,1,8,0:0:0:0:
85,41,258507,1,0,0:0:0:0:
184,328,258672,6,0,P|292:286|410:306,1,198.000006042481,8|0,0:0|0:0,0:0:0:0:
347,53,259001,1,8,0:0:0:0:
280,261,259166,1,0,0:0:0:0:
77,158,259331,2,0,P|189:157|296:94,1,198.000006042481,8|0,0:0|0:0,0:0:0:0:
466,327,259661,2,0,P|354:326|247:263,1,198.000006042481,8|0,0:0|0:0,0:0:0:0:
135,30,259990,5,8,0:0:0:0:
87,262,260155,1,0,0:0:0:0:
277,49,260320,1,8,0:0:0:0:
56,245,260485,1,0,0:0:0:0:
377,194,260650,1,8,0:0:0:0:
102,19,260814,1,0,0:0:0:0:
220,342,260979,2,0,P|321:318|418:342,1,198.000006042481,8|0,0:0|0:0,0:0:0:0:
379,113,261309,6,0,P|298:200|348:55,1,396.000012084961,2|2,0:0|0:0,0:0:0:0:
499,278,261803,1,2,0:0:0:0:
289,24,261968,1,0,0:0:0:0:
220,342,262133,1,2,0:0:0:0:
298,118,262298,1,0,0:0:0:0:
378,375,262463,1,0,0:0:0:0:
10,177,262628,6,0,P|122:195|270:122,1,198.000006042481,8|0,0:0|0:0,0:0:0:0:
507,252,262957,2,0,P|395:234|247:307,1,198.000006042481,8|0,0:0|0:0,0:0:0:0:
11,355,263287,1,8,0:0:0:0:
511,278,263452,1,0,0:0:0:0:
11,29,263617,1,8,0:0:0:0:
511,106,263782,1,0,0:0:0:0:
191,365,263946,6,0,B|204:275|156:193|156:193|230:115|196:11,1,360,0|0,0:0|0:0,0:0:0:0:
35,196,264441,1,0,0:0:0:0:
244,158,264606,2,0,P|177:92|74:91,1,180,2|0,0:0|0:0,0:0:0:0:
85,306,264935,1,2,0:0:0:0:
261,190,265100,2,0,P|328:124|431:123,1,180,2|0,0:0|0:0,0:0:0:0:
446,323,265430,1,2,0:0:0:0:
268,95,265595,6,0,P|345:154|340:247,1,180,0|0,0:0|0:0,0:0:0:0:
181,325,265924,2,0,P|188:238|260:189,1,180,0|0,0:0|0:0,0:0:0:0:
447,105,266254,2,0,L|258:94,1,180,2|0,0:0|0:0,0:0:0:0:
1,335,266584,2,0,L|190:324,1,180,2|0,0:0|0:0,0:0:0:0:
398,183,266913,6,0,P|361:93|416:19,1,180,8|0,0:0|0:0,0:0:0:0:
429,211,267243,2,0,L|237:186,1,180,8|0,0:0|0:0,0:0:0:0:
72,82,267573,2,0,L|264:57,1,180,0|0,0:0|0:0,0:0:0:0:
209,264,267902,2,0,P|167:185|249:106,1,180,2|0,0:0|0:0,0:0:0:0:
423,156,268232,6,0,B|334:192|334:192|243:187,1,180,2|0,0:0|0:0,0:0:0:0:
36,232,268562,2,0,B|125:268|125:268|216:263,1,180,2|0,0:0|0:0,0:0:0:0:
470,318,268891,2,0,B|381:282|381:282|290:287,1,180,8|0,0:0|0:0,0:0:0:0:
75,321,269221,2,0,P|126:224|70:140,1,180,2|0,0:0|0:0,0:0:0:0:
9,19,269551,6,0,L|208:45,1,180,2|0,0:0|0:0,0:0:0:0:
454,83,269880,2,0,L|255:57,1,180,0|0,0:0|0:0,0:0:0:0:
0,103,270210,2,0,L|199:129,1,180,0|0,0:0|0:0,0:0:0:0:
445,167,270540,2,0,L|246:141,1,180,2|0,0:0|0:0,0:0:0:0:
175,369,270869,6,0,P|156:277|212:180,1,180,2|0,0:0|0:0,0:0:0:0:
337,15,271199,2,0,P|356:107|300:204,1,180,2|0,0:0|0:0,0:0:0:0:
132,359,271529,2,0,P|137:265|216:186,1,180,8|0,0:0|0:0,0:0:0:0:
379,24,271859,6,0,P|373:117|294:196,1,180,8|0,0:0|0:0,0:0:0:0:
92,338,272188,2,0,P|121:248|218:192,1,180,8|0,0:0|0:0,0:0:0:0:
418,44,272518,2,0,P|388:133|291:189,1,180,8|0,0:0|0:0,0:0:0:0:
59,308,272847,2,0,P|110:229|218:200,1,180,8|0,0:0|0:0,0:0:0:0:
466,232,273177,6,0,L|283:200,1,180,4|0,0:0|0:0,0:0:0:0:
145,71,273507,1,4,0:0:0:0:
188,199,273672,1,0,0:0:0:0:
295,107,273836,1,4,0:0:0:0:
252,324,274001,1,0,0:0:0:0:
71,170,274166,1,4,0:0:0:0:
405,175,274331,2,0,P|421:79|357:0,1,180,0|12,0:0|0:0,0:0:0:0:
