osu file format v14

[General]
AudioFilename: audio.mp3
AudioLeadIn: 0
PreviewTime: 43720
Countdown: 0
SampleSet: Normal
StackLeniency: 0.7
Mode: 1
LetterboxInBreaks: 0
WidescreenStoryboard: 1

[Editor]
DistanceSpacing: 1.7
BeatDivisor: 4
GridSize: 32
TimelineZoom: 1.999999

[Metadata]
Title:Keshin no Kemono (TV Size)
TitleUnicode:化身の獣 (TV Size)
Artist:Do As Infinity
ArtistUnicode:Do As Infinity
Creator:-Sh1n1-
Version:Zodiac Oni
Source:十二大戦
Tags:Juni Juuni Taisen Zodiac War Ending shini anime Japanese J-pop jpop pop ed 12
BeatmapID:2503987
BeatmapSetID:1202314

[Difficulty]
HPDrainRate:5
CircleSize:5
OverallDifficulty:6
ApproachRate:5
SliderMultiplier:1.4
SliderTickRate:1

[Events]
//Background and Video events
0,0,"JuuniTaisenBG.jpg",0,0
//Break Periods
//Storyboard Layer 0 (Background)
//Storyboard Layer 1 (Fail)
//Storyboard Layer 2 (Pass)
//Storyboard Layer 3 (Foreground)
//Storyboard Layer 4 (Overlay)
//Storyboard Sound Samples

[TimingPoints]
255,340.909090909091,4,1,0,80,1,0
11334,-100,4,1,0,60,0,0
32300,-102.040816326531,4,1,0,60,0,0
32385,-104.166666666667,4,1,0,60,0,0
32470,-106.382978723404,4,1,0,60,0,0
32641,-108.695652173913,4,1,0,60,0,0
32811,-111.111111111111,4,1,0,60,0,0
32982,-113.636363636364,4,1,0,50,0,0
33664,-119.047619047619,4,1,0,50,0,0
34345,-125,4,1,0,50,0,0
35027,-131.578947368421,4,1,0,50,0,0
35709,-138.888888888889,4,1,0,50,0,0
36391,-147.058823529412,4,1,0,50,0,0
37073,-156.25,4,1,0,50,0,0
37755,-166.666666666667,4,1,0,50,0,0
43891,-83.3333333333333,4,1,0,90,0,1
54289,-83.3333333333333,4,1,0,80,0,0
54800,-83.3333333333333,4,1,0,90,0,1
65709,-83.3333333333333,4,1,0,80,0,0
75255,-83.3333333333333,4,1,0,60,0,0
75425,-83.3333333333333,4,1,0,60,0,0
75595,-84.7457627118644,4,1,0,60,0,0
75681,-86.2068965517241,4,1,0,60,0,0
75766,-87.719298245614,4,1,0,60,0,0
75936,-89.2857142857143,4,1,0,60,0,0
76107,-90.9090909090909,4,1,0,60,0,0
76192,-92.5925925925926,4,1,0,60,0,0
76277,-94.3396226415094,4,1,0,60,0,0
76362,-96.1538461538461,4,1,0,60,0,0
76448,-98.0392156862745,4,1,0,60,0,0
76618,-100,4,1,0,80,0,0

[HitObjects]
256,192,255,5,4,0:0:0:0:
256,192,595,1,8,0:0:0:0:
256,192,766,1,0,0:0:0:0:
256,192,851,1,0,0:0:0:0:
256,192,936,1,0,0:0:0:0:
256,192,1107,1,0,0:0:0:0:
256,192,1277,1,8,0:0:0:0:
256,192,1618,1,0,0:0:0:0:
256,192,1789,1,0,0:0:0:0:
256,192,1959,1,8,0:0:0:0:
256,192,2130,1,0,0:0:0:0:
256,192,2215,1,0,0:0:0:0:
256,192,2300,1,8,0:0:0:0:
256,192,2470,1,8,0:0:0:0:
256,192,2556,1,0,0:0:0:0:
256,192,2641,1,0,0:0:0:0:
256,192,2726,1,0,0:0:0:0:
256,192,2811,1,8,0:0:0:0:
256,192,2982,1,0,0:0:0:0:
256,192,3323,1,8,0:0:0:0:
256,192,3493,1,8,0:0:0:0:
256,192,3578,1,8,0:0:0:0:
256,192,3664,1,0,0:0:0:0:
256,192,3834,1,0,0:0:0:0:
256,192,4005,1,8,0:0:0:0:
256,192,4345,1,0,0:0:0:0:
256,192,4516,1,0,0:0:0:0:
256,192,4686,1,8,0:0:0:0:
256,192,4857,1,8,0:0:0:0:
256,192,4942,1,8,0:0:0:0:
256,192,5027,1,0,0:0:0:0:
256,192,5198,1,0,0:0:0:0:
256,192,5283,1,0,0:0:0:0:
256,192,5368,1,8,0:0:0:0:
256,192,5539,1,8,0:0:0:0:
256,192,5709,1,0,0:0:0:0:
256,192,6050,1,8,0:0:0:0:
256,192,6220,1,8,0:0:0:0:
256,192,6306,1,0,0:0:0:0:
256,192,6391,1,0,0:0:0:0:
256,192,6561,1,0,0:0:0:0:
256,192,6732,1,8,0:0:0:0:
256,192,7073,1,0,0:0:0:0:
256,192,7243,1,0,0:0:0:0:
256,192,7414,1,8,0:0:0:0:
256,192,7499,1,8,0:0:0:0:
256,192,7584,1,8,0:0:0:0:
256,192,7755,1,8,0:0:0:0:
256,192,7925,1,0,0:0:0:0:
256,192,8010,1,0,0:0:0:0:
256,192,8095,1,8,0:0:0:0:
256,192,8181,1,8,0:0:0:0:
256,192,8266,1,8,0:0:0:0:
256,192,8436,1,0,0:0:0:0:
256,192,8777,1,8,0:0:0:0:
256,192,8948,1,0,0:0:0:0:
256,192,9033,1,8,0:0:0:0:
256,192,9118,1,0,0:0:0:0:
256,192,9289,1,0,0:0:0:0:
256,192,9459,1,8,0:0:0:0:
256,192,9800,1,0,0:0:0:0:
256,192,9970,1,0,0:0:0:0:
256,192,10056,1,0,0:0:0:0:
256,192,10141,1,8,0:0:0:0:
256,192,10311,1,8,0:0:0:0:
256,192,10482,1,0,0:0:0:0:
256,192,10567,1,0,0:0:0:0:
256,192,10652,1,8,0:0:0:0:
256,192,10737,1,0,0:0:0:0:
256,192,10823,1,8,0:0:0:0:
256,192,10908,1,8,0:0:0:0:
256,192,10993,1,0,0:0:0:0:
256,192,11164,5,12,0:0:0:0:
256,192,11505,1,8,0:0:0:0:
256,192,11675,1,0,0:0:0:0:
256,192,11845,1,0,0:0:0:0:
256,192,12016,1,8,0:0:0:0:
256,192,12186,1,8,0:0:0:0:
256,192,12357,1,8,0:0:0:0:
256,192,12527,1,0,0:0:0:0:
256,192,12868,1,8,0:0:0:0:
256,192,13039,1,0,0:0:0:0:
256,192,13209,1,0,0:0:0:0:
256,192,13380,1,8,0:0:0:0:
256,192,13550,1,0,0:0:0:0:
256,192,13720,1,8,0:0:0:0:
256,192,13891,1,0,0:0:0:0:
256,192,14232,1,8,0:0:0:0:
256,192,14402,1,0,0:0:0:0:
256,192,14573,1,0,0:0:0:0:
256,192,14743,1,8,0:0:0:0:
256,192,14914,1,8,0:0:0:0:
256,192,15084,1,8,0:0:0:0:
256,192,15255,1,0,0:0:0:0:
256,192,15595,1,8,0:0:0:0:
256,192,15766,1,0,0:0:0:0:
256,192,15936,1,8,0:0:0:0:
256,192,16022,1,8,0:0:0:0:
256,192,16107,1,8,0:0:0:0:
256,192,16277,1,8,0:0:0:0:
256,192,16448,1,0,0:0:0:0:
256,192,16618,5,0,0:0:0:0:
256,192,16959,1,8,0:0:0:0:
256,192,17130,1,0,0:0:0:0:
256,192,17300,1,0,0:0:0:0:
256,192,17470,1,0,0:0:0:0:
256,192,17641,1,8,0:0:0:0:
256,192,17982,1,0,0:0:0:0:
256,192,18323,1,8,0:0:0:0:
256,192,18493,1,8,0:0:0:0:
256,192,18578,1,8,0:0:0:0:
256,192,18664,1,0,0:0:0:0:
256,192,18834,1,0,0:0:0:0:
256,192,19005,1,8,0:0:0:0:
256,192,19175,1,0,0:0:0:0:
256,192,19345,1,0,0:0:0:0:
256,192,19686,1,8,0:0:0:0:
256,192,19857,1,8,0:0:0:0:
256,192,20027,1,0,0:0:0:0:
256,192,20198,1,0,0:0:0:0:
256,192,20368,1,8,0:0:0:0:
256,192,20709,1,0,0:0:0:0:
256,192,20880,1,8,0:0:0:0:
256,192,21050,1,8,0:0:0:0:
256,192,21135,1,8,0:0:0:0:
256,192,21220,1,8,0:0:0:0:
256,192,21391,1,0,0:0:0:0:
256,192,21476,1,0,0:0:0:0:
256,192,21561,1,0,0:0:0:0:
256,192,21732,1,8,0:0:0:0:
256,192,21902,1,0,0:0:0:0:
256,192,22073,5,12,0:0:0:0:
256,192,22414,1,8,0:0:0:0:
256,192,22584,1,0,0:0:0:0:
256,192,22755,1,0,0:0:0:0:
256,192,22925,1,0,0:0:0:0:
256,192,23095,1,8,0:0:0:0:
256,192,23266,1,8,0:0:0:0:
256,192,23436,1,0,0:0:0:0:
256,192,23777,1,8,0:0:0:0:
256,192,23948,1,0,0:0:0:0:
256,192,24118,1,0,0:0:0:0:
256,192,24289,1,8,0:0:0:0:
256,192,24459,1,0,0:0:0:0:
256,192,24630,1,8,0:0:0:0:
256,192,24800,1,0,0:0:0:0:
256,192,25141,1,8,0:0:0:0:
256,192,25311,1,0,0:0:0:0:
256,192,25482,1,0,0:0:0:0:
256,192,25652,1,0,0:0:0:0:
256,192,25823,1,8,0:0:0:0:
256,192,25993,1,8,0:0:0:0:
256,192,26164,1,0,0:0:0:0:
256,192,26505,1,8,0:0:0:0:
256,192,26675,1,8,0:0:0:0:
256,192,26845,1,0,0:0:0:0:
256,192,26931,1,0,0:0:0:0:
256,192,27016,1,0,0:0:0:0:
256,192,27186,1,8,0:0:0:0:
256,192,27357,1,8,0:0:0:0:
256,192,27527,1,0,0:0:0:0:
256,192,27868,1,8,0:0:0:0:
256,192,28039,1,0,0:0:0:0:
256,192,28209,1,0,0:0:0:0:
256,192,28380,1,0,0:0:0:0:
256,192,28550,1,8,0:0:0:0:
256,192,28891,1,0,0:0:0:0:
256,192,29232,1,8,0:0:0:0:
256,192,29402,1,8,0:0:0:0:
256,192,29487,1,8,0:0:0:0:
256,192,29573,1,0,0:0:0:0:
256,192,29743,1,0,0:0:0:0:
256,192,29914,1,8,0:0:0:0:
256,192,30084,1,0,0:0:0:0:
256,192,30255,1,0,0:0:0:0:
256,192,30595,1,8,0:0:0:0:
256,192,30766,1,8,0:0:0:0:
256,192,30936,1,0,0:0:0:0:
256,192,31107,1,0,0:0:0:0:
256,192,31277,1,8,0:0:0:0:
256,192,31618,1,0,0:0:0:0:
256,192,31789,1,8,0:0:0:0:
256,192,31959,1,8,0:0:0:0:
256,192,32044,1,8,0:0:0:0:
256,192,32130,1,8,0:0:0:0:
256,192,32300,1,0,0:0:0:0:
256,192,32385,1,0,0:0:0:0:
256,192,32470,1,8,0:0:0:0:
256,192,32641,1,8,0:0:0:0:
256,192,32811,1,8,0:0:0:0:
256,192,32982,5,0,0:0:0:0:
256,192,33664,1,0,0:0:0:0:
256,192,34345,1,8,0:0:0:0:
256,192,35027,1,8,0:0:0:0:
256,192,35709,1,0,0:0:0:0:
256,192,36391,1,0,0:0:0:0:
256,192,37073,1,8,0:0:0:0:
256,192,37755,1,0,0:0:0:0:
256,192,38436,12,0,40482,0:0:0:0:
256,192,40823,12,0,43720,0:0:0:0:
256,192,43891,5,12,0:0:0:0:
256,192,44061,1,0,0:0:0:0:
256,192,44147,1,0,0:0:0:0:
256,192,44232,1,8,0:0:0:0:
256,192,44402,1,8,0:0:0:0:
256,192,44487,1,0,0:0:0:0:
256,192,44573,1,0,0:0:0:0:
256,192,44743,1,0,0:0:0:0:
256,192,44914,1,8,0:0:0:0:
256,192,45084,1,8,0:0:0:0:
256,192,45169,1,8,0:0:0:0:
256,192,45255,1,8,0:0:0:0:
256,192,45425,1,0,0:0:0:0:
256,192,45595,1,8,0:0:0:0:
256,192,45766,1,0,0:0:0:0:
256,192,45851,1,0,0:0:0:0:
256,192,45936,1,8,0:0:0:0:
256,192,46107,1,0,0:0:0:0:
256,192,46192,1,0,0:0:0:0:
256,192,46277,1,8,0:0:0:0:
256,192,46362,1,0,0:0:0:0:
256,192,46448,1,8,0:0:0:0:
256,192,46618,1,0,0:0:0:0:
256,192,46959,1,8,0:0:0:0:
256,192,47130,1,8,0:0:0:0:
256,192,47215,1,0,0:0:0:0:
256,192,47300,1,0,0:0:0:0:
256,192,47470,1,0,0:0:0:0:
256,192,47641,1,8,0:0:0:0:
256,192,47811,1,0,0:0:0:0:
256,192,47897,1,0,0:0:0:0:
256,192,47982,1,8,0:0:0:0:
256,192,48152,1,0,0:0:0:0:
256,192,48323,1,8,0:0:0:0:
256,192,48493,1,0,0:0:0:0:
256,192,48578,1,8,0:0:0:0:
256,192,48664,1,0,0:0:0:0:
256,192,48749,1,0,0:0:0:0:
256,192,48834,1,8,0:0:0:0:
256,192,49005,1,8,0:0:0:0:
256,192,49345,1,12,0:0:0:0:
256,192,49516,1,0,0:0:0:0:
256,192,49601,1,0,0:0:0:0:
256,192,49686,1,8,0:0:0:0:
256,192,49857,1,0,0:0:0:0:
256,192,49942,1,8,0:0:0:0:
256,192,50027,1,8,0:0:0:0:
256,192,50198,1,0,0:0:0:0:
256,192,50368,1,8,0:0:0:0:
256,192,50539,1,0,0:0:0:0:
256,192,50624,1,0,0:0:0:0:
256,192,50709,1,0,0:0:0:0:
256,192,50880,1,0,0:0:0:0:
256,192,51050,1,8,0:0:0:0:
256,192,51135,1,8,0:0:0:0:
256,192,51220,1,0,0:0:0:0:
256,192,51306,1,0,0:0:0:0:
256,192,51391,1,0,0:0:0:0:
256,192,51561,1,8,0:0:0:0:
256,192,51732,1,8,0:0:0:0:
256,192,51902,1,0,0:0:0:0:
256,192,51987,1,0,0:0:0:0:
256,192,52073,1,8,0:0:0:0:
256,192,52414,1,8,0:0:0:0:
256,192,52584,1,8,0:0:0:0:
256,192,52669,1,8,0:0:0:0:
256,192,52755,1,0,0:0:0:0:
256,192,52925,1,0,0:0:0:0:
256,192,53010,1,0,0:0:0:0:
256,192,53095,1,8,0:0:0:0:
256,192,53266,1,0,0:0:0:0:
256,192,53436,1,8,0:0:0:0:
256,192,53607,1,0,0:0:0:0:
256,192,53777,1,8,0:0:0:0:
256,192,53862,1,0,0:0:0:0:
256,192,53948,1,0,0:0:0:0:
256,192,54033,1,8,0:0:0:0:
256,192,54118,1,8,0:0:0:0:
256,192,54289,1,0,0:0:0:0:
256,192,54800,5,12,0:0:0:0:
256,192,54970,1,0,0:0:0:0:
256,192,55056,1,0,0:0:0:0:
256,192,55141,1,8,0:0:0:0:
256,192,55311,1,8,0:0:0:0:
256,192,55397,1,0,0:0:0:0:
256,192,55482,1,8,0:0:0:0:
256,192,55652,1,0,0:0:0:0:
256,192,55823,1,8,0:0:0:0:
256,192,55908,1,0,0:0:0:0:
256,192,55993,1,0,0:0:0:0:
256,192,56078,1,0,0:0:0:0:
256,192,56164,1,8,0:0:0:0:
256,192,56334,1,0,0:0:0:0:
256,192,56505,1,8,0:0:0:0:
256,192,56675,1,8,0:0:0:0:
256,192,56760,1,8,0:0:0:0:
256,192,56845,1,0,0:0:0:0:
256,192,57016,1,0,0:0:0:0:
256,192,57101,1,0,0:0:0:0:
256,192,57186,1,8,0:0:0:0:
256,192,57357,1,8,0:0:0:0:
256,192,57527,1,0,0:0:0:0:
256,192,57868,1,8,0:0:0:0:
256,192,58039,1,0,0:0:0:0:
256,192,58124,1,0,0:0:0:0:
256,192,58209,1,0,0:0:0:0:
256,192,58380,1,8,0:0:0:0:
256,192,58550,1,0,0:0:0:0:
256,192,58635,1,0,0:0:0:0:
256,192,58720,1,8,0:0:0:0:
256,192,58806,1,8,0:0:0:0:
256,192,58891,1,8,0:0:0:0:
256,192,59061,1,0,0:0:0:0:
256,192,59232,1,8,0:0:0:0:
256,192,59402,1,8,0:0:0:0:
256,192,59487,1,8,0:0:0:0:
256,192,59573,1,0,0:0:0:0:
256,192,59743,1,0,0:0:0:0:
256,192,59914,1,8,0:0:0:0:
256,192,60255,1,12,0:0:0:0:
256,192,60425,1,0,0:0:0:0:
256,192,60510,1,0,0:0:0:0:
256,192,60595,1,8,0:0:0:0:
256,192,60766,1,8,0:0:0:0:
256,192,60851,1,0,0:0:0:0:
256,192,60936,1,0,0:0:0:0:
256,192,61107,1,0,0:0:0:0:
256,192,61277,1,8,0:0:0:0:
256,192,61362,1,0,0:0:0:0:
256,192,61448,1,0,0:0:0:0:
256,192,61533,1,0,0:0:0:0:
256,192,61618,1,8,0:0:0:0:
256,192,61789,1,0,0:0:0:0:
256,192,61959,1,8,0:0:0:0:
256,192,62130,1,0,0:0:0:0:
256,192,62215,1,0,0:0:0:0:
256,192,62300,1,8,0:0:0:0:
256,192,62470,1,0,0:0:0:0:
256,192,62641,1,8,0:0:0:0:
256,192,62811,1,0,0:0:0:0:
256,192,62897,1,8,0:0:0:0:
256,192,62982,1,0,0:0:0:0:
256,192,63323,1,8,0:0:0:0:
256,192,63493,1,8,0:0:0:0:
256,192,63578,1,8,0:0:0:0:
256,192,63664,1,0,0:0:0:0:
256,192,63834,1,0,0:0:0:0:
256,192,63919,1,0,0:0:0:0:
256,192,64005,1,8,0:0:0:0:
256,192,64175,1,0,0:0:0:0:
256,192,64345,1,8,0:0:0:0:
256,192,64516,1,0,0:0:0:0:
256,192,64686,1,8,0:0:0:0:
256,192,64772,1,8,0:0:0:0:
256,192,64857,1,0,0:0:0:0:
256,192,64942,1,0,0:0:0:0:
256,192,65027,1,8,0:0:0:0:
256,192,65198,1,8,0:0:0:0:
256,192,65283,1,0,0:0:0:0:
256,192,65368,1,8,0:0:0:0:
256,192,65453,1,8,0:0:0:0:
256,192,65539,1,0,0:0:0:0:
256,192,65624,1,0,0:0:0:0:
256,192,65709,5,12,0:0:0:0:
256,192,66050,1,8,0:0:0:0:
256,192,66220,1,8,0:0:0:0:
256,192,66391,1,0,0:0:0:0:
256,192,66561,1,0,0:0:0:0:
256,192,66732,1,8,0:0:0:0:
256,192,67073,1,0,0:0:0:0:
256,192,67414,1,8,0:0:0:0:
256,192,67584,1,8,0:0:0:0:
256,192,67669,1,0,0:0:0:0:
256,192,67755,1,0,0:0:0:0:
256,192,67925,1,0,0:0:0:0:
256,192,68095,1,8,0:0:0:0:
256,192,68436,1,0,0:0:0:0:
256,192,68607,1,0,0:0:0:0:
256,192,68692,1,0,0:0:0:0:
256,192,68777,1,8,0:0:0:0:
256,192,68948,1,0,0:0:0:0:
256,192,69118,1,8,0:0:0:0:
256,192,69289,1,0,0:0:0:0:
256,192,69459,1,8,0:0:0:0:
256,192,69630,1,8,0:0:0:0:
256,192,69800,1,0,0:0:0:0:
256,192,70141,1,8,0:0:0:0:
256,192,70311,1,8,0:0:0:0:
256,192,70397,1,8,0:0:0:0:
256,192,70482,1,0,0:0:0:0:
256,192,70652,1,0,0:0:0:0:
256,192,70823,1,8,0:0:0:0:
256,192,70993,1,8,0:0:0:0:
256,192,71164,1,4,0:0:0:0:
256,192,71505,1,8,0:0:0:0:
256,192,71675,1,8,0:0:0:0:
256,192,71845,1,0,0:0:0:0:
256,192,72016,1,0,0:0:0:0:
256,192,72186,1,8,0:0:0:0:
256,192,72527,1,0,0:0:0:0:
256,192,72698,1,8,0:0:0:0:
256,192,72868,1,8,0:0:0:0:
256,192,73039,1,0,0:0:0:0:
256,192,73124,1,0,0:0:0:0:
256,192,73209,1,0,0:0:0:0:
256,192,73380,1,0,0:0:0:0:
256,192,73550,1,8,0:0:0:0:
256,192,73891,1,0,0:0:0:0:
256,192,74061,1,0,0:0:0:0:
256,192,74147,1,0,0:0:0:0:
256,192,74232,1,8,0:0:0:0:
256,192,74402,1,0,0:0:0:0:
256,192,74573,1,8,0:0:0:0:
256,192,74743,1,0,0:0:0:0:
256,192,74828,1,0,0:0:0:0:
256,192,74914,1,8,0:0:0:0:
256,192,75255,1,0,0:0:0:0:
256,192,75425,1,0,0:0:0:0:
256,192,75595,1,8,0:0:0:0:
256,192,75681,1,8,0:0:0:0:
256,192,75766,1,8,0:0:0:0:
256,192,75936,1,0,0:0:0:0:
256,192,76107,1,0,0:0:0:0:
256,192,76192,1,0,0:0:0:0:
256,192,76277,1,8,0:0:0:0:
256,192,76362,1,8,0:0:0:0:
256,192,76448,1,8,0:0:0:0:
256,192,76618,5,12,0:0:0:0:
256,192,76959,1,8,0:0:0:0:
256,192,77130,1,0,0:0:0:0:
256,192,77300,1,0,0:0:0:0:
256,192,77470,1,0,0:0:0:0:
256,192,77641,1,8,0:0:0:0:
256,192,77982,1,0,0:0:0:0:
256,192,78323,1,8,0:0:0:0:
256,192,78493,1,0,0:0:0:0:
256,192,78578,1,0,0:0:0:0:
256,192,78664,1,0,0:0:0:0:
256,192,78834,1,0,0:0:0:0:
256,192,79005,1,8,0:0:0:0:
256,192,79345,1,0,0:0:0:0:
256,192,79516,1,0,0:0:0:0:
256,192,79601,1,0,0:0:0:0:
256,192,79686,1,8,0:0:0:0:
256,192,79857,1,0,0:0:0:0:
256,192,80027,1,8,0:0:0:0:
256,192,80198,1,0,0:0:0:0:
256,192,80368,1,8,0:0:0:0:
256,192,80539,1,8,0:0:0:0:
256,192,80709,1,0,0:0:0:0:
256,192,81050,1,8,0:0:0:0:
256,192,81220,1,8,0:0:0:0:
256,192,81306,1,8,0:0:0:0:
256,192,81391,1,0,0:0:0:0:
256,192,81561,1,0,0:0:0:0:
256,192,81732,1,8,0:0:0:0:
256,192,81902,1,8,0:0:0:0:
256,192,82073,1,4,0:0:0:0:
256,192,82414,1,8,0:0:0:0:
256,192,82584,1,0,0:0:0:0:
256,192,82755,1,0,0:0:0:0:
256,192,82925,1,0,0:0:0:0:
256,192,83095,1,8,0:0:0:0:
256,192,83436,1,0,0:0:0:0:
256,192,83607,1,8,0:0:0:0:
256,192,83777,1,8,0:0:0:0:
256,192,83948,1,0,0:0:0:0:
256,192,84289,1,0,0:0:0:0:
256,192,84459,1,8,0:0:0:0:
256,192,84800,1,0,0:0:0:0:
256,192,84970,1,0,0:0:0:0:
256,192,85056,1,8,0:0:0:0:
256,192,85141,1,8,0:0:0:0:
256,192,85311,1,0,0:0:0:0:
256,192,85482,1,8,0:0:0:0:
256,192,85652,1,0,0:0:0:0:
256,192,85737,1,8,0:0:0:0:
256,192,85823,1,8,0:0:0:0:
256,192,86164,1,0,0:0:0:0:
256,192,86334,1,0,0:0:0:0:
256,192,86505,1,8,0:0:0:0:
256,192,86590,1,8,0:0:0:0:
256,192,86675,1,8,0:0:0:0:
256,192,86845,1,0,0:0:0:0:
256,192,87016,1,0,0:0:0:0:
256,192,87186,1,8,0:0:0:0:
256,192,87357,1,12,0:0:0:0:
