osu file format v14

[General]
AudioFilename: audio.mp3
AudioLeadIn: 0
PreviewTime: 43720
Countdown: 0
SampleSet: Normal
StackLeniency: 0.7
Mode: 1
LetterboxInBreaks: 0
WidescreenStoryboard: 0

[Editor]
DistanceSpacing: 1.6
BeatDivisor: 4
GridSize: 32
TimelineZoom: 0.9999999

[Metadata]
Title:Keshin no Kemono (TV Size)
TitleUnicode:化身の獣 (TV Size)
Artist:Do As Infinity
ArtistUnicode:Do As Infinity
Creator:-Sh1n1-
Version:Futsuu
Source:十二大戦
Tags:Juni Juuni Taisen Zodiac War Ending shini anime Japanese J-pop jpop pop ed 12
BeatmapID:2503983
BeatmapSetID:1202314

[Difficulty]
HPDrainRate:8
CircleSize:4
OverallDifficulty:4
ApproachRate:5
SliderMultiplier:1.4
SliderTickRate:1

[Events]
//Background and Video events
0,0,"JuuniTaisenBG.jpg",0,0
//Break Periods
//Storyboard Layer 0 (Background)
//Storyboard Layer 1 (Fail)
//Storyboard Layer 2 (Pass)
//Storyboard Layer 3 (Foreground)
//Storyboard Layer 4 (Overlay)
//Storyboard Sound Samples

[TimingPoints]
255,340.909090909091,4,1,0,80,1,0
11334,-100,4,1,0,60,0,0
32982,-100,4,1,0,50,0,0
43891,-100,4,1,0,90,0,1
54289,-100,4,1,0,80,0,0
54800,-100,4,1,0,90,0,1
65709,-100,4,1,0,80,0,0
75255,-100,4,1,0,60,0,0
76618,-100,4,1,0,80,0,0

[HitObjects]
256,192,255,5,4,0:0:0:0:
256,192,595,1,8,0:0:0:0:
256,192,1107,1,0,0:0:0:0:
256,192,1277,1,8,0:0:0:0:
256,192,1959,1,8,0:0:0:0:
256,192,2300,1,0,0:0:0:0:
256,192,2470,1,0,0:0:0:0:
256,192,2641,1,8,0:0:0:0:
256,192,2982,5,0,0:0:0:0:
256,192,3323,1,8,0:0:0:0:
256,192,3834,1,0,0:0:0:0:
256,192,4005,1,8,0:0:0:0:
256,192,4686,1,8,0:0:0:0:
256,192,5027,1,8,0:0:0:0:
256,192,5198,1,8,0:0:0:0:
256,192,5368,1,0,0:0:0:0:
256,192,5709,5,0,0:0:0:0:
256,192,6050,1,8,0:0:0:0:
256,192,6561,1,0,0:0:0:0:
256,192,6732,1,8,0:0:0:0:
256,192,7414,1,8,0:0:0:0:
256,192,7755,1,8,0:0:0:0:
256,192,7925,1,0,0:0:0:0:
256,192,8095,1,8,0:0:0:0:
256,192,8436,5,0,0:0:0:0:
256,192,8777,1,8,0:0:0:0:
256,192,9289,1,0,0:0:0:0:
256,192,9459,1,8,0:0:0:0:
256,192,10141,1,8,0:0:0:0:
256,192,10482,1,0,0:0:0:0:
256,192,10652,1,8,0:0:0:0:
256,192,10823,1,0,0:0:0:0:
256,192,11164,5,12,0:0:0:0:
256,192,11845,1,0,0:0:0:0:
256,192,12186,1,8,0:0:0:0:
256,192,12527,1,0,0:0:0:0:
256,192,13209,1,0,0:0:0:0:
256,192,13550,1,8,0:0:0:0:
256,192,13720,1,8,0:0:0:0:
256,192,13891,1,0,0:0:0:0:
256,192,14232,1,8,0:0:0:0:
256,192,14573,1,0,0:0:0:0:
256,192,15255,1,0,0:0:0:0:
256,192,15595,1,8,0:0:0:0:
256,192,15936,1,0,0:0:0:0:
256,192,16107,1,0,0:0:0:0:
256,192,16277,1,8,0:0:0:0:
256,192,16618,5,0,0:0:0:0:
256,192,17300,1,8,0:0:0:0:
256,192,17641,1,8,0:0:0:0:
256,192,17982,1,0,0:0:0:0:
256,192,18664,1,8,0:0:0:0:
256,192,18834,1,8,0:0:0:0:
256,192,19005,1,8,0:0:0:0:
256,192,19345,1,0,0:0:0:0:
256,192,20027,1,0,0:0:0:0:
256,192,20368,1,8,0:0:0:0:
256,192,20709,1,0,0:0:0:0:
256,192,21391,1,0,0:0:0:0:
256,192,21561,1,0,0:0:0:0:
256,192,21732,1,0,0:0:0:0:
256,192,22073,5,12,0:0:0:0:
256,192,22755,1,0,0:0:0:0:
256,192,23095,1,8,0:0:0:0:
256,192,23436,1,0,0:0:0:0:
256,192,24118,1,0,0:0:0:0:
256,192,24459,1,8,0:0:0:0:
256,192,24630,1,0,0:0:0:0:
256,192,24800,1,8,0:0:0:0:
256,192,25482,1,0,0:0:0:0:
256,192,25823,1,8,0:0:0:0:
256,192,26164,1,0,0:0:0:0:
256,192,26845,1,0,0:0:0:0:
256,192,27016,1,8,0:0:0:0:
256,192,27186,1,0,0:0:0:0:
256,192,27527,1,0,0:0:0:0:
256,192,28209,1,8,0:0:0:0:
256,192,28550,1,8,0:0:0:0:
256,192,28891,1,0,0:0:0:0:
256,192,29573,1,8,0:0:0:0:
256,192,29743,1,8,0:0:0:0:
256,192,29914,1,8,0:0:0:0:
256,192,30255,1,0,0:0:0:0:
256,192,30936,1,0,0:0:0:0:
256,192,31277,1,8,0:0:0:0:
256,192,31618,1,0,0:0:0:0:
256,192,31959,1,8,0:0:0:0:
256,192,32300,1,0,0:0:0:0:
256,192,32470,1,0,0:0:0:0:
256,192,32641,1,0,0:0:0:0:
256,192,32982,5,0,0:0:0:0:
256,192,34345,1,8,0:0:0:0:
256,192,35709,1,0,0:0:0:0:
256,192,37073,1,8,0:0:0:0:
256,192,38436,12,0,40482,0:0:0:0:
256,192,40823,12,0,43550,0:0:0:0:
256,192,43891,5,12,0:0:0:0:
256,192,44573,1,0,0:0:0:0:
256,192,44743,1,0,0:0:0:0:
256,192,44914,1,8,0:0:0:0:
256,192,45595,1,8,0:0:0:0:
256,192,45766,1,8,0:0:0:0:
256,192,46107,1,0,0:0:0:0:
256,192,46277,1,8,0:0:0:0:
256,192,46618,1,0,0:0:0:0:
256,192,46959,1,8,0:0:0:0:
256,192,47130,1,8,0:0:0:0:
256,192,47470,1,8,0:0:0:0:
256,192,47641,1,0,0:0:0:0:
256,192,48323,1,8,0:0:0:0:
256,192,48664,1,0,0:0:0:0:
256,192,48834,1,0,0:0:0:0:
256,192,49005,1,0,0:0:0:0:
256,192,49345,5,12,0:0:0:0:
256,192,50027,1,0,0:0:0:0:
256,192,50198,1,0,0:0:0:0:
256,192,50368,1,8,0:0:0:0:
256,192,51050,1,8,0:0:0:0:
256,192,51220,1,0,0:0:0:0:
256,192,51561,1,0,0:0:0:0:
256,192,51732,1,8,0:0:0:0:
256,192,52073,1,0,0:0:0:0:
256,192,52414,1,8,0:0:0:0:
256,192,52584,1,8,0:0:0:0:
256,192,52925,1,8,0:0:0:0:
256,192,53095,1,0,0:0:0:0:
256,192,53777,1,8,0:0:0:0:
256,192,54118,1,0,0:0:0:0:
256,192,54289,1,0,0:0:0:0:
256,192,54800,5,12,0:0:0:0:
256,192,55482,1,0,0:0:0:0:
256,192,55652,1,0,0:0:0:0:
256,192,55823,1,8,0:0:0:0:
256,192,56505,1,8,0:0:0:0:
256,192,56675,1,8,0:0:0:0:
256,192,57016,1,0,0:0:0:0:
256,192,57186,1,8,0:0:0:0:
256,192,57527,1,0,0:0:0:0:
256,192,57868,1,8,0:0:0:0:
256,192,58039,1,0,0:0:0:0:
256,192,58380,1,0,0:0:0:0:
256,192,58550,1,8,0:0:0:0:
256,192,59232,1,8,0:0:0:0:
256,192,59402,1,0,0:0:0:0:
256,192,59743,1,0,0:0:0:0:
256,192,59914,1,0,0:0:0:0:
256,192,60255,1,12,0:0:0:0:
256,192,60936,1,0,0:0:0:0:
256,192,61107,1,0,0:0:0:0:
256,192,61277,1,8,0:0:0:0:
256,192,61959,1,8,0:0:0:0:
256,192,62130,1,0,0:0:0:0:
256,192,62470,1,0,0:0:0:0:
256,192,62641,1,8,0:0:0:0:
256,192,62982,1,0,0:0:0:0:
256,192,63323,1,8,0:0:0:0:
256,192,63493,1,8,0:0:0:0:
256,192,63834,1,8,0:0:0:0:
256,192,64005,1,0,0:0:0:0:
256,192,64686,1,0,0:0:0:0:
256,192,65027,1,8,0:0:0:0:
256,192,65198,1,8,0:0:0:0:
256,192,65368,1,0,0:0:0:0:
256,192,65539,1,0,0:0:0:0:
256,192,65709,5,12,0:0:0:0:
256,192,66391,1,0,0:0:0:0:
256,192,66561,1,0,0:0:0:0:
256,192,66732,1,8,0:0:0:0:
256,192,67073,1,0,0:0:0:0:
256,192,67414,1,8,0:0:0:0:
256,192,68095,1,8,0:0:0:0:
256,192,68436,1,0,0:0:0:0:
256,192,68777,1,8,0:0:0:0:
256,192,68948,1,8,0:0:0:0:
256,192,69118,1,8,0:0:0:0:
256,192,69459,1,8,0:0:0:0:
256,192,70141,1,0,0:0:0:0:
256,192,70482,1,8,0:0:0:0:
256,192,70652,1,0,0:0:0:0:
256,192,70823,1,8,0:0:0:0:
256,192,71164,1,4,0:0:0:0:
256,192,71845,1,0,0:0:0:0:
256,192,72016,1,0,0:0:0:0:
256,192,72186,1,8,0:0:0:0:
256,192,72527,1,0,0:0:0:0:
256,192,72868,1,8,0:0:0:0:
256,192,73550,1,8,0:0:0:0:
256,192,73891,1,0,0:0:0:0:
256,192,74232,1,8,0:0:0:0:
256,192,74573,1,0,0:0:0:0:
256,192,74914,1,0,0:0:0:0:
256,192,75255,1,8,0:0:0:0:
256,192,75595,1,8,0:0:0:0:
256,192,75766,1,8,0:0:0:0:
256,192,75936,1,8,0:0:0:0:
256,192,76277,1,0,0:0:0:0:
256,192,76618,5,12,0:0:0:0:
256,192,77300,1,0,0:0:0:0:
256,192,77470,1,0,0:0:0:0:
256,192,77641,1,8,0:0:0:0:
256,192,77982,1,0,0:0:0:0:
256,192,78323,1,8,0:0:0:0:
256,192,79005,1,8,0:0:0:0:
256,192,79345,1,0,0:0:0:0:
256,192,79686,1,8,0:0:0:0:
256,192,79857,1,8,0:0:0:0:
256,192,80027,1,8,0:0:0:0:
256,192,80368,1,8,0:0:0:0:
256,192,81050,1,0,0:0:0:0:
256,192,81391,1,8,0:0:0:0:
256,192,81561,1,0,0:0:0:0:
256,192,81732,1,8,0:0:0:0:
256,192,82073,1,4,0:0:0:0:
256,192,82755,1,0,0:0:0:0:
256,192,82925,1,0,0:0:0:0:
256,192,83095,1,8,0:0:0:0:
256,192,83436,1,0,0:0:0:0:
256,192,83777,1,8,0:0:0:0:
256,192,84459,1,8,0:0:0:0:
256,192,84800,1,0,0:0:0:0:
256,192,85141,1,8,0:0:0:0:
256,192,85482,1,0,0:0:0:0:
256,192,85823,1,0,0:0:0:0:
256,192,86505,1,8,0:0:0:0:
256,192,86675,1,8,0:0:0:0:
256,192,86845,1,0,0:0:0:0:
256,192,87186,1,0,0:0:0:0:
256,192,87357,1,12,0:0:0:0:
