osu file format v14

[General]
AudioFilename: audio.mp3
AudioLeadIn: 0
PreviewTime: 43786
Countdown: 0
SampleSet: Normal
StackLeniency: 0.7
Mode: 3
LetterboxInBreaks: 0
SpecialStyle: 0
WidescreenStoryboard: 0

[Editor]
Bookmarks: 11169,32988
DistanceSpacing: 1.1
BeatDivisor: 4
GridSize: 8
TimelineZoom: 2.2

[Metadata]
Title:Kenshin no Kemono (TV Size)
TitleUnicode:Kenshin no Kemono (TV Size)
Artist:Do As Infinity
ArtistUnicode:Do As Infinity
Creator:AlisceaSparku
Version:7K HD
Source:十二大戦
Tags:Juuni Taisen Zodiac War ost ending theme - ly0572 - syadow RiP46 chouyaa
BeatmapID:1458204
BeatmapSetID:686774

[Difficulty]
HPDrainRate:8
CircleSize:7
OverallDifficulty:8
ApproachRate:5
SliderMultiplier:1.4
SliderTickRate:1

[Events]
//Background and Video events
0,0,"bg.jpg",0,0
//Break Periods
//Storyboard Layer 0 (Background)
//Storyboard Layer 1 (Fail)
//Storyboard Layer 2 (Pass)
//Storyboard Layer 3 (Foreground)
//Storyboard Sound Samples
Sample,65264,0,"kick.wav",70

[TimingPoints]
320.846687830286,340.909090909091,4,1,1,70,1,0
43957,-100,4,1,1,70,0,1
65775,-100,4,1,1,70,0,0

[HitObjects]
36,192,320,5,0,0:0:0:70:cymbal.wav
256,192,320,1,0,0:0:0:70:kick.wav
475,192,320,1,0,0:0:0:0:
182,192,491,1,0,0:0:0:0:
109,192,661,1,0,0:0:0:70:snare.wav
402,192,661,1,0,0:0:0:70:kick.wav
329,192,832,1,0,0:0:0:0:
256,192,1002,1,0,0:0:0:0:
36,192,1173,1,0,0:0:0:70:kick.wav
182,192,1173,1,0,0:0:0:0:
329,192,1343,128,0,1854:0:0:0:70:snare.wav
475,192,1343,1,0,0:0:0:70:kick.wav
109,192,1514,1,0,0:0:0:0:
182,192,1684,1,0,0:0:0:70:kick.wav
402,192,1684,1,0,0:0:0:0:
256,192,1854,1,0,0:0:0:0:
109,192,2025,128,0,2536:0:0:0:70:snare.wav
329,192,2025,1,0,0:0:0:70:kick.wav
402,192,2195,1,0,0:0:0:0:
256,192,2366,1,0,0:0:0:0:
182,192,2536,128,0,2707:0:0:0:70:kick.wav
329,192,2536,1,0,0:0:0:0:
256,192,2707,128,0,3048:0:0:0:70:snare.wav
402,192,2707,1,0,0:0:0:70:kick.wav
36,192,3048,1,0,0:0:0:70:kick.wav
109,192,3048,1,0,0:0:0:0:
475,192,3389,1,0,0:0:0:70:snare.wav
329,192,3389,1,0,0:0:0:70:kick.wav
182,192,3559,1,0,0:0:0:0:
329,192,3729,1,0,0:0:0:0:
109,192,3900,1,0,0:0:0:70:kick.wav
475,192,3900,1,0,0:0:0:0:
36,192,4070,128,0,4582:0:0:0:70:snare.wav
256,192,4070,1,0,0:0:0:70:kick.wav
329,192,4241,1,0,0:0:0:0:
182,192,4411,1,0,0:0:0:70:kick.wav
402,192,4411,1,0,0:0:0:0:
256,192,4582,1,0,0:0:0:0:
402,192,4752,128,0,5264:0:0:0:70:snare.wav
329,192,4752,1,0,0:0:0:70:kick.wav
182,192,4923,1,0,0:0:0:0:
256,192,5093,1,0,0:0:0:70:kick.wav
36,192,5093,1,0,0:0:0:0:
329,192,5264,128,0,5434:0:0:0:70:kick.wav
109,192,5264,1,0,0:0:0:0:
256,192,5434,128,0,5775:0:0:0:70:snare.wav
182,192,5434,1,0,0:0:0:70:kick.wav
402,192,5775,1,0,0:0:0:70:kick.wav
475,192,5775,1,0,0:0:0:0:
109,192,5945,1,0,0:0:0:0:
475,192,6116,1,0,0:0:0:70:snare.wav
182,192,6116,1,0,0:0:0:70:kick.wav
329,192,6286,1,0,0:0:0:0:
402,192,6457,1,0,0:0:0:0:
256,192,6627,1,0,0:0:0:70:kick.wav
36,192,6627,1,0,0:0:0:0:
402,192,6798,128,0,7309:0:0:0:70:snare.wav
182,192,6798,1,0,0:0:0:70:kick.wav
109,192,6968,1,0,0:0:0:0:
36,192,7139,1,0,0:0:0:70:kick.wav
329,192,7139,1,0,0:0:0:0:
182,192,7309,1,0,0:0:0:0:
256,192,7479,128,0,7991:0:0:0:70:snare.wav
475,192,7479,1,0,0:0:0:70:kick.wav
109,192,7650,1,0,0:0:0:0:
475,192,7820,1,0,0:0:0:0:
329,192,7991,128,0,8161:0:0:0:70:kick.wav
36,192,7991,1,0,0:0:0:0:
402,192,8161,128,0,8502:0:0:0:70:snare.wav
109,192,8161,1,0,0:0:0:70:kick.wav
182,192,8332,1,0,0:0:0:0:
256,192,8502,1,0,0:0:0:70:kick.wav
36,192,8502,1,0,0:0:0:0:
109,192,8843,1,0,0:0:0:70:snare.wav
475,192,8843,1,0,0:0:0:70:kick.wav
402,192,9014,1,0,0:0:0:0:
329,192,9184,1,0,0:0:0:0:
256,192,9354,1,0,0:0:0:70:kick.wav
36,192,9354,1,0,0:0:0:0:
109,192,9525,128,0,10036:0:0:0:70:snare.wav
329,192,9525,1,0,0:0:0:70:kick.wav
402,192,9695,1,0,0:0:0:0:
475,192,9866,1,0,0:0:0:70:kick.wav
182,192,9866,1,0,0:0:0:0:
329,192,10036,1,0,0:0:0:0:
256,192,10207,128,0,10718:0:0:0:70:snare.wav
36,192,10207,1,0,0:0:0:70:kick.wav
182,192,10377,1,0,0:0:0:0:
475,192,10548,1,0,0:0:0:70:kick.wav
329,192,10548,1,0,0:0:0:0:
182,192,10718,128,0,10889:0:0:0:70:kick.wav
36,192,10718,1,0,0:0:0:0:
109,192,10889,128,0,11229:0:0:0:70:snare.wav
402,192,10889,1,0,0:0:0:70:kick.wav
256,192,11059,1,0,0:0:0:0:
402,192,11229,1,0,0:0:0:70:cymbal.wav
475,192,11229,1,0,0:0:0:70:kick.wav
36,192,11229,1,0,0:0:0:0:
256,192,11400,1,0,0:0:0:0:
109,192,11570,1,0,0:0:0:70:snare.wav
329,192,11570,1,0,0:0:0:70:kick.wav
109,192,11741,1,0,0:0:0:0:
256,192,11911,1,0,0:0:0:0:
109,192,12082,1,0,0:0:0:70:kick.wav
402,192,12082,1,0,0:0:0:0:
182,192,12252,1,0,0:0:0:70:snare.wav
475,192,12252,1,0,0:0:0:70:kick.wav
36,192,12423,1,0,0:0:0:0:
256,192,12593,1,0,0:0:0:70:kick.wav
329,192,12593,1,0,0:0:0:0:
182,192,12764,1,0,0:0:0:0:
109,192,12934,1,0,0:0:0:70:snare.wav
402,192,12934,1,0,0:0:0:70:kick.wav
402,192,13104,1,0,0:0:0:0:
256,192,13275,1,0,0:0:0:0:
36,192,13445,1,0,0:0:0:70:kick.wav
182,192,13445,1,0,0:0:0:0:
329,192,13616,1,0,0:0:0:70:snare.wav
475,192,13616,1,0,0:0:0:70:kick.wav
109,192,13786,1,0,0:0:0:0:
402,192,13957,1,0,0:0:0:70:kick.wav
182,192,13957,1,0,0:0:0:0:
36,192,14298,1,0,0:0:0:70:snare.wav
329,192,14298,1,0,0:0:0:70:kick.wav
329,192,14468,1,0,0:0:0:0:
182,192,14639,1,0,0:0:0:0:
109,192,14809,1,0,0:0:0:70:kick.wav
402,192,14809,1,0,0:0:0:0:
36,192,14979,1,0,0:0:0:70:snare.wav
475,192,14979,1,0,0:0:0:70:kick.wav
256,192,15150,1,0,0:0:0:0:
182,192,15320,1,0,0:0:0:70:kick.wav
329,192,15320,1,0,0:0:0:0:
329,192,15491,1,0,0:0:0:0:
36,192,15661,1,0,0:0:0:70:snare.wav
109,192,15661,1,0,0:0:0:70:kick.wav
256,192,15832,1,0,0:0:0:0:
182,192,16002,1,0,0:0:0:70:kick.wav
475,192,16002,1,0,0:0:0:0:
329,192,16173,1,0,0:0:0:70:kick.wav
36,192,16173,1,0,0:0:0:0:
109,192,16343,1,0,0:0:0:70:snare.wav
402,192,16343,1,0,0:0:0:70:kick.wav
402,192,16514,1,0,0:0:0:0:
256,192,16684,1,0,0:0:0:70:kick.wav
182,192,16684,1,0,0:0:0:0:
36,192,17025,1,0,0:0:0:70:snare.wav
329,192,17025,1,0,0:0:0:70:kick.wav
329,192,17195,1,0,0:0:0:0:
109,192,17366,1,0,0:0:0:0:
109,192,17536,1,0,0:0:0:70:kick.wav
402,192,17536,1,0,0:0:0:0:
182,192,17707,1,0,0:0:0:70:snare.wav
475,192,17707,1,0,0:0:0:70:kick.wav
182,192,17877,1,0,0:0:0:0:
329,192,18048,1,0,0:0:0:70:kick.wav
36,192,18048,1,0,0:0:0:0:
329,192,18218,1,0,0:0:0:0:
256,192,18389,1,0,0:0:0:70:snare.wav
109,192,18389,1,0,0:0:0:70:kick.wav
256,192,18559,1,0,0:0:0:0:
402,192,18729,1,0,0:0:0:0:
402,192,18900,1,0,0:0:0:70:kick.wav
182,192,18900,1,0,0:0:0:0:
36,192,19070,1,0,0:0:0:70:snare.wav
329,192,19070,1,0,0:0:0:70:kick.wav
36,192,19241,1,0,0:0:0:0:
256,192,19411,1,0,0:0:0:70:kick.wav
475,192,19411,1,0,0:0:0:0:
109,192,19752,1,0,0:0:0:70:snare.wav
329,192,19752,1,0,0:0:0:70:kick.wav
109,192,19923,1,0,0:0:0:0:
256,192,20093,1,0,0:0:0:0:
256,192,20264,1,0,0:0:0:70:kick.wav
402,192,20264,1,0,0:0:0:0:
36,192,20434,1,0,0:0:0:70:snare.wav
475,192,20434,1,0,0:0:0:70:kick.wav
36,192,20604,1,0,0:0:0:0:
329,192,20775,1,0,0:0:0:70:kick.wav
182,192,20775,1,0,0:0:0:0:
329,192,20945,1,0,0:0:0:0:
109,192,21116,1,0,0:0:0:70:snare.wav
475,192,21116,1,0,0:0:0:70:kick.wav
475,192,21286,1,0,0:0:0:0:
182,192,21457,1,0,0:0:0:70:kick.wav
182,192,21627,1,0,0:0:0:70:kick.wav
256,192,21627,1,0,0:0:0:0:
402,192,21798,1,0,0:0:0:70:snare.wav
36,192,21798,1,0,0:0:0:70:kick.wav
402,192,21968,1,0,0:0:0:0:
109,192,22139,1,0,0:0:0:70:cymbal.wav
256,192,22139,1,0,0:0:0:70:kick.wav
475,192,22139,1,0,0:0:0:0:
36,192,22479,1,0,0:0:0:70:snare.wav
329,192,22479,1,0,0:0:0:70:kick.wav
182,192,22650,128,0,22820:0:0:0:0:
402,192,22820,128,0,23161:0:0:0:0:
256,192,22991,1,0,0:0:0:70:kick.wav
36,192,22991,1,0,0:0:0:0:
182,192,23161,1,0,0:0:0:70:snare.wav
475,192,23161,1,0,0:0:0:70:kick.wav
109,192,23332,128,0,23502:0:0:0:0:
329,192,23502,128,0,23843:0:0:0:70:kick.wav
256,192,23502,1,0,0:0:0:0:
182,192,23673,1,0,0:0:0:0:
109,192,23843,1,0,0:0:0:70:snare.wav
475,192,23843,1,0,0:0:0:70:kick.wav
256,192,24014,128,0,24184:0:0:0:0:
36,192,24184,128,0,24525:0:0:0:0:
329,192,24354,1,0,0:0:0:70:kick.wav
182,192,24354,1,0,0:0:0:0:
256,192,24525,1,0,0:0:0:70:snare.wav
475,192,24525,1,0,0:0:0:70:kick.wav
109,192,24695,128,0,24866:0:0:0:0:
402,192,24866,128,0,25207:0:0:0:70:kick.wav
182,192,25036,1,0,0:0:0:0:
36,192,25207,1,0,0:0:0:70:snare.wav
256,192,25207,1,0,0:0:0:70:kick.wav
329,192,25377,128,0,25548:0:0:0:0:
475,192,25548,128,0,25889:0:0:0:0:
109,192,25718,1,0,0:0:0:70:kick.wav
182,192,25718,1,0,0:0:0:0:
36,192,25889,1,0,0:0:0:70:snare.wav
256,192,25889,1,0,0:0:0:70:kick.wav
329,192,26059,128,0,26229:0:0:0:0:
182,192,26229,128,0,26570:0:0:0:70:kick.wav
475,192,26229,1,0,0:0:0:0:
402,192,26400,1,0,0:0:0:0:
256,192,26570,1,0,0:0:0:70:snare.wav
109,192,26570,1,0,0:0:0:70:kick.wav
329,192,26741,128,0,26911:0:0:0:0:
36,192,26911,128,0,27593:0:0:0:70:kick.wav
182,192,26911,1,0,0:0:0:0:
256,192,27082,1,0,0:0:0:70:kick.wav
329,192,27252,1,0,0:0:0:70:snare.wav
475,192,27252,1,0,0:0:0:70:kick.wav
329,192,27423,1,0,0:0:0:0:
182,192,27593,1,0,0:0:0:70:kick.wav
256,192,27593,1,0,0:0:0:0:
109,192,27934,1,0,0:0:0:70:snare.wav
402,192,27934,1,0,0:0:0:70:kick.wav
402,192,28104,1,0,0:0:0:0:
256,192,28275,1,0,0:0:0:0:
256,192,28445,1,0,0:0:0:70:kick.wav
36,192,28445,1,0,0:0:0:0:
182,192,28616,1,0,0:0:0:70:snare.wav
475,192,28616,1,0,0:0:0:70:kick.wav
182,192,28786,1,0,0:0:0:0:
329,192,28957,1,0,0:0:0:70:kick.wav
109,192,28957,1,0,0:0:0:0:
329,192,29127,1,0,0:0:0:0:
182,192,29298,1,0,0:0:0:70:snare.wav
402,192,29298,1,0,0:0:0:70:kick.wav
402,192,29468,1,0,0:0:0:0:
36,192,29639,1,0,0:0:0:0:
36,192,29809,1,0,0:0:0:70:kick.wav
256,192,29809,1,0,0:0:0:0:
109,192,29979,1,0,0:0:0:70:snare.wav
475,192,29979,1,0,0:0:0:70:kick.wav
329,192,30320,1,0,0:0:0:70:kick.wav
182,192,30320,1,0,0:0:0:0:
36,192,30661,1,0,0:0:0:70:snare.wav
402,192,30661,1,0,0:0:0:70:kick.wav
402,192,30832,1,0,0:0:0:0:
256,192,31002,1,0,0:0:0:0:
256,192,31173,1,0,0:0:0:70:kick.wav
109,192,31173,1,0,0:0:0:0:
36,192,31343,1,0,0:0:0:70:snare.wav
475,192,31343,1,0,0:0:0:70:kick.wav
36,192,31514,1,0,0:0:0:0:
182,192,31684,1,0,0:0:0:70:kick.wav
329,192,31684,1,0,0:0:0:0:
329,192,31854,1,0,0:0:0:0:
109,192,32025,1,0,0:0:0:70:snare.wav
402,192,32025,1,0,0:0:0:70:kick.wav
109,192,32195,1,0,0:0:0:0:
256,192,32366,1,0,0:0:0:70:kick.wav
475,192,32366,1,0,0:0:0:0:
402,192,32536,1,0,0:0:0:70:kick.wav
182,192,32536,1,0,0:0:0:0:
36,192,32707,1,0,0:0:0:70:snare.wav
329,192,32707,1,0,0:0:0:70:kick.wav
475,192,32707,1,0,0:0:0:0:
109,192,32877,1,0,0:0:0:0:
182,192,33048,128,0,33729:0:0:0:0:
329,192,33729,128,0,34411:0:0:0:0:
402,192,34411,128,0,35093:0:0:0:0:
256,192,35093,128,0,35775:0:0:0:0:
329,192,35775,128,0,36457:0:0:0:0:
182,192,36457,128,0,37139:0:0:0:0:
36,192,37139,128,0,37820:0:0:0:0:
475,192,37820,128,0,38502:0:0:0:0:
329,192,38502,128,0,42593:0:0:0:0:
182,192,40889,128,0,43786:0:0:0:0:
182,192,43957,1,0,0:0:0:70:cymbal.wav
329,192,43957,1,0,0:0:0:70:kick.wav
475,192,43957,1,0,0:0:0:0:
36,192,43957,1,0,0:0:0:0:
109,192,44298,1,0,0:0:0:70:snare.wav
256,192,44298,1,0,0:0:0:70:kick.wav
402,192,44298,1,0,0:0:0:0:
36,192,44809,1,0,0:0:0:70:kick.wav
182,192,44809,1,0,0:0:0:0:
475,192,44979,1,0,0:0:0:70:snare.wav
329,192,44979,1,0,0:0:0:70:kick.wav
109,192,44979,1,0,0:0:0:0:
256,192,45320,1,0,0:0:0:70:kick.wav
182,192,45320,1,0,0:0:0:0:
36,192,45661,1,0,0:0:0:70:snare.wav
475,192,45661,1,0,0:0:0:70:kick.wav
402,192,45661,1,0,0:0:0:0:
329,192,46173,1,0,0:0:0:70:kick.wav
109,192,46173,1,0,0:0:0:0:
36,192,46343,1,0,0:0:0:70:snare.wav
182,192,46343,1,0,0:0:0:70:kick.wav
475,192,46343,1,0,0:0:0:0:
256,192,46684,1,0,0:0:0:70:kick.wav
402,192,46684,1,0,0:0:0:0:
36,192,47025,1,0,0:0:0:70:snare.wav
475,192,47025,1,0,0:0:0:70:kick.wav
329,192,47025,1,0,0:0:0:0:
109,192,47536,1,0,0:0:0:70:kick.wav
182,192,47536,1,0,0:0:0:0:
36,192,47707,1,0,0:0:0:70:snare.wav
256,192,47707,1,0,0:0:0:70:kick.wav
475,192,47707,1,0,0:0:0:0:
182,192,48048,1,0,0:0:0:70:kick.wav
329,192,48048,1,0,0:0:0:0:
256,192,48389,1,0,0:0:0:70:snare.wav
36,192,48389,1,0,0:0:0:70:kick.wav
402,192,48389,1,0,0:0:0:0:
109,192,48729,1,0,0:0:0:70:kick.wav
182,192,48729,1,0,0:0:0:0:
329,192,48900,1,0,0:0:0:70:kick.wav
402,192,48900,1,0,0:0:0:0:
256,192,49070,1,0,0:0:0:70:snare.wav
109,192,49070,1,0,0:0:0:70:kick.wav
475,192,49070,1,0,0:0:0:0:
182,192,49411,1,0,0:0:0:70:cymbal.wav
36,192,49411,1,0,0:0:0:70:kick.wav
475,192,49411,1,0,0:0:0:0:
36,192,49752,1,0,0:0:0:70:snare.wav
402,192,49752,1,0,0:0:0:70:kick.wav
256,192,49752,1,0,0:0:0:0:
329,192,50264,1,0,0:0:0:70:kick.wav
182,192,50264,1,0,0:0:0:0:
109,192,50434,1,0,0:0:0:70:snare.wav
256,192,50434,1,0,0:0:0:70:kick.wav
475,192,50434,1,0,0:0:0:0:
402,192,50775,1,0,0:0:0:70:kick.wav
36,192,50775,1,0,0:0:0:0:
182,192,51116,1,0,0:0:0:70:snare.wav
329,192,51116,1,0,0:0:0:70:kick.wav
475,192,51116,1,0,0:0:0:0:
109,192,51627,1,0,0:0:0:70:kick.wav
256,192,51627,1,0,0:0:0:0:
36,192,51798,1,0,0:0:0:70:snare.wav
182,192,51798,1,0,0:0:0:70:kick.wav
402,192,51798,1,0,0:0:0:0:
329,192,52139,1,0,0:0:0:70:kick.wav
256,192,52139,1,0,0:0:0:0:
109,192,52479,1,0,0:0:0:70:snare.wav
402,192,52479,1,0,0:0:0:70:kick.wav
475,192,52479,1,0,0:0:0:0:
182,192,52991,1,0,0:0:0:70:kick.wav
329,192,52991,1,0,0:0:0:0:
36,192,53161,1,0,0:0:0:70:snare.wav
256,192,53161,1,0,0:0:0:70:kick.wav
475,192,53161,1,0,0:0:0:0:
109,192,53502,1,0,0:0:0:70:kick.wav
182,192,53502,1,0,0:0:0:0:
36,192,53843,1,0,0:0:0:70:snare.wav
475,192,53843,1,0,0:0:0:70:kick.wav
256,192,53843,1,0,0:0:0:0:
329,192,54184,1,0,0:0:0:70:kick.wav
402,192,54184,1,0,0:0:0:0:
182,192,54354,1,0,0:0:0:70:kick.wav
109,192,54354,1,0,0:0:0:0:
256,192,54866,128,0,56229:0:0:0:70:cymbal.wav
36,192,54866,1,0,0:0:0:70:kick.wav
475,192,54866,1,0,0:0:0:0:
182,192,54866,1,0,0:0:0:0:
109,192,55207,1,0,0:0:0:70:snare.wav
402,192,55207,1,0,0:0:0:70:kick.wav
36,192,55718,1,0,0:0:0:70:kick.wav
329,192,55718,1,0,0:0:0:0:
182,192,55889,1,0,0:0:0:70:snare.wav
475,192,55889,1,0,0:0:0:70:kick.wav
109,192,56229,128,0,57593:0:0:0:70:kick.wav
402,192,56229,1,0,0:0:0:0:
256,192,56570,1,0,0:0:0:70:snare.wav
475,192,56570,1,0,0:0:0:70:kick.wav
182,192,57082,1,0,0:0:0:70:kick.wav
329,192,57082,1,0,0:0:0:0:
36,192,57252,1,0,0:0:0:70:snare.wav
475,192,57252,1,0,0:0:0:70:kick.wav
402,192,57593,128,0,58957:0:0:0:70:kick.wav
256,192,57593,1,0,0:0:0:0:
36,192,57934,1,0,0:0:0:70:snare.wav
182,192,57934,1,0,0:0:0:70:kick.wav
256,192,58445,1,0,0:0:0:70:kick.wav
329,192,58445,1,0,0:0:0:0:
109,192,58616,1,0,0:0:0:70:snare.wav
475,192,58616,1,0,0:0:0:70:kick.wav
182,192,58957,128,0,60320:0:0:0:70:kick.wav
256,192,58957,1,0,0:0:0:0:
36,192,59298,1,0,0:0:0:70:snare.wav
475,192,59298,1,0,0:0:0:70:kick.wav
329,192,59639,1,0,0:0:0:70:kick.wav
402,192,59639,1,0,0:0:0:0:
109,192,59809,1,0,0:0:0:70:kick.wav
36,192,59809,1,0,0:0:0:0:
256,192,59979,1,0,0:0:0:70:snare.wav
475,192,59979,1,0,0:0:0:70:kick.wav
36,192,60320,128,0,61684:0:0:0:70:cymbal.wav
329,192,60320,1,0,0:0:0:70:kick.wav
402,192,60320,1,0,0:0:0:0:
256,192,60661,1,0,0:0:0:70:snare.wav
475,192,60661,1,0,0:0:0:70:kick.wav
182,192,61173,1,0,0:0:0:70:kick.wav
329,192,61173,1,0,0:0:0:0:
109,192,61343,1,0,0:0:0:70:snare.wav
475,192,61343,1,0,0:0:0:70:kick.wav
329,192,61684,128,0,63048:0:0:0:70:kick.wav
256,192,61684,1,0,0:0:0:0:
109,192,62025,1,0,0:0:0:70:snare.wav
402,192,62025,1,0,0:0:0:70:kick.wav
182,192,62536,1,0,0:0:0:70:kick.wav
36,192,62536,1,0,0:0:0:0:
109,192,62707,1,0,0:0:0:70:snare.wav
475,192,62707,1,0,0:0:0:70:kick.wav
182,192,63048,128,0,64411:0:0:0:70:kick.wav
402,192,63048,1,0,0:0:0:0:
36,192,63389,1,0,0:0:0:70:snare.wav
475,192,63389,1,0,0:0:0:70:kick.wav
256,192,63900,1,0,0:0:0:70:kick.wav
329,192,63900,1,0,0:0:0:0:
109,192,64070,1,0,0:0:0:70:snare.wav
402,192,64070,1,0,0:0:0:70:kick.wav
475,192,64411,128,0,65093:0:0:0:70:kick.wav
329,192,64411,1,0,0:0:0:0:
36,192,64752,1,0,0:0:0:70:snare.wav
256,192,64752,1,0,0:0:0:70:kick.wav
109,192,65093,1,0,0:0:0:70:kick.wav
182,192,65093,1,0,0:0:0:0:
402,192,65264,1,0,0:0:0:70:snare.wav
329,192,65349,1,0,0:0:0:70:snare.wav
109,192,65434,1,0,0:0:0:70:snare.wav
182,192,65519,1,0,0:0:0:70:snare.wav
402,192,65604,1,0,0:0:0:70:snare.wav
329,192,65690,1,0,0:0:0:70:snare.wav
256,192,65775,1,0,0:0:0:70:cymbal.wav
36,192,65775,1,0,0:0:0:70:kick.wav
475,192,65775,1,0,0:0:0:0:
109,192,66116,1,0,0:0:0:70:snare.wav
329,192,66116,1,0,0:0:0:70:kick.wav
182,192,66286,1,0,0:0:0:0:
256,192,66457,128,0,67139:0:0:0:0:
475,192,66627,1,0,0:0:0:70:kick.wav
329,192,66627,1,0,0:0:0:0:
182,192,66798,1,0,0:0:0:70:snare.wav
36,192,66798,1,0,0:0:0:70:kick.wav
402,192,66968,1,0,0:0:0:0:
475,192,67139,128,0,68161:0:0:0:70:kick.wav
109,192,67139,1,0,0:0:0:0:
182,192,67309,1,0,0:0:0:0:
256,192,67479,1,0,0:0:0:70:snare.wav
36,192,67479,1,0,0:0:0:70:kick.wav
329,192,67650,1,0,0:0:0:0:
109,192,67820,1,0,0:0:0:0:
182,192,67991,1,0,0:0:0:70:kick.wav
402,192,67991,1,0,0:0:0:0:
256,192,68161,1,0,0:0:0:70:snare.wav
36,192,68161,1,0,0:0:0:70:kick.wav
329,192,68332,1,0,0:0:0:0:
109,192,68502,128,0,68843:0:0:0:70:kick.wav
402,192,68502,1,0,0:0:0:0:
256,192,68673,1,0,0:0:0:0:
329,192,68843,128,0,69184:0:0:0:70:snare.wav
475,192,68843,1,0,0:0:0:70:kick.wav
36,192,69014,1,0,0:0:0:0:
182,192,69184,128,0,69525:0:0:0:0:
402,192,69354,1,0,0:0:0:70:kick.wav
475,192,69354,1,0,0:0:0:0:
36,192,69525,128,0,70207:0:0:0:70:snare.wav
256,192,69525,1,0,0:0:0:70:kick.wav
329,192,69695,1,0,0:0:0:0:
402,192,69866,1,0,0:0:0:70:kick.wav
182,192,69866,1,0,0:0:0:0:
256,192,70036,1,0,0:0:0:0:
329,192,70207,1,0,0:0:0:70:snare.wav
475,192,70207,1,0,0:0:0:70:kick.wav
256,192,70377,1,0,0:0:0:0:
36,192,70548,128,0,71229:0:0:0:70:kick.wav
182,192,70548,1,0,0:0:0:0:
329,192,70718,1,0,0:0:0:70:kick.wav
475,192,70718,1,0,0:0:0:0:
256,192,70889,1,0,0:0:0:70:snare.wav
109,192,70889,1,0,0:0:0:70:kick.wav
475,192,71229,128,0,72934:0:0:0:70:cymbal.wav
182,192,71229,1,0,0:0:0:70:kick.wav
402,192,71229,1,0,0:0:0:0:
109,192,71400,1,0,0:0:0:0:
36,192,71570,1,0,0:0:0:70:snare.wav
329,192,71570,1,0,0:0:0:70:kick.wav
256,192,71741,1,0,0:0:0:0:
182,192,71911,1,0,0:0:0:0:
109,192,72082,1,0,0:0:0:70:kick.wav
329,192,72082,1,0,0:0:0:0:
36,192,72252,1,0,0:0:0:70:snare.wav
402,192,72252,1,0,0:0:0:70:kick.wav
109,192,72423,1,0,0:0:0:0:
182,192,72593,1,0,0:0:0:70:kick.wav
402,192,72593,1,0,0:0:0:0:
256,192,72764,1,0,0:0:0:0:
329,192,72934,1,0,0:0:0:70:snare.wav
36,192,72934,1,0,0:0:0:70:kick.wav
109,192,73104,1,0,0:0:0:0:
182,192,73275,1,0,0:0:0:0:
256,192,73445,1,0,0:0:0:70:kick.wav
36,192,73445,1,0,0:0:0:0:
475,192,73616,128,0,73957:0:0:0:70:snare.wav
329,192,73616,1,0,0:0:0:70:kick.wav
256,192,73786,1,0,0:0:0:0:
109,192,73957,128,0,74298:0:0:0:70:kick.wav
182,192,73957,1,0,0:0:0:0:
402,192,74127,1,0,0:0:0:0:
256,192,74298,128,0,74639:0:0:0:70:snare.wav
329,192,74298,1,0,0:0:0:70:kick.wav
182,192,74468,1,0,0:0:0:0:
402,192,74639,128,0,74979:0:0:0:0:
36,192,74809,1,0,0:0:0:70:kick.wav
109,192,74809,1,0,0:0:0:0:
182,192,74979,128,0,75320:0:0:0:70:snare.wav
329,192,74979,1,0,0:0:0:70:kick.wav
402,192,75320,1,0,0:0:0:0:
402,192,75491,1,0,0:0:0:0:
182,192,75661,1,0,0:0:0:0:
329,192,75832,1,0,0:0:0:0:
109,192,76002,1,0,0:0:0:0:
109,192,76173,1,0,0:0:0:0:
329,192,76343,1,0,0:0:0:0:
182,192,76514,1,0,0:0:0:0:
36,192,76684,1,0,0:0:0:70:cymbal.wav
402,192,76684,1,0,0:0:0:70:kick.wav
475,192,76684,1,0,0:0:0:0:
329,192,77025,1,0,0:0:0:70:snare.wav
109,192,77025,1,0,0:0:0:70:kick.wav
182,192,77195,1,0,0:0:0:0:
36,192,77366,128,0,78048:0:0:0:0:
256,192,77536,1,0,0:0:0:70:kick.wav
475,192,77536,1,0,0:0:0:0:
402,192,77707,1,0,0:0:0:70:snare.wav
109,192,77707,1,0,0:0:0:70:kick.wav
182,192,77877,1,0,0:0:0:0:
329,192,78048,128,0,79070:0:0:0:70:kick.wav
256,192,78048,1,0,0:0:0:0:
475,192,78389,1,0,0:0:0:70:snare.wav
109,192,78389,1,0,0:0:0:70:kick.wav
182,192,78559,1,0,0:0:0:0:
256,192,78729,1,0,0:0:0:0:
109,192,78900,1,0,0:0:0:70:kick.wav
402,192,78900,1,0,0:0:0:0:
182,192,79070,1,0,0:0:0:70:snare.wav
475,192,79070,1,0,0:0:0:70:kick.wav
256,192,79241,1,0,0:0:0:0:
109,192,79411,128,0,79752:0:0:0:70:kick.wav
329,192,79411,1,0,0:0:0:0:
256,192,79752,128,0,80093:0:0:0:70:snare.wav
402,192,79752,1,0,0:0:0:70:kick.wav
36,192,79923,1,0,0:0:0:0:
475,192,80093,128,0,80434:0:0:0:0:
109,192,80264,1,0,0:0:0:70:kick.wav
329,192,80264,1,0,0:0:0:0:
182,192,80434,128,0,81116:0:0:0:70:snare.wav
402,192,80434,1,0,0:0:0:70:kick.wav
329,192,80604,1,0,0:0:0:0:
256,192,80775,1,0,0:0:0:70:kick.wav
36,192,80775,1,0,0:0:0:0:
475,192,80945,1,0,0:0:0:0:
402,192,81116,1,0,0:0:0:70:snare.wav
109,192,81116,1,0,0:0:0:70:kick.wav
329,192,81286,1,0,0:0:0:0:
182,192,81457,128,0,82139:0:0:0:70:kick.wav
256,192,81457,1,0,0:0:0:0:
36,192,81627,1,0,0:0:0:70:kick.wav
109,192,81627,1,0,0:0:0:0:
329,192,81798,1,0,0:0:0:70:snare.wav
402,192,81798,1,0,0:0:0:70:kick.wav
475,192,82139,128,0,84184:0:0:0:70:cymbal.wav
256,192,82139,1,0,0:0:0:70:kick.wav
36,192,82139,1,0,0:0:0:0:
109,192,82479,1,0,0:0:0:70:snare.wav
329,192,82479,1,0,0:0:0:70:kick.wav
36,192,82650,1,0,0:0:0:0:
256,192,82820,1,0,0:0:0:0:
182,192,82991,1,0,0:0:0:70:kick.wav
402,192,82991,1,0,0:0:0:0:
109,192,83161,1,0,0:0:0:70:snare.wav
329,192,83161,1,0,0:0:0:70:kick.wav
36,192,83332,1,0,0:0:0:0:
109,192,83502,1,0,0:0:0:70:kick.wav
402,192,83502,1,0,0:0:0:0:
182,192,83673,1,0,0:0:0:0:
256,192,83843,1,0,0:0:0:70:snare.wav
36,192,83843,1,0,0:0:0:70:kick.wav
109,192,84014,1,0,0:0:0:0:
182,192,84184,1,0,0:0:0:0:
256,192,84354,1,0,0:0:0:70:kick.wav
402,192,84354,1,0,0:0:0:0:
475,192,84525,128,0,84866:0:0:0:70:snare.wav
109,192,84525,1,0,0:0:0:70:kick.wav
182,192,84695,1,0,0:0:0:0:
36,192,84866,128,0,85207:0:0:0:70:kick.wav
256,192,84866,1,0,0:0:0:0:
329,192,85036,1,0,0:0:0:0:
402,192,85207,128,0,85548:0:0:0:70:snare.wav
109,192,85207,1,0,0:0:0:70:kick.wav
182,192,85377,1,0,0:0:0:0:
256,192,85548,128,0,85889:0:0:0:0:
329,192,85718,1,0,0:0:0:70:kick.wav
475,192,85718,1,0,0:0:0:0:
109,192,85889,128,0,86911:0:0:0:70:snare.wav
36,192,85889,1,0,0:0:0:70:kick.wav
329,192,86229,1,0,0:0:0:70:kick.wav
475,192,86229,1,0,0:0:0:0:
256,192,86400,1,0,0:0:0:0:
182,192,86570,1,0,0:0:0:70:snare.wav
402,192,86570,1,0,0:0:0:70:kick.wav
329,192,86741,1,0,0:0:0:0:
256,192,86911,1,0,0:0:0:70:kick.wav
36,192,86911,1,0,0:0:0:0:
109,192,87082,1,0,0:0:0:70:kick.wav
329,192,87082,1,0,0:0:0:0:
182,192,87252,1,0,0:0:0:70:snare.wav
256,192,87252,1,0,0:0:0:70:kick.wav
402,192,87252,1,0,0:0:0:0:
475,192,87423,1,0,0:0:0:70:snare.wav
329,192,87423,1,0,0:0:0:70:kick.wav
36,192,87423,1,0,0:0:0:0:
109,192,87423,1,0,0:0:0:0:
