osu file format v14

[General]
AudioFilename: audio.mp3
AudioLeadIn: 0
PreviewTime: 43786
Countdown: 0
SampleSet: Normal
StackLeniency: 0.7
Mode: 3
LetterboxInBreaks: 0
SpecialStyle: 0
WidescreenStoryboard: 0

[Editor]
DistanceSpacing: 1.1
BeatDivisor: 2
GridSize: 8
TimelineZoom: 2.2

[Metadata]
Title:Kenshin no Kemono (TV Size)
TitleUnicode:Kenshin no Kemono (TV Size)
Artist:Do As Infinity
ArtistUnicode:Do As Infinity
Creator:AlisceaSparku
Version:4K MX
Source:十二大戦
Tags:Juuni Taisen Zodiac War ost ending theme - ly0572 - syadow RiP46 chouyaa
BeatmapID:1456206
BeatmapSetID:686774

[Difficulty]
HPDrainRate:8.5
CircleSize:4
OverallDifficulty:8.2
ApproachRate:5
SliderMultiplier:1.4
SliderTickRate:1

[Events]
//Background and Video events
0,0,"bg.jpg",0,0
//Break Periods
//Storyboard Layer 0 (Background)
//Storyboard Layer 1 (Fail)
//Storyboard Layer 2 (Pass)
//Storyboard Layer 3 (Foreground)
//Storyboard Sound Samples

[TimingPoints]
320.846687830286,340.909090909091,4,1,1,70,1,0
33048,-133.333333333333,4,1,1,70,0,0
43786,-1000,4,1,1,70,0,0
43935,-20,4,1,1,70,0,0
43957,-57.1428571428571,4,1,1,70,0,1
44042,-200,4,1,1,70,0,1
44298,-50,4,1,1,70,0,1
44383,-200,4,1,1,70,0,1
44809,-66.6666666666667,4,1,1,70,0,1
44894,-200,4,1,1,70,0,1
44979,-57.1428571428571,4,1,1,70,0,1
45065,-200,4,1,1,70,0,1
45320,-57.1428571428571,4,1,1,70,0,1
45406,-200,4,1,1,70,0,1
45661,-50,4,1,1,70,0,1
45746,-200,4,1,1,70,0,1
46173,-66.6666666666667,4,1,1,70,0,1
46258,-200,4,1,1,70,0,1
46343,-57.1428571428571,4,1,1,70,0,1
46428,-200,4,1,1,70,0,1
46684,-57.1428571428571,4,1,1,70,0,1
46769,-200,4,1,1,70,0,1
47025,-50,4,1,1,70,0,1
47110,-200,4,1,1,70,0,1
47536,-66.6666666666667,4,1,1,70,0,1
47621,-200,4,1,1,70,0,1
47707,-57.1428571428571,4,1,1,70,0,1
47792,-200,4,1,1,70,0,1
48048,-57.1428571428571,4,1,1,70,0,1
48133,-200,4,1,1,70,0,1
48389,-50,4,1,1,70,0,1
48474,-200,4,1,1,70,0,1
48729,-66.6666666666667,4,1,1,70,0,1
48815,-200,4,1,1,70,0,1
48900,-66.6666666666667,4,1,1,70,0,1
48985,-200,4,1,1,70,0,1
49070,-50,4,1,1,70,0,1
49156,-200,4,1,1,70,0,1
49411,-57.1428571428571,4,1,1,70,0,1
49496,-200,4,1,1,70,0,1
49752,-50,4,1,1,70,0,1
49837,-200,4,1,1,70,0,1
50263,-66.6666666666667,4,1,1,70,0,1
50348,-200,4,1,1,70,0,1
50433,-57.1428571428571,4,1,1,70,0,1
50519,-200,4,1,1,70,0,1
50774,-57.1428571428571,4,1,1,70,0,1
50860,-200,4,1,1,70,0,1
51115,-50,4,1,1,70,0,1
51200,-200,4,1,1,70,0,1
51627,-66.6666666666667,4,1,1,70,0,1
51712,-200,4,1,1,70,0,1
51797,-57.1428571428571,4,1,1,70,0,1
51882,-200,4,1,1,70,0,1
52138,-57.1428571428571,4,1,1,70,0,1
52223,-200,4,1,1,70,0,1
52479,-50,4,1,1,70,0,1
52564,-200,4,1,1,70,0,1
52990,-66.6666666666667,4,1,1,70,0,1
53075,-200,4,1,1,70,0,1
53161,-57.1428571428571,4,1,1,70,0,1
53246,-200,4,1,1,70,0,1
53502,-57.1428571428571,4,1,1,70,0,1
53587,-200,4,1,1,70,0,1
53843,-50,4,1,1,70,0,1
53928,-200,4,1,1,70,0,1
54183,-66.6666666666667,4,1,1,70,0,1
54269,-200,4,1,1,70,0,1
54354,-66.6666666666667,4,1,1,70,0,1
54439,-200,4,1,1,70,0,1
54695,-1000,4,1,1,70,0,1
54844,-20,4,1,1,70,0,1
54865,-57.1428571428571,4,1,1,70,0,1
54950,-200,4,1,1,70,0,1
55206,-50,4,1,1,70,0,1
55291,-200,4,1,1,70,0,1
55717,-66.6666666666667,4,1,1,70,0,1
55802,-200,4,1,1,70,0,1
55887,-57.1428571428571,4,1,1,70,0,1
55973,-200,4,1,1,70,0,1
56228,-57.1428571428571,4,1,1,70,0,1
56314,-200,4,1,1,70,0,1
56569,-50,4,1,1,70,0,1
56654,-200,4,1,1,70,0,1
57081,-66.6666666666667,4,1,1,70,0,1
57166,-200,4,1,1,70,0,1
57251,-57.1428571428571,4,1,1,70,0,1
57336,-200,4,1,1,70,0,1
57592,-57.1428571428571,4,1,1,70,0,1
57677,-200,4,1,1,70,0,1
57933,-50,4,1,1,70,0,1
58018,-200,4,1,1,70,0,1
58444,-66.6666666666667,4,1,1,70,0,1
58529,-200,4,1,1,70,0,1
58615,-57.1428571428571,4,1,1,70,0,1
58700,-200,4,1,1,70,0,1
58956,-57.1428571428571,4,1,1,70,0,1
59041,-200,4,1,1,70,0,1
59297,-50,4,1,1,70,0,1
59382,-200,4,1,1,70,0,1
59637,-66.6666666666667,4,1,1,70,0,1
59723,-200,4,1,1,70,0,1
59808,-66.6666666666667,4,1,1,70,0,1
59893,-200,4,1,1,70,0,1
59978,-57.1428571428571,4,1,1,70,0,1
60064,-200,4,1,1,70,0,1
60319,-57.1428571428571,4,1,1,70,0,1
60404,-200,4,1,1,70,0,1
60660,-50,4,1,1,70,0,1
60745,-200,4,1,1,70,0,1
61171,-66.6666666666667,4,1,1,70,0,1
61256,-200,4,1,1,70,0,1
61341,-57.1428571428571,4,1,1,70,0,1
61427,-200,4,1,1,70,0,1
61682,-57.1428571428571,4,1,1,70,0,1
61768,-200,4,1,1,70,0,1
62023,-50,4,1,1,70,0,1
62108,-200,4,1,1,70,0,1
62535,-66.6666666666667,4,1,1,70,0,1
62620,-200,4,1,1,70,0,1
62705,-57.1428571428571,4,1,1,70,0,1
62790,-200,4,1,1,70,0,1
63046,-57.1428571428571,4,1,1,70,0,1
63131,-200,4,1,1,70,0,1
63387,-50,4,1,1,70,0,1
63472,-200,4,1,1,70,0,1
63898,-66.6666666666667,4,1,1,70,0,1
63983,-200,4,1,1,70,0,1
64069,-57.1428571428571,4,1,1,70,0,1
64154,-200,4,1,1,70,0,1
64410,-57.1428571428571,4,1,1,70,0,1
64495,-133.333333333333,4,1,1,70,0,1
64751,-50,4,1,1,70,0,1
64836,-200,4,1,1,70,0,1
65093,-100,4,1,1,70,0,1
65775,-105.263157894737,4,1,1,70,0,0
75320,-111.111111111111,4,1,1,70,0,0
75491,-117.647058823529,4,1,1,70,0,0
75661,-125,4,1,1,70,0,0
75832,-133.333333333333,4,1,1,70,0,0
76002,-142.857142857143,4,1,1,70,0,0
76173,-153.846153846154,4,1,1,70,0,0
76343,-166.666666666667,4,1,1,70,0,0
76514,-181.818181818182,4,1,1,70,0,0
76684,-100,4,1,1,70,0,0

[HitObjects]
64,192,320,128,0,661:0:0:0:70:cymbal.wav
448,192,320,1,0,0:0:0:70:kick.wav
320,192,320,1,0,0:0:0:0:
192,192,320,1,0,0:0:0:0:
320,192,491,1,0,0:0:0:0:
448,192,661,128,0,1002:0:0:0:70:snare.wav
192,192,661,1,0,0:0:0:70:kick.wav
320,192,661,1,0,0:0:0:0:
192,192,832,1,0,0:0:0:0:
64,192,1002,128,0,1343:0:0:0:0:
320,192,1173,1,0,0:0:0:70:kick.wav
448,192,1173,1,0,0:0:0:0:
320,192,1343,128,0,1854:0:0:0:70:snare.wav
192,192,1343,1,0,0:0:0:70:kick.wav
448,192,1343,1,0,0:0:0:0:
192,192,1514,1,0,0:0:0:0:
64,192,1684,1,0,0:0:0:70:kick.wav
448,192,1684,1,0,0:0:0:0:
64,192,1854,1,0,0:0:0:0:
192,192,2025,128,0,2536:0:0:0:70:snare.wav
320,192,2025,1,0,0:0:0:70:kick.wav
448,192,2025,1,0,0:0:0:0:
64,192,2195,1,0,0:0:0:0:
448,192,2366,1,0,0:0:0:0:
320,192,2536,128,0,2707:0:0:0:70:kick.wav
64,192,2536,1,0,0:0:0:0:
448,192,2707,128,0,3048:0:0:0:70:snare.wav
64,192,2707,1,0,0:0:0:70:kick.wav
192,192,2707,1,0,0:0:0:0:
192,192,3048,128,0,3389:0:0:0:70:kick.wav
64,192,3048,1,0,0:0:0:0:
448,192,3218,1,0,0:0:0:0:
320,192,3389,128,0,3729:0:0:0:70:snare.wav
64,192,3389,1,0,0:0:0:70:kick.wav
448,192,3389,1,0,0:0:0:0:
192,192,3559,1,0,0:0:0:0:
64,192,3729,128,0,4070:0:0:0:0:
192,192,3900,1,0,0:0:0:70:kick.wav
320,192,3900,1,0,0:0:0:0:
192,192,4070,128,0,4582:0:0:0:70:snare.wav
320,192,4070,1,0,0:0:0:70:kick.wav
448,192,4070,1,0,0:0:0:0:
448,192,4241,1,0,0:0:0:0:
64,192,4411,1,0,0:0:0:70:kick.wav
320,192,4411,1,0,0:0:0:0:
320,192,4582,1,0,0:0:0:0:
64,192,4752,128,0,5264:0:0:0:70:snare.wav
448,192,4752,1,0,0:0:0:70:kick.wav
192,192,4752,1,0,0:0:0:0:
448,192,4923,1,0,0:0:0:0:
320,192,5093,1,0,0:0:0:70:kick.wav
192,192,5093,1,0,0:0:0:0:
192,192,5264,128,0,5434:0:0:0:70:kick.wav
320,192,5264,1,0,0:0:0:0:
320,192,5434,128,0,5775:0:0:0:70:snare.wav
64,192,5434,1,0,0:0:0:70:kick.wav
448,192,5434,1,0,0:0:0:0:
64,192,5775,128,0,6116:0:0:0:70:kick.wav
192,192,5775,1,0,0:0:0:0:
448,192,5945,1,0,0:0:0:0:
320,192,6116,128,0,6457:0:0:0:70:snare.wav
192,192,6116,1,0,0:0:0:70:kick.wav
448,192,6116,1,0,0:0:0:0:
64,192,6286,1,0,0:0:0:0:
192,192,6457,128,0,6798:0:0:0:0:
64,192,6627,1,0,0:0:0:70:kick.wav
448,192,6627,1,0,0:0:0:0:
448,192,6798,128,0,7309:0:0:0:70:snare.wav
64,192,6798,1,0,0:0:0:70:kick.wav
320,192,6798,1,0,0:0:0:0:
320,192,6968,1,0,0:0:0:0:
192,192,7139,1,0,0:0:0:70:kick.wav
64,192,7139,1,0,0:0:0:0:
320,192,7309,1,0,0:0:0:0:
320,192,7479,128,0,7991:0:0:0:70:snare.wav
192,192,7479,1,0,0:0:0:70:kick.wav
64,192,7479,1,0,0:0:0:0:
448,192,7650,1,0,0:0:0:0:
64,192,7820,1,0,0:0:0:0:
192,192,7991,128,0,8161:0:0:0:70:kick.wav
448,192,7991,1,0,0:0:0:0:
448,192,8161,128,0,8502:0:0:0:70:snare.wav
64,192,8161,1,0,0:0:0:70:kick.wav
320,192,8161,1,0,0:0:0:0:
64,192,8502,128,0,8843:0:0:0:70:kick.wav
192,192,8502,1,0,0:0:0:0:
320,192,8673,1,0,0:0:0:0:
320,192,8843,128,0,9184:0:0:0:70:snare.wav
192,192,8843,1,0,0:0:0:70:kick.wav
448,192,8843,1,0,0:0:0:0:
192,192,9014,1,0,0:0:0:0:
64,192,9184,128,0,9525:0:0:0:0:
448,192,9354,1,0,0:0:0:70:kick.wav
320,192,9354,1,0,0:0:0:0:
448,192,9525,128,0,10036:0:0:0:70:snare.wav
192,192,9525,1,0,0:0:0:70:kick.wav
320,192,9525,1,0,0:0:0:0:
192,192,9695,1,0,0:0:0:0:
64,192,9866,1,0,0:0:0:70:kick.wav
320,192,9866,1,0,0:0:0:0:
64,192,10036,1,0,0:0:0:0:
320,192,10207,128,0,10718:0:0:0:70:snare.wav
192,192,10207,1,0,0:0:0:70:kick.wav
448,192,10207,1,0,0:0:0:0:
192,192,10377,1,0,0:0:0:0:
448,192,10548,1,0,0:0:0:70:kick.wav
64,192,10548,1,0,0:0:0:0:
64,192,10718,128,0,10889:0:0:0:70:kick.wav
192,192,10718,1,0,0:0:0:0:
192,192,10889,128,0,11229:0:0:0:70:snare.wav
320,192,10889,1,0,0:0:0:70:kick.wav
448,192,10889,1,0,0:0:0:0:
448,192,11229,5,0,0:0:0:70:cymbal.wav
320,192,11229,1,0,0:0:0:70:kick.wav
64,192,11229,1,0,0:0:0:0:
448,192,11400,1,0,0:0:0:0:
320,192,11570,1,0,0:0:0:70:snare.wav
192,192,11570,1,0,0:0:0:70:kick.wav
64,192,11570,1,0,0:0:0:0:
192,192,11741,1,0,0:0:0:0:
448,192,11911,1,0,0:0:0:0:
448,192,12082,1,0,0:0:0:70:kick.wav
64,192,12082,1,0,0:0:0:0:
64,192,12252,1,0,0:0:0:70:snare.wav
192,192,12252,1,0,0:0:0:70:kick.wav
320,192,12252,1,0,0:0:0:0:
320,192,12423,1,0,0:0:0:0:
448,192,12593,1,0,0:0:0:70:kick.wav
192,192,12593,1,0,0:0:0:0:
192,192,12764,1,0,0:0:0:0:
64,192,12934,1,0,0:0:0:70:snare.wav
320,192,12934,1,0,0:0:0:70:kick.wav
448,192,12934,1,0,0:0:0:0:
64,192,13104,1,0,0:0:0:0:
448,192,13275,128,0,13957:0:0:0:0:
192,192,13445,1,0,0:0:0:70:kick.wav
64,192,13445,1,0,0:0:0:0:
64,192,13616,1,0,0:0:0:70:snare.wav
320,192,13616,1,0,0:0:0:70:kick.wav
192,192,13616,1,0,0:0:0:0:
320,192,13786,1,0,0:0:0:0:
192,192,13957,1,0,0:0:0:70:kick.wav
64,192,13957,1,0,0:0:0:0:
320,192,14127,1,0,0:0:0:0:
192,192,14298,1,0,0:0:0:70:snare.wav
64,192,14298,1,0,0:0:0:70:kick.wav
448,192,14298,1,0,0:0:0:0:
448,192,14468,1,0,0:0:0:0:
320,192,14639,1,0,0:0:0:0:
320,192,14809,1,0,0:0:0:70:kick.wav
64,192,14809,1,0,0:0:0:0:
192,192,14979,1,0,0:0:0:70:snare.wav
448,192,14979,1,0,0:0:0:70:kick.wav
64,192,14979,1,0,0:0:0:0:
192,192,15150,1,0,0:0:0:0:
320,192,15320,1,0,0:0:0:70:kick.wav
448,192,15320,1,0,0:0:0:0:
320,192,15491,1,0,0:0:0:0:
64,192,15661,1,0,0:0:0:70:snare.wav
192,192,15661,1,0,0:0:0:70:kick.wav
448,192,15661,1,0,0:0:0:0:
64,192,15832,1,0,0:0:0:0:
320,192,16002,128,0,16684:0:0:0:70:kick.wav
448,192,16002,1,0,0:0:0:0:
192,192,16173,1,0,0:0:0:70:kick.wav
64,192,16173,1,0,0:0:0:0:
64,192,16343,1,0,0:0:0:70:snare.wav
448,192,16343,1,0,0:0:0:70:kick.wav
192,192,16343,1,0,0:0:0:0:
448,192,16514,1,0,0:0:0:0:
192,192,16684,1,0,0:0:0:70:kick.wav
64,192,16684,1,0,0:0:0:0:
448,192,16854,1,0,0:0:0:0:
320,192,17025,1,0,0:0:0:70:snare.wav
192,192,17025,1,0,0:0:0:70:kick.wav
64,192,17025,1,0,0:0:0:0:
192,192,17195,1,0,0:0:0:0:
448,192,17366,1,0,0:0:0:0:
448,192,17536,1,0,0:0:0:70:kick.wav
320,192,17536,1,0,0:0:0:0:
64,192,17707,1,0,0:0:0:70:snare.wav
192,192,17707,1,0,0:0:0:70:kick.wav
320,192,17707,1,0,0:0:0:0:
64,192,17877,1,0,0:0:0:0:
192,192,18048,1,0,0:0:0:70:kick.wav
448,192,18048,1,0,0:0:0:0:
192,192,18218,1,0,0:0:0:0:
64,192,18389,1,0,0:0:0:70:snare.wav
320,192,18389,1,0,0:0:0:70:kick.wav
448,192,18389,1,0,0:0:0:0:
320,192,18559,1,0,0:0:0:0:
192,192,18729,128,0,19411:0:0:0:0:
320,192,18900,1,0,0:0:0:70:kick.wav
448,192,18900,1,0,0:0:0:0:
448,192,19070,1,0,0:0:0:70:snare.wav
64,192,19070,1,0,0:0:0:70:kick.wav
320,192,19070,1,0,0:0:0:0:
64,192,19241,1,0,0:0:0:0:
320,192,19411,1,0,0:0:0:70:kick.wav
448,192,19411,1,0,0:0:0:0:
64,192,19582,1,0,0:0:0:0:
192,192,19752,1,0,0:0:0:70:snare.wav
320,192,19752,1,0,0:0:0:70:kick.wav
448,192,19752,1,0,0:0:0:0:
448,192,19923,1,0,0:0:0:0:
64,192,20093,1,0,0:0:0:0:
64,192,20264,1,0,0:0:0:70:kick.wav
320,192,20264,1,0,0:0:0:0:
192,192,20434,1,0,0:0:0:70:snare.wav
448,192,20434,1,0,0:0:0:70:kick.wav
320,192,20434,1,0,0:0:0:0:
192,192,20604,1,0,0:0:0:0:
64,192,20775,1,0,0:0:0:70:kick.wav
448,192,20775,1,0,0:0:0:0:
448,192,20945,1,0,0:0:0:0:
320,192,21116,1,0,0:0:0:70:snare.wav
192,192,21116,1,0,0:0:0:70:kick.wav
64,192,21116,1,0,0:0:0:0:
320,192,21286,1,0,0:0:0:0:
64,192,21457,128,0,22139:0:0:0:70:kick.wav
448,192,21457,1,0,0:0:0:0:
320,192,21627,1,0,0:0:0:70:kick.wav
192,192,21627,1,0,0:0:0:0:
448,192,21798,1,0,0:0:0:70:snare.wav
192,192,21798,1,0,0:0:0:70:kick.wav
320,192,21798,1,0,0:0:0:0:
448,192,21968,1,0,0:0:0:0:
192,192,22139,1,0,0:0:0:70:cymbal.wav
320,192,22139,1,0,0:0:0:70:kick.wav
448,192,22139,1,0,0:0:0:0:
64,192,22309,1,0,0:0:0:0:
320,192,22479,1,0,0:0:0:70:snare.wav
448,192,22479,1,0,0:0:0:70:kick.wav
192,192,22479,1,0,0:0:0:0:
64,192,22650,128,0,22820:0:0:0:0:
448,192,22820,128,0,23161:0:0:0:0:
64,192,22991,1,0,0:0:0:70:kick.wav
320,192,22991,1,0,0:0:0:0:
64,192,23161,1,0,0:0:0:70:snare.wav
192,192,23161,1,0,0:0:0:70:kick.wav
320,192,23161,1,0,0:0:0:0:
192,192,23332,128,0,23502:0:0:0:0:
320,192,23502,128,0,23843:0:0:0:70:kick.wav
448,192,23502,1,0,0:0:0:0:
64,192,23673,1,0,0:0:0:0:
64,192,23843,1,0,0:0:0:70:snare.wav
192,192,23843,1,0,0:0:0:70:kick.wav
448,192,23843,1,0,0:0:0:0:
192,192,24014,128,0,24184:0:0:0:0:
64,192,24184,128,0,24525:0:0:0:0:
320,192,24354,1,0,0:0:0:70:kick.wav
448,192,24354,1,0,0:0:0:0:
448,192,24525,1,0,0:0:0:70:snare.wav
320,192,24525,1,0,0:0:0:70:kick.wav
192,192,24525,1,0,0:0:0:0:
192,192,24695,128,0,24866:0:0:0:0:
448,192,24866,128,0,25207:0:0:0:70:kick.wav
64,192,24866,1,0,0:0:0:0:
192,192,25036,1,0,0:0:0:0:
64,192,25207,1,0,0:0:0:70:snare.wav
192,192,25207,1,0,0:0:0:70:kick.wav
320,192,25207,1,0,0:0:0:0:
320,192,25377,128,0,25548:0:0:0:0:
448,192,25548,128,0,25889:0:0:0:0:
192,192,25718,1,0,0:0:0:70:kick.wav
64,192,25718,1,0,0:0:0:0:
64,192,25889,1,0,0:0:0:70:snare.wav
192,192,25889,1,0,0:0:0:70:kick.wav
320,192,25889,1,0,0:0:0:0:
320,192,26059,128,0,26229:0:0:0:0:
192,192,26229,128,0,26570:0:0:0:70:kick.wav
448,192,26229,1,0,0:0:0:0:
64,192,26400,1,0,0:0:0:0:
320,192,26570,1,0,0:0:0:70:snare.wav
448,192,26570,1,0,0:0:0:70:kick.wav
64,192,26570,1,0,0:0:0:0:
448,192,26741,128,0,26911:0:0:0:0:
64,192,26911,128,0,27593:0:0:0:70:kick.wav
192,192,26911,1,0,0:0:0:0:
320,192,27082,1,0,0:0:0:70:kick.wav
448,192,27082,1,0,0:0:0:0:
448,192,27252,1,0,0:0:0:70:snare.wav
192,192,27252,1,0,0:0:0:70:kick.wav
320,192,27252,1,0,0:0:0:0:
192,192,27423,1,0,0:0:0:0:
320,192,27593,1,0,0:0:0:70:kick.wav
448,192,27593,1,0,0:0:0:0:
64,192,27764,1,0,0:0:0:0:
192,192,27934,1,0,0:0:0:70:snare.wav
320,192,27934,1,0,0:0:0:70:kick.wav
448,192,27934,1,0,0:0:0:0:
192,192,28104,1,0,0:0:0:0:
192,192,28275,1,0,0:0:0:0:
192,192,28445,1,0,0:0:0:70:kick.wav
448,192,28445,1,0,0:0:0:0:
64,192,28616,1,0,0:0:0:70:snare.wav
320,192,28616,1,0,0:0:0:70:kick.wav
448,192,28616,1,0,0:0:0:0:
64,192,28786,1,0,0:0:0:0:
64,192,28957,1,0,0:0:0:70:kick.wav
192,192,28957,1,0,0:0:0:0:
64,192,29127,1,0,0:0:0:0:
320,192,29298,1,0,0:0:0:70:snare.wav
448,192,29298,1,0,0:0:0:70:kick.wav
192,192,29298,1,0,0:0:0:0:
320,192,29468,1,0,0:0:0:0:
320,192,29639,1,0,0:0:0:0:
320,192,29809,1,0,0:0:0:70:kick.wav
64,192,29809,1,0,0:0:0:0:
192,192,29979,1,0,0:0:0:70:snare.wav
64,192,29979,1,0,0:0:0:70:kick.wav
448,192,29979,1,0,0:0:0:0:
320,192,30320,1,0,0:0:0:70:kick.wav
448,192,30320,1,0,0:0:0:0:
192,192,30491,1,0,0:0:0:0:
320,192,30661,1,0,0:0:0:70:snare.wav
64,192,30661,1,0,0:0:0:70:kick.wav
448,192,30661,1,0,0:0:0:0:
320,192,30832,1,0,0:0:0:0:
320,192,31002,1,0,0:0:0:0:
192,192,31173,1,0,0:0:0:70:kick.wav
64,192,31173,1,0,0:0:0:0:
192,192,31343,1,0,0:0:0:70:snare.wav
448,192,31343,1,0,0:0:0:70:kick.wav
320,192,31343,1,0,0:0:0:0:
192,192,31514,1,0,0:0:0:0:
448,192,31684,1,0,0:0:0:70:kick.wav
64,192,31684,1,0,0:0:0:0:
448,192,31854,5,0,0:0:0:0:
448,192,32025,5,0,0:0:0:70:snare.wav
192,192,32025,1,0,0:0:0:70:kick.wav
64,192,32025,1,0,0:0:0:0:
448,192,32195,5,0,0:0:0:0:
320,192,32366,1,0,0:0:0:70:kick.wav
64,192,32366,1,0,0:0:0:0:
320,192,32536,1,0,0:0:0:70:kick.wav
64,192,32536,1,0,0:0:0:0:
192,192,32707,1,0,0:0:0:70:snare.wav
448,192,32707,1,0,0:0:0:70:kick.wav
64,192,32707,1,0,0:0:0:0:
192,192,32877,1,0,0:0:0:0:
320,192,33048,128,0,33729:0:0:0:0:
448,192,33729,128,0,35093:0:0:0:0:
192,192,34411,128,0,35775:0:0:0:0:
320,192,35093,128,0,36457:0:0:0:0:
448,192,35775,128,0,37139:0:0:0:0:
192,192,36457,128,0,37820:0:0:0:0:
64,192,37139,128,0,42593:0:0:0:0:
448,192,37820,128,0,42593:0:0:0:0:
320,192,38502,128,0,43786:0:0:0:0:
192,192,40889,128,0,43786:0:0:0:0:
64,192,43957,5,0,0:0:0:70:cymbal.wav
192,192,43957,1,0,0:0:0:70:kick.wav
448,192,43957,1,0,0:0:0:0:
192,192,44298,1,0,0:0:0:70:snare.wav
320,192,44298,1,0,0:0:0:70:kick.wav
448,192,44298,1,0,0:0:0:0:
64,192,44298,1,0,0:0:0:0:
64,192,44809,1,0,0:0:0:70:kick.wav
320,192,44809,1,0,0:0:0:0:
192,192,44979,1,0,0:0:0:70:snare.wav
320,192,44979,1,0,0:0:0:70:kick.wav
448,192,44979,1,0,0:0:0:0:
192,192,45320,1,0,0:0:0:70:kick.wav
64,192,45320,1,0,0:0:0:0:
64,192,45661,1,0,0:0:0:70:snare.wav
320,192,45661,1,0,0:0:0:70:kick.wav
448,192,45661,1,0,0:0:0:0:
192,192,45661,1,0,0:0:0:0:
192,192,46173,1,0,0:0:0:70:kick.wav
448,192,46173,1,0,0:0:0:0:
448,192,46343,1,0,0:0:0:70:snare.wav
320,192,46343,1,0,0:0:0:70:kick.wav
64,192,46343,1,0,0:0:0:0:
192,192,46684,1,0,0:0:0:70:kick.wav
320,192,46684,1,0,0:0:0:0:
64,192,47025,1,0,0:0:0:70:snare.wav
192,192,47025,1,0,0:0:0:70:kick.wav
448,192,47025,1,0,0:0:0:0:
320,192,47025,1,0,0:0:0:0:
320,192,47536,1,0,0:0:0:70:kick.wav
64,192,47536,1,0,0:0:0:0:
192,192,47707,1,0,0:0:0:70:snare.wav
320,192,47707,1,0,0:0:0:70:kick.wav
448,192,47707,1,0,0:0:0:0:
64,192,48048,1,0,0:0:0:70:kick.wav
192,192,48048,1,0,0:0:0:0:
64,192,48389,1,0,0:0:0:70:snare.wav
320,192,48389,1,0,0:0:0:70:kick.wav
448,192,48389,1,0,0:0:0:0:
192,192,48389,1,0,0:0:0:0:
192,192,48729,1,0,0:0:0:70:kick.wav
448,192,48729,1,0,0:0:0:0:
448,192,48900,1,0,0:0:0:70:kick.wav
192,192,48900,1,0,0:0:0:0:
320,192,49070,1,0,0:0:0:70:snare.wav
192,192,49070,1,0,0:0:0:70:kick.wav
64,192,49070,1,0,0:0:0:0:
448,192,49070,1,0,0:0:0:0:
320,192,49411,1,0,0:0:0:70:cymbal.wav
448,192,49411,1,0,0:0:0:70:kick.wav
192,192,49411,1,0,0:0:0:0:
64,192,49752,1,0,0:0:0:70:snare.wav
448,192,49752,1,0,0:0:0:70:kick.wav
192,192,49752,1,0,0:0:0:0:
320,192,49752,1,0,0:0:0:0:
320,192,50264,1,0,0:0:0:70:kick.wav
64,192,50264,1,0,0:0:0:0:
64,192,50434,1,0,0:0:0:70:snare.wav
192,192,50434,1,0,0:0:0:70:kick.wav
448,192,50434,1,0,0:0:0:0:
320,192,50775,1,0,0:0:0:70:kick.wav
448,192,50775,1,0,0:0:0:0:
320,192,51116,1,0,0:0:0:70:snare.wav
192,192,51116,1,0,0:0:0:70:kick.wav
64,192,51116,1,0,0:0:0:0:
448,192,51116,1,0,0:0:0:0:
448,192,51627,1,0,0:0:0:70:kick.wav
192,192,51627,1,0,0:0:0:0:
320,192,51798,1,0,0:0:0:70:snare.wav
192,192,51798,1,0,0:0:0:70:kick.wav
64,192,51798,1,0,0:0:0:0:
448,192,52139,1,0,0:0:0:70:kick.wav
64,192,52139,1,0,0:0:0:0:
192,192,52479,1,0,0:0:0:70:snare.wav
320,192,52479,1,0,0:0:0:70:kick.wav
448,192,52479,1,0,0:0:0:0:
64,192,52479,1,0,0:0:0:0:
64,192,52991,1,0,0:0:0:70:kick.wav
192,192,52991,1,0,0:0:0:0:
64,192,53161,1,0,0:0:0:70:snare.wav
320,192,53161,1,0,0:0:0:70:kick.wav
448,192,53161,1,0,0:0:0:0:
192,192,53502,1,0,0:0:0:70:kick.wav
448,192,53502,1,0,0:0:0:0:
64,192,53843,1,0,0:0:0:70:snare.wav
320,192,53843,1,0,0:0:0:70:kick.wav
448,192,53843,1,0,0:0:0:0:
192,192,53843,1,0,0:0:0:0:
192,192,54184,1,0,0:0:0:70:kick.wav
320,192,54184,1,0,0:0:0:0:
320,192,54354,1,0,0:0:0:70:kick.wav
192,192,54354,1,0,0:0:0:0:
64,192,54866,1,0,0:0:0:70:cymbal.wav
192,192,54866,1,0,0:0:0:70:kick.wav
448,192,54866,1,0,0:0:0:0:
320,192,54866,128,0,56229:0:0:0:0:
192,192,55207,1,0,0:0:0:70:snare.wav
64,192,55207,1,0,0:0:0:70:kick.wav
448,192,55207,1,0,0:0:0:0:
192,192,55718,1,0,0:0:0:70:kick.wav
64,192,55718,1,0,0:0:0:0:
192,192,55889,1,0,0:0:0:70:snare.wav
64,192,55889,1,0,0:0:0:70:kick.wav
448,192,55889,1,0,0:0:0:0:
448,192,56229,1,0,0:0:0:70:kick.wav
64,192,56229,128,0,57593:0:0:0:0:
448,192,56570,1,0,0:0:0:70:snare.wav
320,192,56570,1,0,0:0:0:70:kick.wav
192,192,56570,1,0,0:0:0:0:
320,192,57082,1,0,0:0:0:70:kick.wav
192,192,57082,1,0,0:0:0:0:
192,192,57252,1,0,0:0:0:70:snare.wav
320,192,57252,1,0,0:0:0:70:kick.wav
448,192,57252,1,0,0:0:0:0:
448,192,57593,1,0,0:0:0:70:kick.wav
192,192,57593,128,0,58957:0:0:0:0:
64,192,57934,1,0,0:0:0:70:snare.wav
320,192,57934,1,0,0:0:0:70:kick.wav
448,192,57934,1,0,0:0:0:0:
320,192,58445,1,0,0:0:0:70:kick.wav
448,192,58445,1,0,0:0:0:0:
448,192,58616,1,0,0:0:0:70:snare.wav
320,192,58616,1,0,0:0:0:70:kick.wav
64,192,58616,1,0,0:0:0:0:
64,192,58957,1,0,0:0:0:70:kick.wav
448,192,58957,1,0,0:0:0:0:
320,192,58957,128,0,60320:0:0:0:0:
64,192,59298,1,0,0:0:0:70:snare.wav
192,192,59298,1,0,0:0:0:70:kick.wav
448,192,59298,1,0,0:0:0:0:
448,192,59639,1,0,0:0:0:70:kick.wav
64,192,59639,1,0,0:0:0:0:
64,192,59809,1,0,0:0:0:70:kick.wav
448,192,59809,1,0,0:0:0:0:
192,192,59979,1,0,0:0:0:70:snare.wav
64,192,59979,1,0,0:0:0:70:kick.wav
448,192,59979,1,0,0:0:0:0:
64,192,60320,1,0,0:0:0:70:cymbal.wav
192,192,60320,1,0,0:0:0:70:kick.wav
448,192,60320,128,0,61684:0:0:0:0:
64,192,60661,1,0,0:0:0:70:snare.wav
192,192,60661,1,0,0:0:0:70:kick.wav
320,192,60661,1,0,0:0:0:0:
320,192,61173,1,0,0:0:0:70:kick.wav
64,192,61173,1,0,0:0:0:0:
64,192,61343,1,0,0:0:0:70:snare.wav
320,192,61343,1,0,0:0:0:70:kick.wav
192,192,61343,1,0,0:0:0:0:
192,192,61684,128,0,63048:0:0:0:70:kick.wav
64,192,61684,1,0,0:0:0:0:
320,192,62025,1,0,0:0:0:70:snare.wav
64,192,62025,1,0,0:0:0:70:kick.wav
448,192,62025,1,0,0:0:0:0:
64,192,62536,1,0,0:0:0:70:kick.wav
320,192,62536,1,0,0:0:0:0:
320,192,62707,1,0,0:0:0:70:snare.wav
448,192,62707,1,0,0:0:0:70:kick.wav
64,192,62707,1,0,0:0:0:0:
64,192,63048,1,0,0:0:0:70:kick.wav
448,192,63048,1,0,0:0:0:0:
320,192,63048,128,0,64411:0:0:0:0:
64,192,63389,1,0,0:0:0:70:snare.wav
448,192,63389,1,0,0:0:0:70:kick.wav
192,192,63389,1,0,0:0:0:0:
448,192,63900,1,0,0:0:0:70:kick.wav
64,192,63900,1,0,0:0:0:0:
192,192,64070,1,0,0:0:0:70:snare.wav
64,192,64070,1,0,0:0:0:70:kick.wav
448,192,64070,1,0,0:0:0:0:
192,192,64411,1,0,0:0:0:70:kick.wav
64,192,64411,128,0,65093:0:0:0:0:
192,192,64752,1,0,0:0:0:70:snare.wav
320,192,64752,1,0,0:0:0:70:kick.wav
448,192,64752,1,0,0:0:0:0:
448,192,65093,1,0,0:0:0:70:kick.wav
320,192,65093,1,0,0:0:0:0:
64,192,65264,1,0,0:0:0:70:snare.wav
192,192,65264,1,0,0:0:0:70:kick.wav
320,192,65349,1,0,0:0:0:70:snare.wav
448,192,65349,1,0,0:0:0:0:
192,192,65434,1,0,0:0:0:70:snare.wav
64,192,65434,1,0,0:0:0:0:
320,192,65519,1,0,0:0:0:70:snare.wav
448,192,65519,1,0,0:0:0:0:
192,192,65604,1,0,0:0:0:70:snare.wav
64,192,65604,1,0,0:0:0:0:
320,192,65690,1,0,0:0:0:70:snare.wav
448,192,65775,1,0,0:0:0:70:cymbal.wav
64,192,65775,1,0,0:0:0:70:kick.wav
192,192,65775,1,0,0:0:0:0:
192,192,66116,1,0,0:0:0:70:snare.wav
448,192,66116,1,0,0:0:0:70:kick.wav
64,192,66116,1,0,0:0:0:0:
192,192,66286,1,0,0:0:0:0:
320,192,66457,128,0,67139:0:0:0:0:
448,192,66627,1,0,0:0:0:70:kick.wav
192,192,66627,1,0,0:0:0:0:
64,192,66798,1,0,0:0:0:70:snare.wav
192,192,66798,1,0,0:0:0:70:kick.wav
448,192,66798,1,0,0:0:0:0:
64,192,66968,1,0,0:0:0:0:
448,192,67139,128,0,68161:0:0:0:70:kick.wav
192,192,67139,1,0,0:0:0:0:
64,192,67309,1,0,0:0:0:0:
192,192,67479,1,0,0:0:0:70:snare.wav
320,192,67479,1,0,0:0:0:70:kick.wav
64,192,67479,1,0,0:0:0:0:
320,192,67650,1,0,0:0:0:0:
192,192,67820,1,0,0:0:0:0:
64,192,67991,1,0,0:0:0:70:kick.wav
320,192,67991,1,0,0:0:0:0:
64,192,68161,1,0,0:0:0:70:snare.wav
192,192,68161,1,0,0:0:0:70:kick.wav
320,192,68161,1,0,0:0:0:0:
192,192,68332,1,0,0:0:0:0:
64,192,68502,128,0,68843:0:0:0:70:kick.wav
320,192,68502,1,0,0:0:0:0:
448,192,68673,1,0,0:0:0:0:
320,192,68843,128,0,69184:0:0:0:70:snare.wav
192,192,68843,1,0,0:0:0:70:kick.wav
448,192,68843,1,0,0:0:0:0:
192,192,69014,1,0,0:0:0:0:
448,192,69184,128,0,69525:0:0:0:0:
64,192,69354,1,0,0:0:0:70:kick.wav
192,192,69354,1,0,0:0:0:0:
192,192,69525,128,0,70207:0:0:0:70:snare.wav
64,192,69525,1,0,0:0:0:70:kick.wav
320,192,69525,1,0,0:0:0:0:
320,192,69695,1,0,0:0:0:0:
448,192,69866,1,0,0:0:0:70:kick.wav
64,192,69866,1,0,0:0:0:0:
320,192,70036,1,0,0:0:0:0:
320,192,70207,1,0,0:0:0:70:snare.wav
64,192,70207,1,0,0:0:0:70:kick.wav
448,192,70207,1,0,0:0:0:0:
448,192,70377,1,0,0:0:0:0:
320,192,70548,128,0,71144:0:0:0:70:kick.wav
64,192,70548,1,0,0:0:0:0:
192,192,70718,1,0,0:0:0:70:kick.wav
448,192,70718,1,0,0:0:0:0:
448,192,70889,1,0,0:0:0:70:snare.wav
192,192,70889,1,0,0:0:0:70:kick.wav
64,192,70889,1,0,0:0:0:0:
448,192,71229,128,0,72934:0:0:0:70:cymbal.wav
192,192,71229,1,0,0:0:0:70:kick.wav
64,192,71229,1,0,0:0:0:0:
320,192,71229,1,0,0:0:0:0:
64,192,71400,1,0,0:0:0:0:
192,192,71570,1,0,0:0:0:70:snare.wav
320,192,71570,1,0,0:0:0:70:kick.wav
64,192,71570,1,0,0:0:0:0:
192,192,71741,1,0,0:0:0:0:
320,192,71911,1,0,0:0:0:0:
64,192,72082,1,0,0:0:0:70:kick.wav
192,192,72082,1,0,0:0:0:0:
64,192,72252,1,0,0:0:0:70:snare.wav
192,192,72252,1,0,0:0:0:70:kick.wav
320,192,72252,1,0,0:0:0:0:
320,192,72423,1,0,0:0:0:0:
192,192,72593,1,0,0:0:0:70:kick.wav
64,192,72593,1,0,0:0:0:0:
320,192,72764,1,0,0:0:0:0:
320,192,72934,1,0,0:0:0:70:snare.wav
192,192,72934,1,0,0:0:0:70:kick.wav
64,192,72934,1,0,0:0:0:0:
64,192,73104,1,0,0:0:0:0:
448,192,73275,1,0,0:0:0:0:
320,192,73445,1,0,0:0:0:70:kick.wav
64,192,73445,1,0,0:0:0:0:
192,192,73616,128,0,73957:0:0:0:70:snare.wav
64,192,73616,1,0,0:0:0:70:kick.wav
448,192,73616,1,0,0:0:0:0:
448,192,73786,1,0,0:0:0:0:
64,192,73957,128,0,74298:0:0:0:70:kick.wav
320,192,73957,1,0,0:0:0:0:
448,192,74127,1,0,0:0:0:0:
320,192,74298,128,0,74639:0:0:0:70:snare.wav
192,192,74298,1,0,0:0:0:70:kick.wav
448,192,74298,1,0,0:0:0:0:
192,192,74468,1,0,0:0:0:0:
448,192,74639,128,0,74979:0:0:0:0:
64,192,74809,1,0,0:0:0:70:kick.wav
192,192,74809,1,0,0:0:0:0:
192,192,74979,128,0,75320:0:0:0:70:snare.wav
64,192,74979,1,0,0:0:0:70:kick.wav
320,192,74979,1,0,0:0:0:0:
448,192,75150,1,0,0:0:0:0:
320,192,75320,1,0,0:0:0:0:
320,192,75491,1,0,0:0:0:0:
64,192,75661,1,0,0:0:0:0:
64,192,75832,1,0,0:0:0:0:
192,192,76002,1,0,0:0:0:0:
192,192,76173,1,0,0:0:0:0:
448,192,76343,1,0,0:0:0:0:
448,192,76514,1,0,0:0:0:0:
192,192,76684,1,0,0:0:0:70:cymbal.wav
320,192,76684,1,0,0:0:0:70:kick.wav
448,192,76684,1,0,0:0:0:0:
64,192,76684,1,0,0:0:0:0:
320,192,76854,1,0,0:0:0:0:
192,192,77025,1,0,0:0:0:70:snare.wav
64,192,77025,1,0,0:0:0:70:kick.wav
448,192,77025,1,0,0:0:0:0:
320,192,77195,1,0,0:0:0:0:
64,192,77366,128,0,78048:0:0:0:0:
320,192,77536,1,0,0:0:0:70:kick.wav
192,192,77536,1,0,0:0:0:0:
448,192,77707,1,0,0:0:0:70:snare.wav
320,192,77707,1,0,0:0:0:70:kick.wav
192,192,77707,1,0,0:0:0:0:
448,192,77877,1,0,0:0:0:0:
320,192,78048,128,0,79070:0:0:0:70:kick.wav
192,192,78048,1,0,0:0:0:0:
64,192,78218,1,0,0:0:0:0:
64,192,78389,1,0,0:0:0:70:snare.wav
192,192,78389,1,0,0:0:0:70:kick.wav
448,192,78389,1,0,0:0:0:0:
192,192,78559,1,0,0:0:0:0:
64,192,78729,1,0,0:0:0:0:
192,192,78900,1,0,0:0:0:70:kick.wav
448,192,78900,1,0,0:0:0:0:
64,192,79070,1,0,0:0:0:70:snare.wav
192,192,79070,1,0,0:0:0:70:kick.wav
448,192,79070,1,0,0:0:0:0:
64,192,79241,1,0,0:0:0:0:
192,192,79411,128,0,79752:0:0:0:70:kick.wav
448,192,79411,1,0,0:0:0:0:
320,192,79582,1,0,0:0:0:0:
320,192,79752,128,0,80093:0:0:0:70:snare.wav
64,192,79752,1,0,0:0:0:70:kick.wav
448,192,79752,1,0,0:0:0:0:
64,192,79923,1,0,0:0:0:0:
192,192,80093,128,0,80434:0:0:0:0:
448,192,80264,1,0,0:0:0:70:kick.wav
320,192,80264,1,0,0:0:0:0:
64,192,80434,128,0,81116:0:0:0:70:snare.wav
320,192,80434,1,0,0:0:0:70:kick.wav
448,192,80434,1,0,0:0:0:0:
192,192,80604,1,0,0:0:0:0:
320,192,80775,1,0,0:0:0:70:kick.wav
448,192,80775,1,0,0:0:0:0:
320,192,80945,1,0,0:0:0:0:
192,192,81116,1,0,0:0:0:70:snare.wav
320,192,81116,1,0,0:0:0:70:kick.wav
448,192,81116,1,0,0:0:0:0:
448,192,81286,1,0,0:0:0:0:
64,192,81457,128,0,82053:0:0:0:70:kick.wav
192,192,81457,1,0,0:0:0:0:
320,192,81627,1,0,0:0:0:70:kick.wav
448,192,81627,1,0,0:0:0:0:
320,192,81798,1,0,0:0:0:70:snare.wav
192,192,81798,1,0,0:0:0:70:kick.wav
448,192,81798,1,0,0:0:0:0:
448,192,82139,128,0,84184:0:0:0:70:cymbal.wav
192,192,82139,1,0,0:0:0:70:kick.wav
320,192,82139,1,0,0:0:0:0:
64,192,82139,1,0,0:0:0:0:
192,192,82309,1,0,0:0:0:0:
320,192,82479,1,0,0:0:0:70:snare.wav
192,192,82479,1,0,0:0:0:70:kick.wav
64,192,82479,1,0,0:0:0:0:
320,192,82650,1,0,0:0:0:0:
64,192,82820,1,0,0:0:0:0:
192,192,82991,1,0,0:0:0:70:kick.wav
320,192,82991,1,0,0:0:0:0:
64,192,83161,1,0,0:0:0:70:snare.wav
192,192,83161,1,0,0:0:0:70:kick.wav
320,192,83161,1,0,0:0:0:0:
64,192,83332,1,0,0:0:0:0:
320,192,83502,1,0,0:0:0:70:kick.wav
192,192,83502,1,0,0:0:0:0:
320,192,83673,1,0,0:0:0:0:
64,192,83843,1,0,0:0:0:70:snare.wav
192,192,83843,1,0,0:0:0:70:kick.wav
320,192,83843,1,0,0:0:0:0:
192,192,84014,1,0,0:0:0:0:
64,192,84184,1,0,0:0:0:0:
192,192,84354,1,0,0:0:0:70:kick.wav
320,192,84354,1,0,0:0:0:0:
320,192,84525,128,0,84866:0:0:0:70:snare.wav
448,192,84525,1,0,0:0:0:70:kick.wav
64,192,84525,1,0,0:0:0:0:
192,192,84695,1,0,0:0:0:0:
64,192,84866,128,0,85207:0:0:0:70:kick.wav
448,192,84866,1,0,0:0:0:0:
448,192,85036,1,0,0:0:0:0:
192,192,85207,128,0,85548:0:0:0:70:snare.wav
320,192,85207,1,0,0:0:0:70:kick.wav
448,192,85207,1,0,0:0:0:0:
320,192,85377,1,0,0:0:0:0:
448,192,85548,128,0,85889:0:0:0:0:
64,192,85718,1,0,0:0:0:70:kick.wav
192,192,85718,1,0,0:0:0:0:
320,192,85889,128,0,86911:0:0:0:70:snare.wav
64,192,85889,1,0,0:0:0:70:kick.wav
192,192,85889,1,0,0:0:0:0:
448,192,86059,1,0,0:0:0:0:
192,192,86229,1,0,0:0:0:70:kick.wav
64,192,86229,1,0,0:0:0:0:
448,192,86400,1,0,0:0:0:0:
448,192,86570,1,0,0:0:0:70:snare.wav
192,192,86570,1,0,0:0:0:70:kick.wav
64,192,86570,1,0,0:0:0:0:
64,192,86741,1,0,0:0:0:0:
192,192,86911,1,0,0:0:0:70:kick.wav
448,192,86911,1,0,0:0:0:0:
320,192,87082,1,0,0:0:0:70:kick.wav
64,192,87082,1,0,0:0:0:0:
448,192,87252,1,0,0:0:0:70:snare.wav
320,192,87252,1,0,0:0:0:70:kick.wav
192,192,87252,1,0,0:0:0:0:
64,192,87423,128,0,87593:0:0:0:70:snare.wav
192,192,87423,128,0,87593:0:0:0:70:kick.wav
448,192,87423,128,0,87593:0:0:0:0:
