osu file format v14

[General]
AudioFilename: 1 Eu Te Devoro.mp3
AudioLeadIn: 0
PreviewTime: 24035
Countdown: 0
SampleSet: Soft
StackLeniency: 0.3
Mode: 0
LetterboxInBreaks: 0
WidescreenStoryboard: 0

[Editor]
Bookmarks: 24085,46403,68721,91039,113356,135674,157992,180310,202628,224945,247263,269581,289109
DistanceSpacing: 0.8
BeatDivisor: 8
GridSize: 32
TimelineZoom: 3.099999

[Metadata]
Title:Eu Te Devoro
TitleUnicode:Eu Te Devoro
Artist:Djavan
ArtistUnicode:Djavan
Creator:Net0
Version:Fluidez
Source:
Tags:Bossa Nova MPB musica popular brasileira pop 1998 Portugues Portuguese Brasil Bicho Solto Kauan
BeatmapID:2704964
BeatmapSetID:1304499

[Difficulty]
HPDrainRate:6
CircleSize:4
OverallDifficulty:8
ApproachRate:9
SliderMultiplier:1.6
SliderTickRate:1

[Events]
//Background and Video events
0,0,"bgbrasil.jpg",0,0
//Break Periods
//Storyboard Layer 0 (Background)
//Storyboard Layer 1 (Fail)
//Storyboard Layer 2 (Pass)
//Storyboard Layer 3 (Foreground)
//Storyboard Layer 4 (Overlay)
//Storyboard Sound Samples

[TimingPoints]
1725,689.655172413793,4,2,0,70,1,0
1725,-50,4,2,0,70,0,0
2414,697.491935249499,4,2,0,70,1,0
2414,-50,4,2,0,70,0,0
4506,697.491935249499,4,2,0,70,1,0
4506,-50,4,2,0,70,0,0
45658,-33.3333333333333,4,2,0,70,0,0
46355,-50,4,2,0,70,0,0
65885,-100,4,2,0,70,0,0
66931,-50,4,2,0,70,0,0
106688,-40,4,2,0,70,0,0
107386,-50,4,2,0,70,0,0
109827,-100,4,2,0,70,0,0
110524,722.89156626506,4,2,0,70,1,0
110524,-50,4,2,0,70,0,0
111246,685.714285714286,4,2,0,70,1,0
111246,-50,4,2,0,70,0,0
111931,687.285223367698,4,2,0,70,1,0
112618,697.491935249499,4,2,0,70,1,0
112618,-200,4,2,0,70,0,0
113315,697.491935249499,4,2,0,70,1,0
113315,-50,4,2,0,70,0,0
157256,-33.3333333333333,4,2,0,70,0,0
157954,-50,4,2,0,70,0,0
167719,-100,4,2,0,70,0,0
169114,-50,4,2,0,70,0,0
177484,-100,4,2,0,70,0,0
178181,-50,4,2,0,70,0,0
199803,-100,4,2,0,70,0,0
200501,-57.1428571428571,4,2,0,70,0,0
201198,-40,4,2,0,70,0,0
202593,-50,4,2,0,70,0,0
218636,-57.1428571428571,4,2,0,70,0,0
219333,-40,4,2,0,70,0,0
220031,-50,4,2,0,70,0,0
222123,722.89156626506,4,2,0,70,1,0
222123,-50,4,2,0,70,0,0
222845,685.714285714286,4,2,0,70,1,0
222845,-50,4,2,0,70,0,0
224216,697.491935249499,4,2,0,70,1,0
224216,-200,4,2,0,70,0,0
224913,697.491935249499,4,2,0,70,1,0
224913,-50,4,2,0,70,0,0

[Colours]
Combo1 : 240,41,219
Combo2 : 5,26,145
Combo3 : 43,94,158
Combo4 : 78,34,121
Combo5 : 166,36,186
Combo6 : 94,58,174

[HitObjects]
26,342,1725,6,0,L|183:313,1,160,6|0,3:2|3:0,0:0:0:0:
474,313,2414,2,0,P|396:317|329:276,1,160,0|2,1:0|0:3,0:0:0:0:
442,114,3111,2,0,L|429:193,1,80,2|0,3:2|0:0,0:0:0:0:
346,106,3460,2,0,B|336:68|336:68|312:33,1,80,2|2,3:2|0:2,0:0:0:0:
173,86,3808,2,0,L|251:99,2,80,0|0|2,1:0|0:0|0:2,0:0:0:0:
95,67,4332,1,0,0:0:0:0:
67,281,4506,6,0,P|127:188|114:144,1,160,2|0,3:2|3:0,0:0:0:0:
375,182,5203,2,0,L|217:210,1,160,0|2,1:0|0:3,0:0:0:0:
404,35,5900,1,0,3:0:0:0:
404,35,6249,1,2,3:2:0:0:
360,104,6424,1,2,0:2:0:0:
375,182,6598,1,0,1:0:0:0:
375,182,6947,2,0,L|453:168,1,80,2|0,0:2|0:0,0:0:0:0:
268,316,7295,70,0,P|345:321|401:266,1,160,2|2,3:2|3:2,0:0:0:0:
133,370,7993,2,0,P|55:375|0:320,1,160,0|2,1:0|0:3,0:0:0:0:
0,320,8690,1,0,3:0:0:0:
95,279,8865,1,0,0:0:0:0:
20,221,9039,1,0,3:0:0:0:
115,262,9214,1,0,0:0:0:0:
40,122,9388,2,0,P|26:163|23:204,1,80,0|0,1:0|0:0,0:0:0:0:
144,80,9737,2,0,L|127:-2,1,80,2|0,0:2|0:0,0:0:0:0:
338,174,10085,6,0,B|297:190|297:190|181:178,1,160,2|0,3:2|3:2,0:0:0:0:
419,244,10783,2,0,P|460:249|505:266,2,80,0|0|2,1:0|0:0|0:3,0:0:0:0:
349,314,11306,1,2,0:3:0:0:
340,144,11480,2,0,B|318:222|318:222|320:300,1,160,0|0,3:0|3:0,0:0:0:0:
437,145,12178,2,0,L|426:63,1,80,2|0,1:2|0:0,0:0:0:0:
268,15,12527,2,0,B|255:52|255:52|257:94,1,80,2|2,0:3|0:3,0:0:0:0:
425,322,12875,70,0,P|391:251|319:221,1,160,2|0,3:2|3:0,0:0:0:0:
225,232,13399,1,2,0:2:0:0:
62,360,13573,2,0,L|218:326,1,160,0|2,1:0|0:3,0:0:0:0:
225,232,14096,1,2,0:3:0:0:
395,355,14270,2,0,P|355:348|319:331,2,80,2|0|2,3:2|0:0|3:2,0:0:0:0:
307,244,14794,1,2,0:2:0:0:
360,175,14968,2,0,P|377:211|383:250,1,80,0|0,1:0|0:0,0:0:0:0:
399,86,15317,2,0,B|406:48|406:48|422:10,1,80,2|0,0:2|0:0,0:0:0:0:
473,138,15665,6,0,L|248:110,1,160,2|2,3:2|3:2,0:0:0:0:
221,102,16188,1,2,0:2:0:0:
289,266,16363,2,0,P|324:198|312:114,1,160,0|2,1:0|0:3,0:0:0:0:
201,170,16886,1,2,0:3:0:0:
125,270,17060,2,0,P|112:311|114:358,1,80,0|0,3:0|0:0,0:0:0:0:
198,320,17409,1,2,3:2:0:0:
73,189,17583,1,2,0:2:0:0:
239,164,17758,2,0,P|204:183|165:191,1,80,0|2,1:0|0:2,0:0:0:0:
366,294,18107,2,0,P|331:274|292:266,1,80,2|0,0:2|0:0,0:0:0:0:
452,376,18455,70,0,B|468:335|468:335|456:219,1,160,2|0,3:2|3:0,0:0:0:0:
329,52,18978,1,2,0:2:0:0:
246,21,19153,2,0,L|256:180,1,160,0|2,1:0|0:3,0:0:0:0:
256,180,19850,1,0,3:0:0:0:
303,286,20025,1,0,0:0:0:0:
219,156,20199,1,0,3:0:0:0:
173,276,20373,1,0,0:0:0:0:
285,194,20548,2,0,P|322:183|384:142,1,80,0|0,1:0|0:0,0:0:0:0:
466,91,20897,2,0,P|429:80|367:39,1,80,2|0,0:2|0:0,0:0:0:0:
424,340,21245,6,0,P|419:261|456:191,1,160,2|0,3:2|3:0,0:0:0:0:
358,163,21768,1,2,0:2:0:0:
440,29,21943,2,0,L|426:107,2,80,0|0|2,1:0|0:0|0:3,0:0:0:0:
440,29,22640,1,0,3:0:0:0:
497,181,22815,1,0,1:0:0:0:
345,238,22989,1,6,3:2:0:0:
345,238,23338,1,2,1:2:0:0:
393,134,23512,1,2,0:2:0:0:
289,86,23687,1,4,0:3:0:0:
241,190,23861,1,0,0:0:0:0:
252,304,24035,6,0,P|239:226|208:152,1,160,6|0,3:2|3:0,0:0:0:0:
382,374,24733,2,0,P|412:300|425:221,1,160,0|2,1:0|0:3,0:0:0:0:
393,134,25256,1,2,0:3:0:0:
484,0,25430,2,0,B|483:39|483:39|469:77,1,80,2|0,3:2|0:0,0:0:0:0:
316,38,25779,1,2,3:2:0:0:
196,38,25953,1,2,0:2:0:0:
216,132,26128,2,0,L|296:132,1,80,2|2,1:2|0:2,0:0:0:0:
42,77,26476,2,0,B|28:39|28:39|28:0,1,80,2|0,0:2|0:0,0:0:0:0:
277,33,26825,6,0,L|117:43,1,160,2|0,3:2|3:0,0:0:0:0:
371,26,27348,1,2,0:2:0:0:
431,139,27523,2,0,P|447:103|457:63,1,80,0|0,1:0|0:0,0:0:0:0:
326,132,27871,1,2,0:3:0:0:
283,233,28046,2,0,P|292:271|308:308,1,80,2|0,0:3|3:0,0:0:0:0:
308,308,28569,1,2,3:2:0:0:
372,226,28743,1,2,0:2:0:0:
408,314,28918,1,0,1:0:0:0:
393,211,29092,1,0,0:0:0:0:
509,320,29266,2,0,P|465:322|425:315,1,80,2|0,0:2|0:0,0:0:0:0:
241,350,29615,70,0,P|279:330|311:304,2,80,2|0|2,3:2|0:0|3:2,0:0:0:0:
76,304,30138,1,2,0:2:0:0:
70,224,30313,2,0,L|247:265,1,160,0|2,1:0|0:3,0:0:0:0:
225,260,31010,1,0,3:0:0:0:
24,72,31359,1,0,3:0:0:0:
70,224,31708,1,0,1:0:0:0:
70,224,32056,2,0,L|90:135,1,80,2|0,0:2|0:0,0:0:0:0:
310,37,32405,6,0,P|255:93|178:112,1,160,2|0,3:2|3:2,0:0:0:0:
106,52,32928,1,2,0:2:0:0:
312,189,33103,2,0,P|299:151|280:116,2,80,0|0|2,1:0|0:0|0:3,0:0:0:0:
221,199,33626,1,2,0:3:0:0:
122,325,33800,2,0,P|134:287|153:252,1,80,0|0,3:0|1:0,0:0:0:0:
350,327,34149,2,0,L|231:314,1,120,0|0,3:0|0:0,0:0:0:0:
230,313,34498,1,0,1:0:0:0:
480,179,34846,2,0,P|469:217|450:253,1,80,2|0,0:2|0:0,0:0:0:0:
199,231,35195,70,0,L|387:248,1,160,2|0,3:2|3:0,0:0:0:0:
124,337,35718,1,2,0:2:0:0:
121,168,35893,2,0,P|105:204|110:270,2,80,0|0|2,1:0|0:0|0:3,0:0:0:0:
212,138,36416,1,2,0:3:0:0:
200,40,36590,2,0,L|70:27,1,80,2|0,3:2|0:0,0:0:0:0:
314,159,36939,1,2,3:2:0:0:
384,2,37113,1,2,0:2:0:0:
372,87,37288,2,0,P|334:78|299:58,1,80,0|2,1:0|0:2,0:0:0:0:
200,40,37636,1,2,0:2:0:0:
212,138,37811,1,0,0:0:0:0:
49,27,37985,6,0,P|126:10|199:39,1,160,2|2,3:2|3:2,0:0:0:0:
184,227,38508,1,2,0:2:0:0:
106,261,38683,2,0,B|104:183|104:183|126:105,1,160,0|2,1:0|0:3,0:0:0:0:
251,54,39206,1,2,0:3:0:0:
317,0,39380,2,0,B|339:74|339:74|338:155,1,160,0|2,3:0|3:2,0:0:0:0:
262,189,39903,1,2,0:2:0:0:
216,67,40078,1,0,1:0:0:0:
276,211,40252,1,2,0:2:0:0:
322,89,40426,1,2,0:2:0:0:
290,233,40601,1,0,0:0:0:0:
263,356,40775,70,0,P|341:347|401:296,1,160,2|0,3:2|3:0,0:0:0:0:
451,29,41473,2,0,B|435:70|435:70|447:186,1,160,0|2,1:0|0:3,0:0:0:0:
494,272,41996,1,2,0:3:0:0:
348,204,42170,2,0,L|337:112,1,80,0|0,3:0|0:0,0:0:0:0:
192,192,42519,1,0,3:0:0:0:
338,124,42693,2,0,L|349:32,1,80,0|0,0:0|1:0,0:0:0:0:
347,44,43216,2,0,L|333:163,1,120,2|0,0:2|0:0,0:0:0:0:
328,194,43565,6,0,P|251:183|202:113,1,160,2|0,3:2|3:0,0:0:0:0:
263,21,44088,1,2,0:2:0:0:
85,123,44263,2,0,L|30:64,2,80,0|0|2,1:0|0:0|0:3,0:0:0:0:
203,120,44786,2,0,L|179:196,1,80,2|0,0:3|3:0,0:0:0:0:
145,33,45134,1,0,1:0:0:0:
237,283,45309,1,6,3:2:0:0:
237,283,45658,6,0,B|184:300|184:300|121:278|121:278|68:303|5:278,1,240.000009155274,2|4,1:2|0:2,0:0:0:0:
6,278,46355,54,0,P|131:303|165:353,1,160,6|0,3:2|3:0,0:0:0:0:
391,343,46878,2,0,L|312:333,1,80,2|0,0:2|1:0,0:0:0:0:
236,262,47227,1,0,0:0:0:0:
409,247,47401,1,2,0:3:0:0:
409,247,47750,2,0,L|440:173,1,80,2|0,3:2|0:0,0:0:0:0:
318,211,48099,1,2,3:2:0:0:
330,307,48273,1,2,0:2:0:0:
391,108,48447,2,0,P|460:148|509:211,1,160,0|2,1:0|0:2,0:0:0:0:
427,276,48971,1,0,0:0:0:0:
177,315,49145,6,0,P|242:270|320:256,1,160,2|0,3:2|3:0,0:0:0:0:
166,216,49668,1,2,0:2:0:0:
127,116,49842,2,0,B|121:76|121:76|129:33,1,80,0|0,1:0|0:0,0:0:0:0:
295,88,50191,1,2,0:3:0:0:
227,150,50366,1,2,0:3:0:0:
420,182,50540,2,0,B|383:162|383:162|344:160,1,80,0|0,3:0|0:0,0:0:0:0:
417,269,50889,2,0,B|456:267|456:267|492:247,1,80,2|2,3:2|0:2,0:0:0:0:
325,241,51237,2,0,P|386:291|426:360,1,160,0|2,1:0|0:2,0:0:0:0:
425,360,51935,70,0,L|252:338,1,160,2|2,3:2|3:2,0:0:0:0:
0,291,52632,2,0,P|79:285|146:244,1,160,0|2,1:0|0:3,0:0:0:0:
243,247,53156,1,2,0:3:0:0:
187,322,53330,2,0,P|158:348|121:365,1,80,0|0,3:0|0:0,0:0:0:0:
243,247,53679,1,0,3:0:0:0:
363,127,53853,2,0,P|327:143|298:171,1,80,0|0,0:0|1:0,0:0:0:0:
364,128,54376,2,0,L|269:120,1,80,2|0,0:2|0:0,0:0:0:0:
2,46,54725,6,0,B|80:48|80:48|158:26,1,160,2|0,3:2|3:2,0:0:0:0:
267,19,55248,1,2,0:2:0:0:
115,160,55422,1,0,1:0:0:0:
99,137,55771,1,2,0:3:0:0:
190,89,55946,1,2,0:3:0:0:
282,41,56120,1,0,3:0:0:0:
274,247,56294,1,0,1:0:0:0:
206,297,56469,2,0,P|194:258|200:200,1,80,0|0,3:0|0:0,0:0:0:0:
371,97,56817,1,0,1:0:0:0:
371,97,57166,2,0,P|383:136|377:194,1,80,2|0,0:2|0:0,0:0:0:0:
484,340,57515,70,0,P|439:275|363:256,1,160,2|0,3:2|3:0,0:0:0:0:
186,355,58038,1,2,0:2:0:0:
269,380,58212,2,0,L|282:203,1,160,0|2,1:0|0:3,0:0:0:0:
362,169,58735,1,2,0:3:0:0:
380,351,58910,1,2,3:2:0:0:
429,287,59259,2,0,L|409:365,1,80,2|2,3:2|0:2,0:0:0:0:
200,219,59607,2,0,L|280:220,1,80,0|0,1:0|0:0,0:0:0:0:
71,74,59956,2,0,L|49:155,1,80,2|0,0:2|0:0,0:0:0:0:
96,386,60305,6,0,P|117:310|101:233,1,160,2|2,3:2|3:2,0:0:0:0:
50,151,60828,1,2,0:2:0:0:
312,261,61002,2,0,P|256:204|181:179,1,160,0|2,1:0|0:3,0:0:0:0:
101,233,61525,1,2,0:3:0:0:
87,1,61700,2,0,L|57:158,1,160,0|2,3:0|3:2,0:0:0:0:
57,158,62397,2,0,B|98:165|98:165|146:155,1,80,0|0,1:0|0:0,0:0:0:0:
342,148,62746,2,0,B|309:121|309:121|263:106,1,80,2|0,0:2|0:0,0:0:0:0:
428,98,63095,70,0,B|374:41|374:41|288:15,1,160,2|0,3:2|3:0,0:0:0:0:
301,195,63618,2,0,L|364:145,2,80,2|0|0,0:2|1:0|0:0,0:0:0:0:
204,33,64141,1,2,0:2:0:0:
252,113,64315,1,0,0:0:0:0:
338,144,64490,2,0,B|348:182|348:182|348:223,1,80,0|0,3:0|0:0,0:0:0:0:
109,213,64839,2,0,L|268:196,1,160,0|0,3:0|1:0,0:0:0:0:
28,182,65362,2,0,B|28:223|28:223|39:262,2,80,2|2|0,0:2|0:2|0:0,0:0:0:0:
169,129,65885,54,0,P|197:210|182:295,1,160,4|0,3:1|1:0,0:0:0:0:
187,282,66931,102,0,P|205:246|245:205,1,80,0|0,0:1|0:0,0:0:0:0:
378,152,67280,1,0,2:0:0:0:
206,134,67454,1,0,2:0:0:0:
277,293,67629,1,8,3:3:0:0:
277,293,67977,5,0,1:0:0:0:
230,216,68152,1,0,1:0:0:0:
108,290,68326,2,0,P|147:297|186:295,1,80,4|0,0:3|0:0,0:0:0:0:
474,266,68675,22,0,P|394:261|326:221,1,160,4|0,3:2|3:0,0:0:0:0:
274,137,69198,1,0,0:0:0:0:
334,10,69372,2,0,P|349:46|361:84,1,80,0|2,1:0|0:2,0:0:0:0:
158,264,69721,2,0,P|169:225|185:189,1,80
208,57,70070,1,2,3:2:0:0:
304,327,70418,1,0,3:0:0:0:
256,192,70593,1,0,0:0:0:0:
430,151,70767,2,0,B|423:190|423:190|402:225,1,80,0|0,1:0|0:0,0:0:0:0:
171,363,71116,2,0,B|178:324|178:324|199:289,1,80,2|0,0:2|0:0,0:0:0:0:
483,278,71465,6,0,L|321:245,2,160,2|0|0,3:2|3:0|1:0,0:0:0:0:
483,278,72511,1,2,0:2:0:0:
421,177,72685,1,0,3:0:0:0:
359,76,72860,2,0,L|279:97,1,80,2|2,1:2|3:2,0:0:0:0:
121,309,73208,2,0,L|198:288,1,80,2|0,3:2|0:0,0:0:0:0:
205,0,73557,2,0,B|180:36|180:36|170:138,1,120,2|0,1:2|0:0,0:0:0:0:
168,152,73906,1,2,0:2:0:0:
326,246,74080,1,0,0:0:0:0:
71,186,74255,70,0,P|129:175|189:180,1,120,2|0,3:2|0:0,0:0:0:0:
216,198,74603,2,0,P|272:177|321:143,1,120,0|0,3:0|0:0,0:0:0:0:
340,118,74952,2,0,P|367:147|388:180,1,80,0|2,1:0|0:2,0:0:0:0:
461,64,75301,2,0,B|492:38|492:38|509:1,1,80
482,157,75650,2,0,P|421:195|397:276,1,160,2|0,3:2|3:0,0:0:0:0:
480,372,76173,1,0,0:0:0:0:
483,286,76347,2,0,L|327:328,1,160,0|2,1:0|0:2,0:0:0:0:
228,352,76870,1,0,0:0:0:0:
0,338,77045,6,0,P|79:333|147:293,1,160,2|0,3:2|3:0,0:0:0:0:
148,293,77742,2,0,L|124:205,1,80,0|2,1:0|0:2,0:0:0:0:
168,60,78091,1,0,0:0:0:0:
162,30,78440,2,0,L|138:117,1,80,0|0,0:2|3:0,0:0:0:0:
29,221,78788,1,0,3:0:0:0:
4,215,79137,2,0,L|91:191,1,80,2|2,1:2|0:2,0:0:0:0:
57,85,79486,1,2,0:2:0:0:
198,169,79660,1,0,0:0:0:0:
70,372,79835,70,0,P|92:296|151:243,1,160,2|0,3:2|3:0,0:0:0:0:
125,128,80358,1,0,0:0:0:0:
274,147,80532,2,0,P|236:161|197:168,1,80,0|2,1:0|0:2,0:0:0:0:
365,181,80881,2,0,P|340:212|309:238,1,80
460,164,81230,2,0,P|454:203|440:241,2,80,2|0|0,3:2|0:0|3:0,0:0:0:0:
398,94,81753,1,0,0:0:0:0:
277,277,81927,2,0,B|316:271|316:271|354:257,1,80,0|0,1:0|0:0,0:0:0:0:
488,342,82276,2,0,B|450:328|450:328|411:322,1,80,2|0,0:2|0:0,0:0:0:0:
195,276,82625,6,0,P|204:215|257:204,1,120,2|0,3:2|0:0,0:0:0:0:
253,203,82973,2,0,P|244:264|191:275,1,120,0|0,3:0|0:0,0:0:0:0:
194,275,83322,1,0,1:0:0:0:
117,323,83496,2,0,B|52:300|-5:308|-5:308|22:317|24:327,1,160,2|2,0:2|3:2,0:0:0:0:
260,349,84020,2,0,P|284:317|294:279,1,80,2|2,0:2|3:2,0:0:0:0:
335,85,84368,2,0,L|329:176,1,80,2|0,3:2|0:0,0:0:0:0:
512,240,84717,2,0,P|433:241|376:294,1,160,2|2,1:2|0:2,0:0:0:0:
376,294,85415,70,0,L|365:134,2,160,4|0|0,3:1|3:0|1:0,0:0:0:0:
376,294,86461,2,0,L|296:282,1,80,2|0,0:2|0:0,0:0:0:0:
20,181,86810,2,0,L|100:169,1,80,0|0,3:0|0:0,0:0:0:0:
202,220,87158,1,2,3:3:0:0:
479,23,87507,1,2,1:3:0:0:
479,23,87856,2,0,L|467:103,1,80,2|0,0:2|0:0,0:0:0:0:
371,67,88205,5,2,3:2:0:0:
505,197,88379,1,2,0:2:0:0:
467,102,88553,1,2,3:2:0:0:
284,120,88728,1,2,0:2:0:0:
505,197,88902,2,0,P|485:274|452:347,1,160,2|0,1:2|0:0,0:0:0:0:
355,266,89425,2,0,P|365:227|384:192,1,80,0|2,3:0|0:2,0:0:0:0:
349,380,89774,1,0,1:0:0:0:
191,228,89948,2,0,B|217:231|217:231|263:312,1,120,2|0,3:2|0:0,0:0:0:0:
263,312,90297,1,10,1:1:0:0:
294,179,90471,1,0,1:0:0:0:
263,45,90646,1,4,0:3:0:0:
277,73,90994,70,0,P|293:109|298:148,1,80,4|0,3:2|0:0,0:0:0:0:
371,29,91343,2,0,P|447:47|500:105,1,160,0|0,3:0|1:0,0:0:0:0:
294,163,91866,1,2,0:2:0:0:
182,37,92041,2,0,L|89:26,1,80
379,107,92389,2,0,L|472:118,1,80,2|0,3:2|0:0,0:0:0:0:
187,163,92738,2,0,P|110:181|57:239,1,160,0|0,3:0|1:0,0:0:0:0:
263,45,93261,1,0,0:0:0:0:
278,261,93436,2,0,P|270:320|278:379,1,120,2|0,0:2|0:0,0:0:0:0:
278,379,93784,6,0,P|248:306|182:263,1,160,2|0,3:2|3:0,0:0:0:0:
6,347,94308,1,0,0:0:0:0:
84,373,94482,2,0,L|101:184,1,160,0|2,1:0|0:2,0:0:0:0:
110,122,95005,1,2,3:2:0:0:
111,113,95354,1,0,0:0:0:0:
31,0,95528,2,0,P|21:59|32:98,1,80,0|0,3:1|0:0,0:0:0:0:
236,224,95877,2,0,B|228:183|228:183|209:150,1,80,2|2,1:2|0:2,0:0:0:0:
18,218,96226,2,0,L|104:212,1,80,2|0,0:2|0:0,0:0:0:0:
478,355,96574,70,0,P|401:336|348:277,1,160,2|0,3:2|3:0,0:0:0:0:
319,128,97098,1,0,0:0:0:0:
176,333,97272,2,0,L|262:327,2,80,0|2|0,1:0|0:2|0:0,0:0:0:0:
176,333,97969,2,0,P|176:296|182:247,1,80,2|0,3:2|0:0,0:0:0:0:
336,51,98318,2,0,P|340:90|340:130,1,80,0|0,3:0|0:0,0:0:0:0:
327,256,98667,1,0,1:0:0:0:
222,136,98841,1,0,0:0:0:0:
354,273,99016,2,0,P|393:272|433:268,1,80,2|0,0:2|0:0,0:0:0:0:
229,29,99364,5,2,3:2:0:0:
406,347,99713,1,0,3:0:0:0:
42,341,100062,1,0,1:0:0:0:
116,359,100236,2,0,P|111:291|100:243,1,80,2|0,0:2|0:0,0:0:0:0:
87,158,100585,1,0,3:0:0:0:
13,176,100759,2,0,P|18:108|29:60,1,80,2|2,0:2|3:2,0:0:0:0:
199,217,101108,1,2,3:2:0:0:
199,217,101457,2,0,B|124:243|124:243|43:243,1,160,2|2,1:2|0:2,0:0:0:0:
106,135,101980,1,0,0:0:0:0:
302,288,102154,70,0,P|324:213|298:139,1,160,2|0,3:2|3:0,0:0:0:0:
166,31,102677,2,0,B|191:63|191:63|203:101,1,80,0|0,0:0|1:0,0:0:0:0:
39,93,103026,2,0,B|77:108|77:108|105:134,1,80,2|0,0:2|0:0,0:0:0:0:
189,341,103375,1,0,0:0:0:0:
302,288,103549,2,0,P|248:231|170:216,1,160,2|0,3:2|3:0,0:0:0:0:
111,294,104072,1,0,0:0:0:0:
368,211,104247,2,0,P|394:285|372:360,1,160,0|2,1:0|0:2,0:0:0:0:
372,360,104944,6,0,P|345:285|367:210,1,160,2|0,3:2|3:0,0:0:0:0:
448,113,105467,1,0,0:0:0:0:
400,204,105642,1,0,1:0:0:0:
459,276,105816,1,2,0:2:0:0:
434,84,105991,2,0,P|395:83|356:93,1,80,2|2,0:2|3:2,0:0:0:0:
353,283,106339,2,0,P|391:292|431:291,1,80,2|2,0:2|3:2,0:0:0:0:
303,188,106688,70,0,B|260:161|260:161|185:165|115:208,2,200,2|2|2,3:2|1:2|0:2,0:0:0:0:
303,188,107734,1,2,3:2:0:0:
60,53,108083,1,0,3:0:0:0:
65,330,108432,1,0,1:0:0:0:
65,330,108781,1,2,0:2:0:0:
63,250,108955,1,0,0:0:0:0:
133,288,109129,1,0,3:0:0:0:
148,298,109478,1,2,3:3:0:0:
161,306,109827,2,0,L|240:314,1,80,2|2,1:3|0:2,0:0:0:0:
240,314,110524,6,0,L|161:322,1,80,2|0,3:2|0:0,0:0:0:0:
220,188,110885,2,0,L|299:196,1,80,2|0,3:2|0:0,0:0:0:0:
358,62,111246,2,0,L|279:70,1,80,2|2,1:2|0:2,0:0:0:0:
390,307,111588,2,0,B|408:275|408:275|398:152,1,160,4|0,0:2|0:0,0:0:0:0:
398,152,112618,54,0,L|405:223,1,60,0|0,3:0|0:0,0:0:0:0:
492,224,113315,38,0,B|440:231|440:231|402:266|402:266|337:278,1,160,6|0,3:2|3:0,0:0:0:0:
125,353,114012,2,0,B|98:326|102:278|102:278|137:255|144:213,1,160,0|2,1:0|0:3,0:0:0:0:
260,33,114709,2,0,B|229:82|235:140|235:140|275:180,1,160,2|2,3:2|3:2,0:0:0:0:
357,185,115233,1,2,0:2:0:0:
326,102,115407,1,0,1:0:0:0:
54,130,115756,2,0,L|147:118,1,80,2|0,0:2|0:0,0:0:0:0:
436,319,116104,6,0,P|358:318|303:262,1,160,2|0,3:2|3:0,0:0:0:0:
217,192,116628,1,2,0:2:0:0:
132,342,116802,2,0,L|210:324,2,80,0|0|2,1:0|0:0|0:3,0:0:0:0:
303,262,117325,1,2,0:3:0:0:
307,366,117499,1,0,3:0:0:0:
280,364,117848,1,2,3:2:0:0:
303,262,118023,1,2,0:2:0:0:
326,161,118197,2,0,L|344:83,1,80,0|0,1:0|0:0,0:0:0:0:
498,132,118546,2,0,B|458:141|458:141|418:138,1,80,2|0,0:2|0:0,0:0:0:0:
115,53,118894,70,0,P|192:48|250:100,1,160,2|2,3:2|3:2,0:0:0:0:
159,139,119418,1,2,0:2:0:0:
344,83,119592,1,0,1:0:0:0:
344,83,119941,2,0,L|326:161,1,80,2|2,0:3|0:3,0:0:0:0:
409,359,120289,2,0,P|364:279|299:262,2,160,0|0|0,3:0|3:0|1:0,0:0:0:0:
409,359,121336,1,2,0:2:0:0:
314,355,121510,1,0,0:0:0:0:
229,310,121684,6,0,L|389:336,1,160,2|0,3:2|3:2,0:0:0:0:
201,227,122208,1,2,0:2:0:0:
171,142,122382,2,0,P|108:96|29:88,1,160,0|2,1:0|0:3,0:0:0:0:
201,0,122905,2,0,B|219:36|219:36|231:109,1,80,2|0,0:3|3:0,0:0:0:0:
201,227,123254,1,0,1:0:0:0:
141,62,123428,1,0,3:0:0:0:
141,62,123777,2,0,L|152:144,1,80,2|0,1:1|0:0,0:0:0:0:
310,192,124126,2,0,B|323:155|323:155|321:113,1,80,2|2,0:3|0:3,0:0:0:0:
112,302,124474,70,0,B|78:300|78:300|41:251|39:181,1,160,2|0,3:2|3:0,0:0:0:0:
203,239,124997,1,2,0:2:0:0:
352,301,125172,2,0,P|428:288|472:223,1,160,0|2,1:0|0:3,0:0:0:0:
439,131,125695,1,2,0:3:0:0:
377,205,125869,1,2,3:2:0:0:
114,34,126218,1,2,3:2:0:0:
352,4,126567,1,0,1:0:0:0:
138,234,126916,1,2,0:2:0:0:
503,24,127264,6,0,B|451:42|451:42|418:83|418:83|369:102,1,160,2|2,3:2|3:2,0:0:0:0:
477,199,127787,2,0,L|507:125,1,80,2|0,0:2|1:0,0:0:0:0:
507,124,128311,1,2,0:3:0:0:
448,274,128485,1,2,0:3:0:0:
301,214,128659,2,0,L|375:243,1,80,0|0,3:0|0:0,0:0:0:0:
218,245,129008,1,2,3:2:0:0:
347,108,129182,1,2,0:2:0:0:
274,137,129357,2,0,L|200:167,1,80,0|2,1:0|0:2,0:0:0:0:
422,64,129706,2,0,B|432:104|432:104|426:142,1,80,2|0,0:2|0:0,0:0:0:0:
241,328,130054,70,0,P|273:256|344:223,1,160,2|0,3:2|3:0,0:0:0:0:
440,242,130577,1,2,0:2:0:0:
312,32,130752,1,0,1:0:0:0:
312,32,131101,1,2,0:3:0:0:
347,108,131275,1,2,0:3:0:0:
337,189,131449,2,0,P|304:209|262:218,1,80,0|0,3:0|0:0,0:0:0:0:
184,166,131798,2,0,P|151:146|109:136,1,80,0|0,3:0|0:0,0:0:0:0:
219,376,132147,2,0,B|209:340|209:340|214:296,1,80,0|0,1:0|0:0,0:0:0:0:
72,68,132496,2,0,L|56:186,1,120,2|0,0:2|0:0,0:0:0:0:
55,186,132844,5,2,3:2:0:0:
38,292,133019,1,0,0:0:0:0:
111,136,133193,1,0,3:0:0:0:
150,242,133367,1,2,0:2:0:0:
189,348,133542,2,0,L|278:333,2,80,0|0|2,1:0|0:0|0:3,0:0:0:0:
189,348,134239,1,0,3:0:0:0:
364,317,134414,2,0,P|381:281|390:242,1,80,0|2,1:0|3:2,0:0:0:0:
305,249,134762,1,2,3:2:0:0:
130,218,134937,2,0,P|112:182|103:143,1,80,2|2,1:2|0:2,0:0:0:0:
207,300,135285,1,0,1:0:0:0:
353,138,135460,1,0,1:0:0:0:
32,59,135634,6,0,B|3:134|3:134|19:211,1,160,6|0,3:2|3:0,0:0:0:0:
18,211,136332,2,0,P|70:269|81:348,1,160,0|2,1:0|0:3,0:0:0:0:
103,143,136855,1,2,0:3:0:0:
232,273,137029,2,0,P|194:260|161:238,1,80,2|0,3:2|0:0,0:0:0:0:
10,382,137378,2,0,P|47:369|80:347,1,80,2|2,3:2|0:2,0:0:0:0:
18,211,137727,1,0,1:0:0:0:
180,312,137901,1,0,0:0:0:0:
2,350,138075,1,2,0:2:0:0:
208,291,138250,1,0,0:0:0:0:
84,267,138424,6,0,P|77:233|118:115,1,160,2|0,3:2|3:0,0:0:0:0:
320,351,139122,2,0,L|151:297,1,160,0|2,1:0|0:3,0:0:0:0:
84,267,139645,1,2,0:3:0:0:
327,264,139819,2,0,B|362:242|362:242|385:197|372:125,1,160,0|2,3:0|3:2,0:0:0:0:
329,52,140342,1,2,0:2:0:0:
209,188,140517,2,0,L|288:178,1,80,0|0,1:0|0:0,0:0:0:0:
498,42,140865,2,0,L|418:51,1,80,2|0,0:2|0:0,0:0:0:0:
404,286,141214,69,2,3:2:0:0:
478,308,141389,2,0,P|486:229|453:158,2,160,0|2|0,0:0|0:2|0:0,0:0:0:0:
172,274,142260,2,0,L|331:254,1,160,2|0,0:3|3:0,0:0:0:0:
331,254,142958,1,0,3:0:0:0:
492,32,143307,1,0,1:0:0:0:
492,32,143655,2,0,L|481:131,1,80,2|0,0:2|0:0,0:0:0:0:
197,55,144004,6,0,P|274:71|342:114,1,160,2|0,3:2|3:2,0:0:0:0:
391,24,144527,1,2,0:2:0:0:
208,144,144702,2,0,P|171:74|112:21,1,160,2|2,1:2|0:3,0:0:0:0:
75,100,145225,1,2,0:3:0:0:
295,196,145399,1,0,3:0:0:0:
295,196,145748,2,0,L|279:77,1,80,0|0,3:0|0:0,0:0:0:0:
391,24,146097,2,0,L|380:103,2,80,0|0|2,1:0|0:0|0:2,0:0:0:0:
391,24,146794,69,2,3:2:0:0:
441,166,146968,2,0,L|348:175,1,80,0|0,0:0|3:0,0:0:0:0:
332,160,147317,2,0,L|239:169,1,80,2|0,0:2|1:0,0:0:0:0:
227,148,147666,2,0,L|134:157,1,80,0|2,0:0|0:3,0:0:0:0:
122,136,148015,1,2,0:3:0:0:
61,365,148189,2,0,P|123:316|161:246,1,160,2|2,3:2|3:2,0:0:0:0:
192,368,148712,1,2,0:2:0:0:
83,215,148887,1,0,1:0:0:0:
245,243,149061,1,0,0:0:0:0:
56,229,149235,1,2,0:2:0:0:
223,349,149410,1,0,0:0:0:0:
335,307,149584,6,0,P|353:220|317:156,1,160,2|2,3:2|3:2,0:0:0:0:
512,0,150282,2,0,L|489:114,2,80,0|0|2,1:0|0:0|0:3,0:0:0:0:
480,156,150805,1,2,0:3:0:0:
379,48,150979,1,0,3:0:0:0:
379,48,151328,2,0,L|402:172,1,120,2|0,3:2|0:0,0:0:0:0:
400,165,151677,2,0,P|364:182|324:185,1,80,0|2,1:0|0:2,0:0:0:0:
248,22,152025,2,0,B|262:58|262:58|289:88,1,80,2|0,0:2|0:0,0:0:0:0:
511,185,152374,70,0,P|488:109|425:63,1,160,2|0,3:2|3:0,0:0:0:0:
290,88,152897,1,2,0:2:0:0:
171,185,153072,2,0,B|217:206|217:206|324:185,1,160,0|2,1:0|0:3,0:0:0:0:
195,91,153595,1,2,0:3:0:0:
362,281,153769,1,0,3:0:0:0:
362,281,154118,1,0,3:0:0:0:
39,32,154467,1,0,1:0:0:0:
39,32,154815,2,0,L|50:125,1,80,2|0,0:2|0:0,0:0:0:0:
39,334,155164,6,0,B|62:301|62:301|70:262,1,80,2|0,3:2|0:0,0:0:0:0:
217,107,155513,2,0,B|208:145|208:145|185:178,1,80,2|2,3:2|0:2,0:0:0:0:
169,273,155862,1,0,1:0:0:0:
79,142,156036,1,0,0:0:0:0:
194,292,156210,2,0,P|233:300|272:299,1,80,2|0,0:2|0:0,0:0:0:0:
246,215,156559,1,0,3:0:0:0:
39,355,156733,1,0,1:0:0:0:
101,225,156908,1,4,3:2:0:0:
101,225,157256,6,0,P|195:249|116:301,1,240.000009155274,2|4,1:2|0:2,0:0:0:0:
118,302,157954,54,0,P|125:214|170:158,1,160,6|0,3:2|3:0,0:0:0:0:
279,211,158477,1,2,0:2:0:0:
324,18,158651,2,0,L|318:97,1,80,0|0,1:0|0:0,0:0:0:0:
167,159,159000,1,2,0:3:0:0:
147,62,159175,2,0,B|188:67|188:67|223:83,2,80,2|2|0,0:3|3:2|0:0,0:0:0:0:
259,287,159698,2,0,B|262:249|262:249|278:210,1,80,2|2,3:2|0:2,0:0:0:0:
479,143,160046,2,0,L|385:151,1,80,0|0,1:0|0:0,0:0:0:0:
81,262,160395,2,0,L|175:254,1,80,2|0,0:2|0:0,0:0:0:0:
487,324,160744,6,0,P|419:283|341:270,1,160,2|0,3:2|3:0,0:0:0:0:
271,323,161267,1,2,0:2:0:0:
301,196,161441,1,0,1:0:0:0:
255,341,161616,1,0,0:0:0:0:
225,214,161790,2,0,L|173:123,1,80,2|2,0:3|0:3,0:0:0:0:
79,293,162139,2,0,B|118:297|118:297|158:290,1,80,0|0,3:0|0:0,0:0:0:0:
304,272,162488,1,2,3:2:0:0:
226,245,162662,1,2,0:2:0:0:
127,210,162836,1,0,1:0:0:0:
269,121,163011,1,0,0:0:0:0:
188,64,163185,2,0,P|188:104|185:144,1,80,2|0,0:2|0:0,0:0:0:0:
258,203,163534,70,0,P|271:125|269:45,1,160,2|2,3:2|3:2,0:0:0:0:
188,64,164057,1,2,0:2:0:0:
327,262,164231,2,0,B|353:262|353:262|408:240|424:153,1,160,0|2,1:0|0:3,0:0:0:0:
254,316,164755,1,2,0:3:0:0:
175,372,164929,2,0,P|125:339|97:242,1,160,0|0,3:0|3:0,0:0:0:0:
96,246,165626,2,0,L|205:241,1,80,0|0,1:0|0:0,0:0:0:0:
424,254,165975,1,2,0:2:0:0:
424,254,166324,6,0,P|347:223|292:157,1,160,2|0,3:2|3:2,0:0:0:0:
244,69,166847,1,2,0:2:0:0:
0,128,167021,2,0,L|162:141,1,160,0|2,1:0|0:3,0:0:0:0:
225,185,167544,1,2,0:3:0:0:
47,298,167719,5,2,3:1:0:0:
69,223,167893,1,2,0:1:0:0:
204,291,168068,2,0,P|201:313|192:330,1,40,0|0,3:0|0:0,0:0:0:0:
281,297,168416,5,2,1:1:0:0:
258,371,168591,1,2,0:1:0:0:
124,304,168765,2,0,P|126:281|135:264,1,40,2|2,0:2|2:1,0:0:0:0:
168,138,169114,70,1,L|9:121,1,160,2|0,3:2|3:0,0:0:0:0:
225,224,169637,1,2,0:2:0:0:
69,223,169811,2,1,P|74:263|88:301,2,80,0|0|2,1:0|0:0|0:3,0:0:0:0:
224,60,170334,2,1,P|245:137|234:216,1,160,2|0,0:3|0:0,0:0:0:0:
64,79,170858,2,1,L|72:0,1,80,2|2,3:2|0:2,0:0:0:0:
234,215,171206,2,1,P|312:202|389:221,1,160,0|2,1:0|0:2,0:0:0:0:
462,314,171729,1,0,0:0:0:0:
486,76,171904,102,1,P|466:111|453:148,1,80,2|0,3:2|0:0,0:0:0:0:
367,340,172253,2,1,P|372:300|366:260,1,80,2|2,3:2|0:2,0:0:0:0:
206,145,172601,2,1,P|179:219|194:296,2,160,0|2|0,1:0|0:3|3:0,0:0:0:0:
206,145,173648,2,0,L|223:239,1,80,2|2,3:2|0:2,0:0:0:0:
436,170,173996,2,0,L|357:155,1,80,0|0,1:0|0:0,0:0:0:0:
84,323,174345,2,0,L|163:308,1,80,2|0,0:2|0:0,0:0:0:0:
458,322,174694,70,0,P|380:307|324:252,1,160,2|0,3:2|3:0,0:0:0:0:
220,223,175217,1,2,0:2:0:0:
163,309,175391,2,0,L|84:294,1,80,0|0,1:0|0:0,0:0:0:0:
257,311,175740,1,2,0:2:0:0:
220,223,175914,1,0,0:0:0:0:
315,384,176089,2,0,L|394:369,1,80,0|0,3:0|0:0,0:0:0:0:
437,126,176438,2,0,B|421:206|421:206|438:283,1,160,0|0,3:0|1:0,0:0:0:0:
385,58,176961,2,0,P|418:45|463:43,2,80,2|2|0,0:2|0:2|0:0,0:0:0:0:
164,95,177484,54,0,P|242:80|298:25,1,160,4|0,3:1|1:0,0:0:0:0:
297,25,178530,5,0,0:2:0:0:
50,355,178879,1,2,3:2:0:0:
78,118,179053,1,0,1:0:0:0:
268,261,179227,1,8,3:3:0:0:
267,261,179576,6,0,P|228:259|190:246,1,80,2|0,1:2|0:0,0:0:0:0:
326,194,179925,1,0,1:0:0:0:
0,96,180099,1,0,1:0:0:0:
91,222,180274,22,0,P|171:217|239:177,1,160,4|0,3:2|3:0,0:0:0:0:
298,107,180797,1,0,0:0:0:0:
133,54,180971,2,0,P|167:74|205:90,1,80,0|2,1:0|0:2,0:0:0:0:
464,88,181320,2,0,P|426:103|392:123,1,80
269,357,181669,1,2,3:2:0:0:
356,33,182017,1,0,3:0:0:0:
230,178,182192,1,0,0:0:0:0:
461,258,182366,2,0,B|433:229|433:229|380:205,1,80,0|0,1:0|0:0,0:0:0:0:
197,177,182715,2,0,B|189:216|189:216|201:273,1,80,2|0,0:2|0:0,0:0:0:0:
293,99,183064,6,0,B|269:70|269:70|214:44|149:56,2,160,2|0|0,3:2|3:0|1:0,0:0:0:0:
170,140,183936,1,2,0:2:0:0:
318,128,184110,1,2,0:2:0:0:
80,119,184284,2,0,P|61:83|53:44,1,80,2|2,3:2|1:2,0:0:0:0:
238,25,184633,1,0,3:0:0:0:
250,222,184807,2,0,L|151:230,1,80,2|0,3:2|0:0,0:0:0:0:
12,336,185156,2,0,P|88:312|167:318,1,160,2|2,1:2|0:2,0:0:0:0:
244,372,185679,1,0,0:0:0:0:
181,70,185854,70,0,B|163:148|163:148|167:205,1,120,2|0,3:2|0:0,0:0:0:0:
170,217,186202,2,0,L|301:202,1,120,0|0,3:0|0:0,0:0:0:0:
320,199,186551,2,0,B|338:277|338:277|334:334,1,120,0|0,1:0|0:0,0:0:0:0:
329,348,186900,1,0,0:0:0:0:
424,246,187074,1,0,0:0:0:0:
499,319,187249,2,0,P|464:338|425:343,1,80,2|0,3:2|0:0,0:0:0:0:
253,288,187597,1,0,3:0:0:0:
413,371,187772,1,0,0:0:0:0:
436,215,187946,2,0,P|459:141|427:69,1,160,0|2,1:0|0:2,0:0:0:0:
343,255,188469,1,0,0:0:0:0:
188,143,188644,6,0,L|348:148,1,160,2|0,3:2|3:0,0:0:0:0:
427,69,189167,1,0,0:0:0:0:
465,289,189341,2,0,P|445:252|435:208,2,80,0|2|0,1:0|0:2|0:0,0:0:0:0:
379,147,189864,1,0,3:0:0:0:
512,42,190039,2,0,P|483:72|445:95,1,80,0|0,0:2|3:0,0:0:0:0:
146,202,190387,2,0,P|224:189|302:204,1,160,0|2,3:0|1:2,0:0:0:0:
302,204,191085,2,0,L|308:117,1,80,2|0,0:2|0:0,0:0:0:0:
512,303,191434,70,0,B|466:313|466:313|341:298,1,160,2|0,3:2|3:0,0:0:0:0:
412,204,191957,1,0,0:0:0:0:
200,363,192131,2,0,P|215:326|238:293,1,80,0|2,1:0|0:2,0:0:0:0:
353,299,192480,2,0,P|329:266|314:229,1,80
346,137,192829,1,2,3:2:0:0:
110,333,193177,1,0,3:0:0:0:
224,199,193352,1,0,0:0:0:0:
103,7,193526,2,0,B|89:46|89:46|89:84,1,80,0|0,1:0|0:0,0:0:0:0:
161,260,193875,2,0,B|149:220|149:220|126:189,1,80,2|0,0:2|0:0,0:0:0:0:
6,171,194224,6,0,L|189:112,1,160,2|0,3:2|3:0,0:0:0:0:
236,49,194747,1,0,0:0:0:0:
248,174,194921,1,0,1:0:0:0:
173,1,195095,1,2,0:2:0:0:
161,126,195270,1,2,0:2:0:0:
346,142,195444,2,0,P|382:101|390:-8,1,160,2|0,3:2|3:0,0:0:0:0:
258,76,195967,1,2,3:2:0:0:
177,151,196142,2,0,P|165:188|167:228,1,80,0|2,0:0|1:2,0:0:0:0:
167,228,196665,2,0,P|168:188|156:150,1,80,2|0,0:2|0:0,0:0:0:0:
12,7,197014,70,0,B|36:36|36:36|91:62|156:50,1,160,4|0,3:1|3:0,0:0:0:0:
258,76,197537,1,0,0:0:0:0:
3,204,197711,2,0,P|25:170|57:147,2,80,0|0|2,1:0|0:0|0:2,0:0:0:0:
3,204,198409,2,0,L|90:223,1,80,0|0,3:0|0:0,0:0:0:0:
420,240,198757,2,0,L|333:221,1,80,2|0,3:3|0:0,0:0:0:0:
228,363,199106,2,0,P|233:284|214:207,1,160,2|2,1:3|0:2,0:0:0:0:
213,206,199803,22,0,L|232:119,1,80,2|0,3:2|3:0,0:0:0:0:
131,147,200327,1,0,0:0:0:0:
291,346,200501,38,0,P|276:308|274:269,1,70.000000667572,0|2,1:0|0:2,0:0:0:0:
446,256,200850,1,0,0:0:0:0:
290,238,201024,1,2,3:2:0:0:
388,342,201198,1,2,0:2:0:0:
404,160,201373,1,0,1:0:0:0:
411,361,201547,2,0,L|515:362,1,100,6|0,3:2|0:0,0:0:0:0:
446,256,201896,1,10,1:2:0:0:
307,201,202070,1,0,1:0:0:0:
160,223,202245,1,4,0:3:0:0:
159,222,202593,6,0,P|109:162|104:83,1,160,4|0,3:2|3:0,0:0:0:0:
246,275,203117,1,0,0:0:0:0:
335,323,203291,2,0,P|365:298|386:264,1,80,0|2,1:0|0:2,0:0:0:0:
367,40,203640,2,0,P|357:78|360:118,1,80
454,174,203988,1,2,3:2:0:0:
213,121,204337,1,0,3:0:0:0:
318,219,204512,1,0,0:0:0:0:
339,25,204686,2,0,B|323:61|323:61|316:101,1,80,0|0,1:0|0:0,0:0:0:0:
462,274,205035,2,0,B|453:235|453:235|435:199,1,80,2|0,0:2|0:0,0:0:0:0:
509,88,205383,6,0,L|430:96,1,80,2|0,3:2|0:0,0:0:0:0:
161,25,205732,2,0,L|240:32,1,80,0|0,3:0|0:0,0:0:0:0:
305,299,206081,2,0,P|295:239|296:179,1,120,0|0,1:0|0:0,0:0:0:0:
295,179,206430,1,2,0:2:0:0:
44,149,206604,2,0,L|208:128,1,160,2|0,3:2|0:0,0:0:0:0:
39,24,207127,1,0,3:1:0:0:
394,217,207476,1,2,1:2:0:0:
394,217,207825,2,0,P|354:219|306:238,1,80,2|0,0:2|0:0,0:0:0:0:
124,379,208173,70,0,L|135:199,1,160,2|0,3:2|3:0,0:0:0:0:
229,306,208697,1,0,0:0:0:0:
298,126,208871,2,0,P|261:142|232:169,1,80,0|2,1:0|0:2,0:0:0:0:
74,71,209220,2,0,P|103:98|139:114,1,80
227,45,209568,1,2,3:2:0:0:
140,304,209917,1,0,3:0:0:0:
233,373,210092,1,0,0:0:0:0:
354,358,210266,2,0,P|364:320|361:280,1,80,0|0,1:0|0:0,0:0:0:0:
232,169,210615,2,0,P|246:206|272:236,1,80,2|0,0:2|0:0,0:0:0:0:
512,120,210963,6,0,B|481:113|481:113|419:122|379:185,1,160,2|0,3:2|3:0,0:0:0:0:
187,97,211661,1,0,1:0:0:0:
115,120,211835,2,0,L|101:22,1,80,2|0,0:2|0:0,0:0:0:0:
89,234,212184,1,0,3:0:0:0:
161,257,212358,2,0,L|175:159,1,80,2|2,0:2|3:2,0:0:0:0:
0,310,212707,1,2,3:2:0:0:
0,310,213056,2,0,P|115:337|170:378,1,160,2|2,1:2|0:2,0:0:0:0:
247,207,213579,1,0,0:0:0:0:
411,293,213753,70,0,B|336:319|336:319|255:319,1,160,2|0,3:2|3:0,0:0:0:0:
159,257,214276,1,0,0:0:0:0:
512,343,214451,2,0,P|516:264|473:198,1,160,0|0,1:0|0:0,0:0:0:0:
293,142,214974,2,0,B|322:168|322:168|358:187,1,80,0|2,0:0|3:2,0:0:0:0:
343,11,215323,2,0,B|355:48|355:48|376:82,1,80,0|0,0:0|3:0,0:0:0:0:
410,269,215671,1,0,0:0:0:0:
237,43,215846,2,0,P|188:108|188:186,1,160,0|2,1:0|0:2,0:0:0:0:
293,142,216369,1,0,0:0:0:0:
376,82,216543,6,0,L|452:104,1,80,2|0,3:2|0:0,0:0:0:0:
186,183,216892,2,0,L|109:205,1,80,0|0,3:0|0:0,0:0:0:0:
226,22,217241,1,2,1:2:0:0:
226,22,217328,1,0,0:0:0:0:
226,22,217415,1,2,0:2:0:0:
316,188,217590,1,2,0:2:0:0:
316,188,217677,1,0,0:0:0:0:
316,188,217764,2,0,P|330:266|331:346,1,160,0|0,3:1|3:1,0:0:0:0:
157,242,218287,2,0,P|171:208|189:251,1,106.666666666667,2|0,3:2|0:0,0:0:0:0:
159,316,218636,2,0,L|140:404,1,70.000000667572,2|0,1:2|0:0,0:0:0:0:
191,176,218897,1,2,0:2:0:0:
191,176,218985,2,0,L|207:97,1,70.000000667572,2|0,0:3|0:0,0:0:0:0:
315,26,219333,70,0,B|253:32|217:82|217:82|154:87|154:87|119:145|64:161,1,300,2|0,3:1|0:0,0:0:0:0:
302,148,220031,1,0,1:0:0:0:
302,148,220380,2,0,L|267:304,2,160,2|0|2,0:2|3:0|3:3,0:0:0:0:
302,148,221426,2,0,P|341:154|374:176,1,80,2|0,1:3|0:0,0:0:0:0:
512,75,221774,2,0,P|478:97|439:103,1,80,2|0,0:2|0:0,0:0:0:0:
203,132,222123,6,0,L|196:211,1,80,2|0,3:2|0:0,0:0:0:0:
301,323,222484,2,0,L|308:244,1,80,2|0,3:2|0:0,0:0:0:0:
98,20,222845,2,0,L|91:99,2,80,2|2|4,1:2|0:2|0:2,0:0:0:0:
91,99,224216,38,0,L|96:161,1,60,0|0,3:0|0:0,0:0:0:0:
7,171,224913,54,0,B|59:178|59:178|97:213|97:213|162:225,1,160,6|0,3:2|3:0,0:0:0:0:
512,190,225610,2,0,B|463:159|405:165|405:165|365:205,1,160,0|2,1:0|0:3,0:0:0:0:
371,198,226307,1,2,3:2:0:0:
382,300,226482,1,0,0:0:0:0:
295,264,226656,1,2,3:2:0:0:
378,326,226831,1,2,0:2:0:0:
219,331,227005,2,0,P|247:298|281:275,1,80,0|0,1:0|0:0,0:0:0:0:
139,169,227354,2,0,P|171:192|197:222,1,80,2|0,0:2|0:0,0:0:0:0:
123,296,227702,5,2,3:2:0:0:
356,75,228051,1,0,3:0:0:0:
123,296,228400,2,0,P|84:305|28:300,1,80,0|0,1:0|0:0,0:0:0:0:
283,188,228749,2,0,P|322:197|378:192,1,80,2|2,0:3|0:3,0:0:0:0:
409,271,229097,1,0,3:0:0:0:
176,50,229446,1,2,3:2:0:0:
409,271,229795,1,0,1:0:0:0:
409,271,230144,2,0,P|362:232|357:156,1,120,2|0,0:2|0:0,0:0:0:0:
398,84,230492,102,0,P|396:124|383:162,1,80,2|0,3:2|0:0,0:0:0:0:
268,287,230841,2,0,P|254:249|252:209,1,80,2|2,3:2|0:2,0:0:0:0:
20,67,231190,2,0,P|99:75|173:107,1,160,0|2,1:0|0:3,0:0:0:0:
172,106,231887,2,0,P|98:137|19:145,1,160,0|0,3:0|3:0,0:0:0:0:
127,219,232411,1,0,0:0:0:0:
0,294,232585,2,0,P|27:265|46:230,1,80,0|0,1:0|0:0,0:0:0:0:
220,180,232934,2,0,P|247:208|266:243,1,80,2|0,0:2|0:0,0:0:0:0:
43,388,233282,6,0,P|107:340|182:313,1,160,2|0,3:2|3:2,0:0:0:0:
283,273,233806,1,2,0:2:0:0:
408,104,233980,2,0,L|400:273,1,160,0|2,1:0|0:3,0:0:0:0:
400,263,234677,1,0,3:0:0:0:
261,160,234852,1,0,1:0:0:0:
295,334,235026,2,0,P|296:294|288:256,1,80,0|0,3:0|0:0,0:0:0:0:
495,79,235375,1,2,1:2:0:0:
356,182,235549,1,0,0:0:0:0:
391,7,235724,2,0,P|392:46|383:85,1,80,2|2,0:3|0:3,0:0:0:0:
143,42,236072,38,0,B|220:24|220:24|300:35,1,160,2|0,3:2|3:0,0:0:0:0:
304,124,236595,1,2,0:2:0:0:
99,151,236770,2,0,P|56:113|32:8,1,160,0|2,1:0|0:3,0:0:0:0:
159,68,237293,1,2,0:3:0:0:
204,160,237467,1,2,3:2:0:0:
167,263,237642,1,0,0:0:0:0:
236,131,237816,1,2,3:2:0:0:
273,234,237990,1,2,0:2:0:0:
310,337,238165,2,0,P|353:299|377:194,1,160,0|2,1:0|0:2,0:0:0:0:
379,202,238862,6,0,L|426:290,1,80,2|0,3:2|0:0,0:0:0:0:
345,94,239211,1,2,3:2:0:0:
434,123,239385,1,2,0:2:0:0:
345,310,239560,2,0,L|298:398,1,80,0|0,1:0|0:0,0:0:0:0:
379,202,239909,1,2,0:3:0:0:
290,231,240083,1,2,0:3:0:0:
221,155,240257,2,0,B|237:120|237:120|273:70,1,80,0|0,3:0|0:0,0:0:0:0:
361,4,240606,2,0,B|368:41|368:41|368:103,1,80,2|2,3:2|0:2,0:0:0:0:
39,153,240955,2,0,P|80:111|139:108,1,120,0|0,1:0|0:0,0:0:0:0:
139,197,241304,2,0,P|80:193|38:152,1,120,2|0,0:2|0:0,0:0:0:0:
221,155,241652,102,0,L|203:337,2,160,2|0|0,3:2|3:0|1:0,0:0:0:0:
221,155,242699,1,2,0:3:0:0:
437,40,243047,1,0,3:0:0:0:
437,40,243396,2,0,L|429:119,1,80,0|0,3:0|0:0,0:0:0:0:
165,62,243745,2,0,P|244:67|315:102,1,160,0|2,1:0|0:2,0:0:0:0:
358,202,244268,1,0,0:0:0:0:
407,381,244442,6,0,P|364:314|293:280,1,160,2|0,3:2|3:0,0:0:0:0:
238,184,244965,1,2,0:2:0:0:
77,315,245140,1,0,1:0:0:0:
182,283,245314,1,0,0:0:0:0:
182,283,245663,1,2,0:3:0:0:
48,328,245837,1,0,3:0:0:0:
213,292,246012,2,0,P|226:254|225:214,1,80,0|2,1:0|3:2,0:0:0:0:
225,214,246535,2,0,P|211:176|212:136,1,80,2|2,1:2|0:2,0:0:0:0:
73,45,246883,1,0,1:0:0:0:
296,161,247058,1,0,1:0:0:0:
13,160,247232,38,0,L|92:163,1,80,6|0,3:2|0:0,0:0:0:0:
170,218,247581,2,0,P|183:180|182:140,1,80,0|2,3:0|0:2,0:0:0:0:
435,270,247930,2,0,L|355:273,1,80,0|0,1:0|0:0,0:0:0:0:
278,328,248278,2,0,P|264:290|265:250,1,80,2|2,0:3|0:3,0:0:0:0:
111,68,248627,1,2,3:2:0:0:
111,68,248976,2,0,L|193:95,1,80,2|2,3:2|0:2,0:0:0:0:
433,102,249325,2,0,P|354:105|287:147,1,160,0|2,1:0|0:2,0:0:0:0:
286,147,250022,6,1,P|249:130|200:74,1,80,2|0,3:2|0:0,0:0:0:0:
210,293,250371,2,1,P|243:281|296:238,1,80,0|2,3:0|0:2,0:0:0:0:
114,195,250720,2,1,P|58:236|57:348,1,160,0|2,1:0|0:3,0:0:0:0:
53,109,251243,2,1,P|127:92|212:154,1,160,2|0,0:3|0:0,0:0:0:0:
274,278,251766,2,1,P|243:260|203:222,1,80,2|2,3:2|0:2,0:0:0:0:
36,219,252115,2,1,P|75:241|141:251,1,80,0|0,1:0|0:0,0:0:0:0:
211,233,252463,1,2,0:2:0:0:
196,128,252638,1,0,0:0:0:0:
109,249,252812,102,1,L|72:356,1,80,2|0,3:2|0:0,0:0:0:0:
259,381,253161,2,1,L|286:296,1,80,2|2,3:2|0:2,0:0:0:0:
290,154,253510,2,1,P|327:226|405:254,1,160,0|2,1:0|0:3,0:0:0:0:
395,149,254033,1,2,0:3:0:0:
290,154,254207,2,1,P|264:179|237:235,1,80,0|0,3:0|0:0,0:0:0:0:
112,287,254556,2,1,P|129:250|137:197,1,80,0|0,3:0|0:0,0:0:0:0:
64,139,254905,2,1,P|143:171|191:109,1,160,0|2,1:0|0:2,0:0:0:0:
79,27,255428,1,0,0:0:0:0:
209,210,255602,5,2,3:2:0:0:
153,286,255777,2,0,P|74:279|6:239,1,160,2|2,0:2|0:2,0:0:0:0:
295,251,256300,2,0,P|306:288|304:328,1,80,0|0,1:0|0:0,0:0:0:0:
188,124,256648,2,0,P|200:86|225:55,1,80,2|2,0:3|0:3,0:0:0:0:
512,145,256997,2,0,L|420:154,1,80,0|0,3:0|1:0,0:0:0:0:
374,243,257346,2,0,L|282:252,1,80,0|0,3:0|0:0,0:0:0:0:
432,385,257695,2,0,P|473:317|472:238,1,160,2|2,1:2|0:3,0:0:0:0:
323,142,258218,1,2,0:3:0:0:
443,74,258392,38,0,P|441:114|431:153,1,80,2|0,3:2|0:0,0:0:0:0:
265,88,258741,2,0,P|237:60|203:39,1,80,0|2,3:0|0:2,0:0:0:0:
52,229,259090,2,0,P|87:210|126:200,2,80,0|0|2,1:0|0:0|0:3,0:0:0:0:
235,194,259613,1,2,0:3:0:0:
22,25,259787,2,0,P|56:46|84:74,1,80,2|0,3:2|0:0,0:0:0:0:
114,179,260136,2,0,P|80:200|52:228,1,80,2|2,3:2|0:2,0:0:0:0:
200,382,260485,2,0,B|175:346|175:346|165:244,1,120,0|0,1:0|0:0,0:0:0:0:
167,270,260833,2,0,L|256:278,1,80,2|0,0:2|0:0,0:0:0:0:
326,284,261182,5,2,3:2:0:0:
203,39,261531,1,2,3:2:0:0:
203,39,261880,2,0,L|211:128,1,80,0|0,1:0|0:0,0:0:0:0:
45,312,262228,2,0,P|59:235|114:178,1,160,2|0,0:3|3:0,0:0:0:0:
459,39,262926,2,0,L|451:128,1,80,2|2,3:2|0:2,0:0:0:0:
328,311,263275,2,0,B|362:277|362:277|368:219|337:170,1,160,0|2,1:0|0:2,0:0:0:0:
247,235,263798,1,0,0:0:0:0:
0,310,263972,102,0,P|78:294|158:300,1,160,2|0,3:2|3:0,0:0:0:0:
238,384,264495,1,2,0:2:0:0:
252,155,264670,2,0,L|247:235,1,80,0|0,1:0|0:0,0:0:0:0:
409,384,265018,2,0,L|414:304,1,80,2|2,0:3|0:3,0:0:0:0:
426,161,265367,2,0,B|389:174|389:174|358:200,1,80,0|0,3:0|0:0,0:0:0:0:
281,384,265716,2,0,B|303:352|303:352|313:312,1,80,0|0,3:0|0:0,0:0:0:0:
351,102,266065,2,0,P|429:120|508:112,1,160,0|2,1:0|0:2,0:0:0:0:
485,24,266588,1,0,0:0:0:0:
271,156,266762,6,0,P|258:79|304:16,1,160,2|0,3:2|3:0,0:0:0:0:
350,102,267285,1,2,0:2:0:0:
239,248,267460,2,0,B|119:260|119:260|157:226,1,160,0|2,1:0|0:3,0:0:0:0:
353,220,267983,1,2,0:3:0:0:
270,155,268157,1,0,3:0:0:0:
271,260,268331,1,0,1:0:0:0:
272,365,268506,1,2,3:2:0:0:
272,365,268854,2,0,L|352:357,1,80,2|2,1:2|0:2,0:0:0:0:
132,322,269203,2,0,L|13:310,1,120,0|0,1:0|0:0,0:0:0:0:
13,310,269552,38,0,P|80:292|148:233,1,160,6|0,3:2|3:0,0:0:0:0:
238,167,270075,1,2,0:2:0:0:
413,242,270249,2,0,P|374:241|316:222,2,80,0|0|2,1:0|0:0|0:3,0:0:0:0:
229,292,270773,1,2,0:3:0:0:
312,161,270947,2,0,L|321:78,1,80,2|0,3:2|0:0,0:0:0:0:
403,212,271296,1,2,3:2:0:0:
320,81,271470,2,0,L|311:-2,1,80,2|0,0:2|1:0,0:0:0:0:
311,1,271993,2,0,L|302:81,1,80,2|0,0:2|0:0,0:0:0:0:
283,194,272342,6,0,P|348:185|447:235,1,160,2|0,3:2|3:0,0:0:0:0:
484,321,272865,1,2,0:2:0:0:
362,232,273039,2,0,P|357:192|360:153,1,80,0|0,1:0|0:0,0:0:0:0:
245,270,273388,2,0,B|219:301|219:301|203:338,1,80,2|2,0:3|0:3,0:0:0:0:
167,137,273737,2,0,B|129:123|129:123|97:99,1,80,0|0,3:0|0:0,0:0:0:0:
271,111,274086,2,0,B|245:80|245:80|229:43,1,80,2|2,3:2|0:2,0:0:0:0:
35,311,274434,2,0,B|50:278|50:278|94:235|160:226,1,160,0|2,1:0|0:2,0:0:0:0:
167,137,274958,1,0,0:0:0:0:
136,326,275132,101,2,3:2:0:0:
376,58,275481,1,2,3:2:0:0:
376,58,275829,2,0,B|340:80|340:80|308:123,1,80,0|0,1:0|0:0,0:0:0:0:
88,144,276178,2,0,B|130:147|130:147|182:131,1,80,2|2,0:3|0:3,0:0:0:0:
509,257,276527,2,0,P|432:208|408:143,2,160,0|0|0,3:0|3:0|1:0,0:0:0:0:
509,257,277573,2,0,B|467:260|467:260|415:244,1,80,2|0,0:2|0:0,0:0:0:0:
56,148,277922,6,0,P|133:128|212:140,1,160,2|0,3:2|3:2,0:0:0:0:
130,37,278445,1,2,0:2:0:0:
392,154,278619,2,0,P|339:120|287:125,1,80,0|0,1:0|0:0,0:0:0:0:
66,243,278968,2,0,P|104:233|135:207,1,80,2|2,0:3|0:3,0:0:0:0:
0,94,279317,1,0,3:0:0:0:
233,159,279491,2,0,B|259:236|259:236|255:335,1,160,0|0,1:0|0:0,0:0:0:0:
164,377,280014,2,0,L|167:297,1,80,2|0,1:2|0:0,0:0:0:0:
314,125,280363,2,0,L|341:203,1,80,2|2,0:3|0:3,0:0:0:0:
37,113,280712,38,0,P|116:121|186:159,1,160,2|0,3:2|3:0,0:0:0:0:
252,247,281235,1,2,0:2:0:0:
438,74,281409,2,0,L|269:113,1,160,0|2,1:0|0:3,0:0:0:0:
282,109,282107,2,1,L|276:189,1,80,2|0,3:2|0:0,0:0:0:0:
371,251,282456,2,1,L|382:330,1,80,2|2,3:2|0:2,0:0:0:0:
187,255,282804,2,1,B|166:215|166:215|177:101,1,160,0|2,1:0|0:2,0:0:0:0:
292,0,283327,1,0,0:0:0:0:
415,47,283502,6,1,L|428:126,1,80,2|0,3:2|0:0,0:0:0:0:
275,188,283851,2,1,L|281:108,1,80,2|2,3:2|0:2,0:0:0:0:
256,305,284199,2,1,B|216:326|216:326|102:315,1,160,0|2,1:0|0:3,0:0:0:0:
102,315,284897,102,1,P|156:313|248:387,1,160,0|2,3:0|3:2,0:0:0:0:
315,352,285420,1,2,0:2:0:0:
172,222,285594,2,1,P|176:173|194:124,1,80,0|2,1:0|0:2,0:0:0:0:
363,95,285943,2,1,L|267:81,1,80,2|0,0:2|0:0,0:0:0:0:
2,97,286292,6,1,P|0:42|9:7,1,80,2|0,3:2|0:0,0:0:0:0:
185,143,286641,1,0,3:0:0:0:
105,69,286815,1,2,0:2:0:0:
237,6,286989,2,1,P|236:84|184:142,1,160,0|2,1:0|0:3,0:0:0:0:
105,69,287512,1,2,0:3:0:0:
291,174,287687,102,1,B|356:208|427:189|427:189|394:160,2,160,0|0|0,3:0|3:0|1:0,0:0:0:0:
291,175,288733,2,0,L|275:91,1,80,2|0,0:2|0:0,0:0:0:0:
256,0,289082,1,2,3:2:0:0:
