osu file format v14

[General]
AudioFilename: audio.mp3
AudioLeadIn: 0
PreviewTime: 46122
Countdown: 1
SampleSet: None
StackLeniency: 0.7
Mode: 0
LetterboxInBreaks: 0
WidescreenStoryboard: 1

[Editor]
DistanceSpacing: 1
BeatDivisor: 4
GridSize: 4
TimelineZoom: 1

[Metadata]
Title:Farlig Tiger
TitleUnicode:Farlig Tiger
Artist:Djames Braun
ArtistUnicode:Djämes Braun
Creator:Taoshi
Version:Insane
Source:
Tags:dansk danish Djames Braun farlig tiger
BeatmapID:1459169
BeatmapSetID:689286

[Difficulty]
HPDrainRate:6
CircleSize:4
OverallDifficulty:6
ApproachRate:6
SliderMultiplier:3.00000000596047
SliderTickRate:1

[Events]
//Background and Video events
//Break Periods
//Storyboard Layer 0 (Background)
//Storyboard Layer 1 (Fail)
//Storyboard Layer 2 (Pass)
//Storyboard Layer 3 (Foreground)
//Storyboard Sound Samples

[TimingPoints]
2080,638.297872340426,4,1,0,100,1,0

[HitObjects]
132,96,165,2,0,P|68:316|68:316,1,225.000000447035
232,144,1122,2,0,L|144:344,1,150.000000298024
224,212,1920,1,0,0:0:0:0:
296,192,2399,1,0,0:0:0:0:
292,164,2718,1,0,0:0:0:0:
216,124,3197,1,0,0:0:0:0:
120,160,3675,1,0,0:0:0:0:
160,224,3994,1,0,0:0:0:0:
264,192,4473,1,0,0:0:0:0:
272,188,4792,1,0,0:0:0:0:
292,176,4952,1,0,0:0:0:0:
348,136,5271,1,0,0:0:0:0:
328,260,5750,1,0,0:0:0:0:
156,224,6228,1,0,0:0:0:0:
176,116,6548,1,0,0:0:0:0:
360,148,7026,1,0,0:0:0:0:
336,252,7505,1,0,0:0:0:0:
124,240,7824,1,0,0:0:0:0:
112,84,8303,1,0,0:0:0:0:
340,164,8782,1,0,0:0:0:0:
312,312,9101,1,0,0:0:0:0:
92,256,9420,1,0,0:0:0:0:
128,96,9739,1,0,0:0:0:0:
344,108,10058,1,0,0:0:0:0:
320,292,10377,1,0,0:0:0:0:
148,244,10856,1,0,0:0:0:0:
148,120,11335,1,0,0:0:0:0:
352,116,11654,1,0,0:0:0:0:
400,244,11973,1,0,0:0:0:0:
176,256,12292,1,0,0:0:0:0:
40,248,12611,1,0,0:0:0:0:
132,104,12931,1,0,0:0:0:0:
352,152,13409,1,0,0:0:0:0:
288,308,13888,1,0,0:0:0:0:
148,264,14207,1,0,0:0:0:0:
144,160,14526,1,0,0:0:0:0:
200,96,14845,1,0,0:0:0:0:
344,108,15165,1,0,0:0:0:0:
364,248,15484,1,0,0:0:0:0:
156,276,15962,1,0,0:0:0:0:
100,172,16441,1,0,0:0:0:0:
256,132,16760,1,0,0:0:0:0:
392,172,17080,1,0,0:0:0:0:
384,272,17399,1,0,0:0:0:0:
228,296,17718,1,0,0:0:0:0:
88,260,18037,1,0,0:0:0:0:
96,160,18516,1,0,0:0:0:0:
228,72,18994,1,0,0:0:0:0:
384,128,19314,1,0,0:0:0:0:
396,232,19633,1,0,0:0:0:0:
296,308,19952,1,0,0:0:0:0:
152,304,20271,1,0,0:0:0:0:
68,200,20590,1,0,0:0:0:0:
144,116,20909,1,0,0:0:0:0:
280,104,21228,1,0,0:0:0:0:
408,148,21548,1,0,0:0:0:0:
408,248,21867,1,0,0:0:0:0:
304,300,22186,1,0,0:0:0:0:
144,252,22505,1,0,0:0:0:0:
164,176,22824,1,0,0:0:0:0:
268,176,23143,1,0,0:0:0:0:
268,176,23462,1,0,0:0:0:0:
268,176,23782,1,0,0:0:0:0:
268,176,24101,1,0,0:0:0:0:
268,176,24420,1,0,0:0:0:0:
268,176,24739,1,0,0:0:0:0:
268,176,25058,1,0,0:0:0:0:
380,212,25377,1,0,0:0:0:0:
332,308,25697,1,0,0:0:0:0:
180,280,26016,1,0,0:0:0:0:
160,152,26335,1,0,0:0:0:0:
312,116,26654,1,0,0:0:0:0:
408,192,26973,1,0,0:0:0:0:
348,272,27292,1,0,0:0:0:0:
180,256,27611,1,0,0:0:0:0:
72,208,27931,1,0,0:0:0:0:
128,132,28250,1,0,0:0:0:0:
220,112,28569,1,0,0:0:0:0:
356,120,28888,1,0,0:0:0:0:
432,132,29207,1,0,0:0:0:0:
388,264,29526,1,0,0:0:0:0:
252,316,29845,1,0,0:0:0:0:
140,296,30165,1,0,0:0:0:0:
76,264,30484,1,0,0:0:0:0:
104,180,30803,1,0,0:0:0:0:
208,152,31122,1,0,0:0:0:0:
316,164,31441,1,0,0:0:0:0:
296,272,31760,1,0,0:0:0:0:
172,256,32080,1,0,0:0:0:0:
208,192,32399,1,0,0:0:0:0:
328,156,32718,1,0,0:0:0:0:
408,192,33037,1,0,0:0:0:0:
352,292,33356,1,0,0:0:0:0:
176,300,33675,1,0,0:0:0:0:
80,268,33994,1,0,0:0:0:0:
96,188,34314,1,0,0:0:0:0:
132,108,34633,1,0,0:0:0:0:
204,60,34952,1,0,0:0:0:0:
352,52,35271,1,0,0:0:0:0:
384,176,35590,1,0,0:0:0:0:
344,296,35909,1,0,0:0:0:0:
216,96,36228,1,0,0:0:0:0:
188,260,36548,1,0,0:0:0:0:
112,128,36867,1,0,0:0:0:0:
64,264,37186,1,0,0:0:0:0:
256,144,37505,1,0,0:0:0:0:
120,84,37824,1,0,0:0:0:0:
228,236,38143,1,0,0:0:0:0:
304,144,38462,1,0,0:0:0:0:
92,224,38782,1,0,0:0:0:0:
324,284,39101,1,0,0:0:0:0:
132,128,39420,1,0,0:0:0:0:
412,176,39739,1,0,0:0:0:0:
128,296,40058,1,0,0:0:0:0:
384,320,40377,1,0,0:0:0:0:
120,192,40697,1,0,0:0:0:0:
352,112,41016,1,0,0:0:0:0:
140,244,41335,1,0,0:0:0:0:
352,280,41654,1,0,0:0:0:0:
168,116,41973,1,0,0:0:0:0:
200,288,42292,1,0,0:0:0:0:
356,164,42611,1,0,0:0:0:0:
124,176,42931,1,0,0:0:0:0:
140,300,43250,1,0,0:0:0:0:
360,272,43569,1,0,0:0:0:0:
164,128,43888,1,0,0:0:0:0:
132,288,44207,1,0,0:0:0:0:
336,252,44526,1,0,0:0:0:0:
224,104,44845,1,0,0:0:0:0:
108,276,45165,1,0,0:0:0:0:
340,272,45484,1,0,0:0:0:0:
292,116,45803,1,0,0:0:0:0:
72,176,46122,1,0,0:0:0:0:
144,304,46441,1,0,0:0:0:0:
328,260,46760,1,0,0:0:0:0:
312,104,47080,1,0,0:0:0:0:
124,156,47399,1,0,0:0:0:0:
136,268,47718,1,0,0:0:0:0:
320,268,48037,1,0,0:0:0:0:
328,104,48356,1,0,0:0:0:0:
120,120,48675,1,0,0:0:0:0:
128,280,48994,1,0,0:0:0:0:
320,280,49314,1,0,0:0:0:0:
364,112,49633,1,0,0:0:0:0:
152,104,49952,1,0,0:0:0:0:
176,288,50271,1,0,0:0:0:0:
328,276,50590,1,0,0:0:0:0:
344,136,50909,1,0,0:0:0:0:
136,128,51228,1,0,0:0:0:0:
160,284,51548,1,0,0:0:0:0:
308,304,51867,1,0,0:0:0:0:
336,152,52186,1,0,0:0:0:0:
184,140,52505,1,0,0:0:0:0:
176,264,52824,1,0,0:0:0:0:
316,292,53143,1,0,0:0:0:0:
344,132,53462,1,0,0:0:0:0:
168,136,53782,1,0,0:0:0:0:
152,280,54101,1,0,0:0:0:0:
336,296,54420,1,0,0:0:0:0:
352,112,54739,1,0,0:0:0:0:
176,128,55058,1,0,0:0:0:0:
172,284,55377,1,0,0:0:0:0:
360,296,55697,1,0,0:0:0:0:
364,112,56016,1,0,0:0:0:0:
192,128,56335,1,0,0:0:0:0:
168,264,56654,1,0,0:0:0:0:
320,280,56973,1,0,0:0:0:0:
348,144,57292,1,0,0:0:0:0:
152,112,57611,1,0,0:0:0:0:
156,272,57931,1,0,0:0:0:0:
312,272,58250,1,0,0:0:0:0:
332,148,58569,1,0,0:0:0:0:
168,140,58888,1,0,0:0:0:0:
252,284,59207,1,0,0:0:0:0:
268,96,59526,1,0,0:0:0:0:
184,276,59845,1,0,0:0:0:0:
172,120,60165,1,0,0:0:0:0:
252,284,60484,1,0,0:0:0:0:
280,104,60803,1,0,0:0:0:0:
188,280,61122,1,0,0:0:0:0:
172,112,61441,1,0,0:0:0:0:
256,272,61760,1,0,0:0:0:0:
316,112,62080,1,0,0:0:0:0:
196,264,62399,1,0,0:0:0:0:
216,152,62718,1,0,0:0:0:0:
376,188,63037,1,0,0:0:0:0:
172,252,63356,1,0,0:0:0:0:
68,144,63675,1,0,0:0:0:0:
240,108,63994,1,0,0:0:0:0:
288,248,64314,1,0,0:0:0:0:
144,248,64633,1,0,0:0:0:0:
316,192,64952,1,0,0:0:0:0:
132,156,65271,1,0,0:0:0:0:
300,120,65590,1,0,0:0:0:0:
112,84,65909,1,0,0:0:0:0:
304,68,66228,1,0,0:0:0:0:
328,220,66548,1,0,0:0:0:0:
160,260,66867,1,0,0:0:0:0:
144,132,67186,1,0,0:0:0:0:
356,124,67505,1,0,0:0:0:0:
324,304,67824,1,0,0:0:0:0:
260,96,68143,1,0,0:0:0:0:
204,308,68462,1,0,0:0:0:0:
132,112,68782,1,0,0:0:0:0:
96,264,69101,1,0,0:0:0:0:
268,168,69420,1,0,0:0:0:0:
392,216,69739,1,0,0:0:0:0:
120,148,70058,1,0,0:0:0:0:
296,80,70377,1,0,0:0:0:0:
284,260,70697,1,0,0:0:0:0:
132,276,71016,1,0,0:0:0:0:
196,108,71335,1,0,0:0:0:0:
344,156,71654,1,0,0:0:0:0:
304,308,71973,1,0,0:0:0:0:
136,288,72292,1,0,0:0:0:0:
140,148,72611,1,0,0:0:0:0:
312,132,72931,1,0,0:0:0:0:
300,260,73250,1,0,0:0:0:0:
208,152,73569,1,0,0:0:0:0:
168,268,73888,1,0,0:0:0:0:
320,176,74207,1,0,0:0:0:0:
296,288,74526,1,0,0:0:0:0:
156,284,74845,1,0,0:0:0:0:
136,192,75165,1,0,0:0:0:0:
208,116,75484,1,0,0:0:0:0:
312,132,75803,1,0,0:0:0:0:
348,208,76122,1,0,0:0:0:0:
332,264,76441,1,0,0:0:0:0:
240,280,76760,1,0,0:0:0:0:
144,268,77080,1,0,0:0:0:0:
92,220,77399,1,0,0:0:0:0:
128,140,77718,1,0,0:0:0:0:
204,104,78037,1,0,0:0:0:0:
296,108,78356,1,0,0:0:0:0:
352,204,78675,1,0,0:0:0:0:
320,268,78994,1,0,0:0:0:0:
192,264,79314,1,0,0:0:0:0:
152,212,79633,1,0,0:0:0:0:
156,156,79952,1,0,0:0:0:0:
204,112,80271,1,0,0:0:0:0:
288,100,80590,1,0,0:0:0:0:
328,172,80909,1,0,0:0:0:0:
204,248,81228,1,0,0:0:0:0:
112,184,81548,1,0,0:0:0:0:
232,148,81867,1,0,0:0:0:0:
336,212,82186,1,0,0:0:0:0:
352,264,82505,1,0,0:0:0:0:
392,168,82824,1,0,0:0:0:0:
260,100,83143,1,0,0:0:0:0:
152,152,83462,1,0,0:0:0:0:
148,264,83782,1,0,0:0:0:0:
280,300,84101,1,0,0:0:0:0:
356,212,84420,1,0,0:0:0:0:
380,128,84739,1,0,0:0:0:0:
240,80,85058,1,0,0:0:0:0:
144,120,85377,1,0,0:0:0:0:
136,228,85697,1,0,0:0:0:0:
164,280,86016,1,0,0:0:0:0:
288,280,86335,1,0,0:0:0:0:
344,244,86654,1,0,0:0:0:0:
356,176,86973,1,0,0:0:0:0:
356,108,87292,1,0,0:0:0:0:
232,72,87611,1,0,0:0:0:0:
136,136,87931,1,0,0:0:0:0:
132,240,88250,1,0,0:0:0:0:
248,280,88569,1,0,0:0:0:0:
332,232,88888,1,0,0:0:0:0:
360,136,89207,1,0,0:0:0:0:
272,72,89526,1,0,0:0:0:0:
128,104,89845,1,0,0:0:0:0:
132,228,90165,1,0,0:0:0:0:
172,280,90484,1,0,0:0:0:0:
268,280,90803,1,0,0:0:0:0:
348,224,91122,1,0,0:0:0:0:
360,128,91441,1,0,0:0:0:0:
312,56,91760,1,0,0:0:0:0:
176,56,92080,1,0,0:0:0:0:
104,164,92399,1,0,0:0:0:0:
112,240,92718,1,0,0:0:0:0:
224,272,93037,1,0,0:0:0:0:
336,248,93356,1,0,0:0:0:0:
400,156,93675,1,0,0:0:0:0:
380,76,93994,1,0,0:0:0:0:
196,60,94314,1,0,0:0:0:0:
88,136,94633,1,0,0:0:0:0:
100,248,94952,1,0,0:0:0:0:
196,272,95271,1,0,0:0:0:0:
328,244,95590,1,0,0:0:0:0:
144,176,95909,1,0,0:0:0:0:
328,164,96228,1,0,0:0:0:0:
160,108,96548,1,0,0:0:0:0:
304,80,96867,1,0,0:0:0:0:
264,244,97186,1,0,0:0:0:0:
184,104,97505,1,0,0:0:0:0:
140,252,97824,1,0,0:0:0:0:
264,104,98143,1,0,0:0:0:0:
296,256,98462,1,0,0:0:0:0:
184,108,98782,1,0,0:0:0:0:
88,136,99101,1,0,0:0:0:0:
120,256,99420,1,0,0:0:0:0:
232,264,99739,1,0,0:0:0:0:
300,120,100058,1,0,0:0:0:0:
356,272,100377,1,0,0:0:0:0:
208,260,100697,1,0,0:0:0:0:
72,248,101016,1,0,0:0:0:0:
136,112,101335,1,0,0:0:0:0:
280,136,101654,1,0,0:0:0:0:
280,276,101973,1,0,0:0:0:0:
140,268,102292,1,0,0:0:0:0:
160,120,102611,1,0,0:0:0:0:
324,152,102931,1,0,0:0:0:0:
312,276,103250,1,0,0:0:0:0:
140,252,103569,1,0,0:0:0:0:
196,104,103888,1,0,0:0:0:0:
352,108,104207,1,0,0:0:0:0:
332,268,104526,1,0,0:0:0:0:
148,240,104845,1,0,0:0:0:0:
164,128,105165,1,0,0:0:0:0:
288,256,105484,1,0,0:0:0:0:
316,88,105803,1,0,0:0:0:0:
152,256,106122,1,0,0:0:0:0:
156,84,106441,1,0,0:0:0:0:
320,248,106760,1,0,0:0:0:0:
368,100,107080,1,0,0:0:0:0:
152,228,107399,1,0,0:0:0:0:
320,216,108675,1,0,0:0:0:0:
120,220,109952,1,0,0:0:0:0:
372,272,111228,1,0,0:0:0:0:
116,172,112505,1,0,0:0:0:0:
312,152,113303,1,0,0:0:0:0:
232,272,113622,1,0,0:0:0:0:
148,128,114101,1,0,0:0:0:0:
308,176,114420,1,0,0:0:0:0:
172,164,115058,1,0,0:0:0:0:
232,272,115377,1,0,0:0:0:0:
364,184,115697,1,0,0:0:0:0:
136,168,116016,1,0,0:0:0:0:
172,276,116335,1,0,0:0:0:0:
320,280,116654,1,0,0:0:0:0:
352,132,116973,1,0,0:0:0:0:
148,112,117292,1,0,0:0:0:0:
152,280,117611,1,0,0:0:0:0:
332,268,117931,1,0,0:0:0:0:
340,112,118250,1,0,0:0:0:0:
156,100,118569,1,0,0:0:0:0:
128,260,118888,1,0,0:0:0:0:
288,280,119207,1,0,0:0:0:0:
376,96,119526,1,0,0:0:0:0:
156,88,119845,1,0,0:0:0:0:
128,256,120165,1,0,0:0:0:0:
316,280,120484,1,0,0:0:0:0:
336,76,120803,1,0,0:0:0:0:
160,72,121122,1,0,0:0:0:0:
132,280,121441,1,0,0:0:0:0:
344,280,121760,1,0,0:0:0:0:
376,80,122080,1,0,0:0:0:0:
64,48,122399,1,0,0:0:0:0:
56,320,122718,1,0,0:0:0:0:
376,328,123037,1,0,0:0:0:0:
456,92,123356,1,0,0:0:0:0:
72,20,123675,1,0,0:0:0:0:
72,284,123994,1,0,0:0:0:0:
428,296,124314,1,0,0:0:0:0:
444,76,124633,1,0,0:0:0:0:
128,24,124952,1,0,0:0:0:0:
96,304,125271,1,0,0:0:0:0:
408,296,125590,1,0,0:0:0:0:
460,84,125909,1,0,0:0:0:0:
132,36,126228,1,0,0:0:0:0:
124,280,126548,1,0,0:0:0:0:
376,276,126867,1,0,0:0:0:0:
396,92,127186,1,0,0:0:0:0:
136,60,127505,1,0,0:0:0:0:
116,292,127824,1,0,0:0:0:0:
432,304,128143,1,0,0:0:0:0:
436,84,128462,1,0,0:0:0:0:
152,52,128782,1,0,0:0:0:0:
108,288,129101,1,0,0:0:0:0:
352,280,129420,1,0,0:0:0:0:
356,80,129739,1,0,0:0:0:0:
136,72,130058,1,0,0:0:0:0:
88,248,130377,1,0,0:0:0:0:
304,264,130697,1,0,0:0:0:0:
312,100,131016,1,0,0:0:0:0:
136,56,131335,1,0,0:0:0:0:
88,224,131654,1,0,0:0:0:0:
244,272,131973,1,0,0:0:0:0:
400,156,132292,1,0,0:0:0:0:
240,56,132611,1,0,0:0:0:0:
92,188,132931,1,0,0:0:0:0:
136,292,133250,1,0,0:0:0:0:
180,200,133569,1,0,0:0:0:0:
376,208,133888,1,0,0:0:0:0:
216,308,134207,1,0,0:0:0:0:
140,164,134526,1,0,0:0:0:0:
340,176,134845,1,0,0:0:0:0:
344,292,135165,1,0,0:0:0:0:
152,252,135484,1,0,0:0:0:0:
232,104,135803,1,0,0:0:0:0:
340,272,136122,1,0,0:0:0:0:
152,280,136441,1,0,0:0:0:0:
180,108,136760,1,0,0:0:0:0:
328,144,137080,1,0,0:0:0:0:
308,288,137399,1,0,0:0:0:0:
88,252,137718,1,0,0:0:0:0:
152,104,138037,1,0,0:0:0:0:
272,136,138356,1,0,0:0:0:0:
224,272,138675,1,0,0:0:0:0:
128,192,138994,1,0,0:0:0:0:
308,124,139314,1,0,0:0:0:0:
320,148,139633,1,0,0:0:0:0:
312,212,139952,1,0,0:0:0:0:
264,252,140271,1,0,0:0:0:0:
220,252,140590,1,0,0:0:0:0:
176,236,140909,1,0,0:0:0:0:
156,184,141228,1,0,0:0:0:0:
176,128,141548,1,0,0:0:0:0:
248,124,141867,1,0,0:0:0:0:
336,144,142186,1,0,0:0:0:0:
284,216,142505,1,0,0:0:0:0:
232,264,142824,1,0,0:0:0:0:
124,232,143143,1,0,0:0:0:0:
112,156,143462,1,0,0:0:0:0:
176,124,143782,1,0,0:0:0:0:
256,128,144101,1,0,0:0:0:0:
328,152,144420,1,0,0:0:0:0:
352,216,144739,1,0,0:0:0:0:
332,280,145058,1,0,0:0:0:0:
264,304,145377,1,0,0:0:0:0:
176,264,145697,1,0,0:0:0:0:
136,208,146016,1,0,0:0:0:0:
152,144,146335,1,0,0:0:0:0:
196,112,146654,1,0,0:0:0:0:
276,104,146973,1,0,0:0:0:0:
336,120,147292,1,0,0:0:0:0:
376,168,147611,1,0,0:0:0:0:
360,224,147931,1,0,0:0:0:0:
332,264,148250,1,0,0:0:0:0:
260,276,148569,1,0,0:0:0:0:
200,264,148888,1,0,0:0:0:0:
128,208,149207,1,0,0:0:0:0:
112,152,149526,1,0,0:0:0:0:
140,112,149845,1,0,0:0:0:0:
216,112,150165,1,0,0:0:0:0:
296,132,150484,1,0,0:0:0:0:
372,176,150803,1,0,0:0:0:0:
384,260,151122,1,0,0:0:0:0:
212,272,151760,1,0,0:0:0:0:
100,220,152080,1,0,0:0:0:0:
196,156,152558,1,0,0:0:0:0:
248,160,153037,1,0,0:0:0:0:
264,168,153356,1,0,0:0:0:0:
288,188,153835,1,0,0:0:0:0:
332,216,154314,1,0,0:0:0:0:
280,288,154633,1,0,0:0:0:0:
128,208,155111,1,0,0:0:0:0:
216,136,155590,1,0,0:0:0:0:
384,160,155909,1,0,0:0:0:0:
232,232,156388,1,0,0:0:0:0:
176,204,156867,1,0,0:0:0:0:
256,200,157186,1,0,0:0:0:0:
228,216,157824,1,0,0:0:0:0:
96,72,158462,1,0,0:0:0:0:
408,104,158941,1,0,0:0:0:0:
124,264,159420,1,0,0:0:0:0:
372,272,159739,1,0,0:0:0:0:
132,68,160218,1,0,0:0:0:0:
368,80,160697,1,0,0:0:0:0:
360,336,161016,1,0,0:0:0:0:
64,300,161494,1,0,0:0:0:0:
176,64,161973,1,0,0:0:0:0:
232,328,162292,1,0,0:0:0:0:
320,76,162771,1,0,0:0:0:0:
84,300,163250,1,0,0:0:0:0:
104,40,163569,1,0,0:0:0:0:
468,40,164048,1,0,0:0:0:0:
472,348,164526,1,0,0:0:0:0:
128,320,164845,1,0,0:0:0:0:
100,96,165324,1,0,0:0:0:0:
272,72,165803,1,0,0:0:0:0:
436,200,166122,1,0,0:0:0:0:
160,268,166760,1,0,0:0:0:0:
180,228,168675,1,0,0:0:0:0:
300,204,169154,1,0,0:0:0:0:
152,168,169633,1,0,0:0:0:0:
128,304,169952,1,0,0:0:0:0:
324,300,170431,1,0,0:0:0:0:
352,192,170909,1,0,0:0:0:0:
192,152,171228,1,0,0:0:0:0:
168,284,171707,1,0,0:0:0:0:
320,264,172186,1,0,0:0:0:0:
412,224,172505,1,0,0:0:0:0:
280,128,172824,1,0,0:0:0:0:
152,168,173143,1,0,0:0:0:0:
148,268,173462,1,0,0:0:0:0:
340,296,173782,1,0,0:0:0:0:
384,168,174260,1,0,0:0:0:0:
200,104,174739,1,0,0:0:0:0:
120,252,175058,1,0,0:0:0:0:
304,324,175377,1,0,0:0:0:0:
440,232,175697,1,0,0:0:0:0:
304,112,176016,1,0,0:0:0:0:
140,220,176335,1,0,0:0:0:0:
320,256,176814,1,0,0:0:0:0:
192,96,177292,1,0,0:0:0:0:
152,112,177611,1,0,0:0:0:0:
144,232,177931,1,0,0:0:0:0:
180,288,178250,1,0,0:0:0:0:
316,280,178569,1,0,0:0:0:0:
348,164,178888,1,0,0:0:0:0:
236,124,179048,1,0,0:0:0:0:
156,184,179367,1,0,0:0:0:0:
140,228,179526,1,0,0:0:0:0:
240,272,179845,1,0,0:0:0:0:
320,248,180165,1,0,0:0:0:0:
356,192,180324,1,0,0:0:0:0:
332,132,180643,1,0,0:0:0:0:
320,120,180803,1,0,0:0:0:0:
212,124,181122,1,0,0:0:0:0:
172,192,181441,1,0,0:0:0:0:
208,256,181760,1,0,0:0:0:0:
316,256,182080,1,0,0:0:0:0:
376,184,182399,1,0,0:0:0:0:
256,104,182718,1,0,0:0:0:0:
120,136,183037,1,0,0:0:0:0:
104,256,183356,1,0,0:0:0:0:
288,280,183675,1,0,0:0:0:0:
348,140,183994,1,0,0:0:0:0:
200,96,184314,1,0,0:0:0:0:
124,244,184633,1,0,0:0:0:0:
320,288,184952,1,0,0:0:0:0:
336,120,185271,1,0,0:0:0:0:
160,100,185590,1,0,0:0:0:0:
152,272,185909,1,0,0:0:0:0:
340,272,186228,1,0,0:0:0:0:
312,108,186548,1,0,0:0:0:0:
144,128,186867,1,0,0:0:0:0:
140,272,187186,1,0,0:0:0:0:
328,268,187505,1,0,0:0:0:0:
324,104,187824,1,0,0:0:0:0:
144,112,188143,1,0,0:0:0:0:
148,272,188462,1,0,0:0:0:0:
308,252,188782,1,0,0:0:0:0:
312,112,189101,1,0,0:0:0:0:
156,96,189420,1,0,0:0:0:0:
148,252,189739,1,0,0:0:0:0:
308,268,190058,1,0,0:0:0:0:
312,128,190377,1,0,0:0:0:0:
144,124,190697,1,0,0:0:0:0:
132,256,191016,1,0,0:0:0:0:
220,168,191335,1,0,0:0:0:0:
280,200,191654,1,0,0:0:0:0:
208,272,191973,1,0,0:0:0:0:
128,208,192292,1,0,0:0:0:0:
180,128,192611,1,0,0:0:0:0:
288,144,192931,1,0,0:0:0:0:
264,248,193250,1,0,0:0:0:0:
120,256,193569,1,0,0:0:0:0:
260,124,193888,1,0,0:0:0:0:
372,172,194207,1,0,0:0:0:0:
144,168,194526,1,0,0:0:0:0:
192,280,194845,1,0,0:0:0:0:
292,136,195165,1,0,0:0:0:0:
112,120,195484,1,0,0:0:0:0:
172,284,195803,1,0,0:0:0:0:
340,248,196122,1,0,0:0:0:0:
264,88,196441,1,0,0:0:0:0:
100,192,196760,1,0,0:0:0:0:
168,284,197080,1,0,0:0:0:0:
288,208,197399,1,0,0:0:0:0:
160,116,197718,1,0,0:0:0:0:
128,268,198037,1,0,0:0:0:0:
252,120,198356,1,0,0:0:0:0:
244,296,198675,1,0,0:0:0:0:
120,104,198994,1,0,0:0:0:0:
112,268,199314,1,0,0:0:0:0:
208,108,199633,1,0,0:0:0:0:
288,264,199952,1,0,0:0:0:0:
112,176,200271,1,0,0:0:0:0:
120,272,200590,1,0,0:0:0:0:
276,208,201069,1,0,0:0:0:0:
120,188,201548,1,0,0:0:0:0:
192,272,201867,1,0,0:0:0:0:
316,196,202345,1,0,0:0:0:0:
212,132,202824,1,0,0:0:0:0:
144,232,203143,1,0,0:0:0:0:
252,200,203622,1,0,0:0:0:0:
256,192,203941,12,0,206335,0:0:0:0:
